osu file format v14

[General]
AudioFilename: 023--TEENAGER.mp3
AudioLeadIn: 0
PreviewTime: 60999
Countdown: 0
SampleSet: Soft
StackLeniency: 0.7
Mode: 0
LetterboxInBreaks: 0
WidescreenStoryboard: 0

[Editor]
Bookmarks: 155686,220374
DistanceSpacing: 1.11
BeatDivisor: 4
GridSize: 4
TimelineZoom: 2.2

[Metadata]
Title:TEENAGER
TitleUnicode:TEENAGER
Artist:Jung Joon Young
ArtistUnicode:정준영
Creator:HabiHolic
Version:Hard
Source:
Tags:CJ E&M MMO Gaia
BeatmapID:484037
BeatmapSetID:189288

[Difficulty]
HPDrainRate:6
CircleSize:4
OverallDifficulty:6
ApproachRate:7.5
SliderMultiplier:1.6
SliderTickRate:1

[Events]
//Background and Video events
0,0,"BG.jpg",0,0
//Break Periods
2,84448,107424
//Storyboard Layer 0 (Background)
//Storyboard Layer 1 (Fail)
//Storyboard Layer 2 (Pass)
//Storyboard Layer 3 (Foreground)
//Storyboard Sound Samples

[TimingPoints]
249,375,4,2,0,30,1,0
12249,-133.333333333333,4,2,0,30,0,0
36246,-133.333333333333,4,2,0,30,0,0
36249,-133.333333333333,4,2,1,50,0,0
56499,-133.333333333333,4,2,3,50,0,0
56592,-133.333333333333,4,2,1,50,0,0
57249,-133.333333333333,4,2,1,60,0,0
58561,-133.333333333333,4,2,1,70,0,0
59686,-133.333333333333,4,2,1,75,0,0
60249,-100,4,2,2,80,0,0
108249,-133.333333333333,4,2,0,30,0,0
132249,-133.333333333333,4,2,1,50,0,0
153249,-133.333333333333,4,2,1,60,0,0
154749,-133.333333333333,4,2,1,70,0,0
155686,-133.333333333333,4,2,1,75,0,0
156249,-100,4,2,2,80,0,0
240249,-133.333333333333,4,2,0,50,0,0
241374,-133.333333333333,4,2,0,40,0,0
242499,-133.333333333333,4,2,0,30,0,0
243249,-133.333333333333,4,2,0,20,0,0
244936,-133.333333333333,4,2,0,15,0,0
246249,-133.333333333333,4,2,0,10,0,0
246811,-133.333333333333,4,2,0,5,0,0

[Colours]
Combo1 : 126,4,6
Combo2 : 47,36,40

[HitObjects]
32,176,12249,6,0,P|20:236|44:296,1,120.000004577637,0|2,0:0|0:0,0:0:0:0:
200,360,12999,2,0,L|264:352,1,60.0000022888184,0|0,0:0|0:0,0:0:0:0:
344,300,13374,1,2,0:0:0:0:
432,356,13561,2,0,P|488:328|500:276,1,120.000004577637,0|0,0:0|0:0,0:0:0:0:
456,172,14124,1,2,0:0:0:0:
368,216,14311,2,0,L|304:212,1,60.0000022888184,0|2,0:0|0:0,0:0:0:0:
240,128,14686,2,0,L|304:124,1,60.0000022888184,0|2,0:0|0:0,0:0:0:0:
188,216,15061,5,0,0:0:0:0:
188,216,15249,2,0,P|152:184|176:52,2,180.000006866455,0|2|0,0:0|0:0|0:0,0:0:0:0:
420,184,16936,1,2,0:0:0:0:
420,184,17124,1,0,0:0:0:0:
420,184,17499,2,0,L|428:244,1,60.0000022888184,2|0,0:0|0:0,0:0:0:0:
488,364,17874,2,0,L|492:300,1,60.0000022888184,0|0,0:0|0:0,0:0:0:0:
392,336,18249,6,0,P|336:360|280:344,1,120.000004577637,2|0,0:0|0:0,0:0:0:0:
216,264,18811,1,0,0:0:0:0:
288,192,18999,2,0,L|292:132,2,60.0000022888184,2|0|0,0:0|0:0|0:0,0:0:0:0:
216,264,19561,2,0,P|164:288|104:272,1,120.000004577637,2|0,0:0|0:0,0:0:0:0:
36,200,20124,1,0,0:0:0:0:
84,112,20311,2,0,P|136:88|196:104,1,120.000004577637,2|0,0:0|0:0,0:0:0:0:
292,152,20874,2,0,L|296:92,1,60.0000022888184,0|0,0:0|0:0,0:0:0:0:
376,31,21249,6,0,P|461:43|493:123,2,180.000006866455,0|2|0,0:0|0:0|0:0,0:0:0:0:
320,244,22936,1,2,0:0:0:0:
320,244,23124,1,0,0:0:0:0:
176,368,23499,2,0,L|184:296,1,60.0000022888184,2|0,0:0|0:0,0:0:0:0:
96,236,23874,2,0,L|89:295,1,60.0000022888184,2|0,0:0|0:0,0:0:0:0:
184,180,24249,6,0,P|240:192|296:168,1,120.000004577637,0|2,0:0|0:0,0:0:0:0:
364,92,24811,1,0,0:0:0:0:
448,148,24999,2,0,L|444:216,1,60.0000022888184,0|0,0:0|0:0,0:0:0:0:
376,284,25374,1,2,0:0:0:0:
296,220,25561,6,0,P|264:216|236:220,1,60.0000022888184
156,284,25936,2,0,L|92:280,1,60.0000022888184,0|2,0:0|0:0,0:0:0:0:
16,216,26311,2,0,L|8:152,1,60.0000022888184,0|2,0:0|0:0,0:0:0:0:
124,104,26686,2,0,L|116:163,1,60.0000022888184,0|2,0:0|0:0,0:0:0:0:
52,44,27061,1,0,0:0:0:0:
52,44,27249,6,0,P|92:16|172:24,1,120.000004577637
231,83,27811,1,2,0:0:0:0:
231,83,28374,6,0,P|311:115|376:59,1,180.000006866455,0|2,0:0|0:0,0:0:0:0:
376,59,29124,1,0,0:0:0:0:
424,248,29499,2,0,L|492:240,2,60.0000022888184,2|0|2,0:0|0:0|0:0,0:0:0:0:
352,324,30061,1,0,0:0:0:0:
260,272,30249,6,0,P|200:256|148:284,1,120.000004577637,0|2,0:0|0:0,0:0:0:0:
88,360,30811,1,0,0:0:0:0:
16,292,30999,2,0,L|12:232,1,60.0000022888184,0|0,0:0|0:0,0:0:0:0:
72,148,31374,1,2,0:0:0:0:
156,204,31561,6,0,P|192:208|216:200,1,60.0000022888184,0|0,0:0|0:0,0:0:0:0:
296,136,31936,2,0,L|360:140,1,60.0000022888184,2|0,0:0|0:0,0:0:0:0:
432,232,32311,2,0,L|368:236,1,60.0000022888184,0|0,0:0|0:0,0:0:0:0:
276,280,32686,1,0,0:0:0:0:
192,232,32874,2,0,P|188:200|188:172,1,60.0000022888184,2|0,0:0|0:0,0:0:0:0:
264,96,33249,6,0,L|384:92,1,120.000004577637,0|0,0:0|0:0,0:0:0:0:
468,140,33811,1,2,0:0:0:0:
487,320,34374,2,0,P|413:366|326:349,1,180.000006866455,0|2,0:0|0:0,0:0:0:0:
272,272,35124,1,0,0:0:0:0:
272,272,35499,2,0,L|276:208,1,60.0000022888184,2|0,0:0|0:0,0:0:0:0:
216,120,35874,1,2,0:0:0:0:
216,120,36249,6,0,L|92:112,2,120.000004577637,4|2|8,0:0|0:0|0:0,0:0:0:0:
292,192,37186,2,0,L|352:188,1,60.0000022888184
476,280,37561,2,0,L|416:276,1,60.0000022888184,2|2,0:0|0:0,0:0:0:0:
348,348,37936,1,2,0:0:0:0:
268,304,38124,1,2,0:0:0:0:
268,304,38499,6,0,B|232:328|232:328|152:312,1,120.000004577637,8|0,0:0|0:0,0:0:0:0:
116,228,39061,1,0,0:0:0:0:
116,228,39249,6,0,P|124:168|112:104,1,120.000004577637,2|2,0:0|0:0,0:0:0:0:
296,32,39999,2,0,P|288:92|300:156,1,120.000004577637,8|2,0:0|0:0,0:0:0:0:
376,212,40561,1,2,0:0:0:0:
376,212,40749,6,0,L|448:208,2,60.0000022888184,2|0|2,0:0|0:0|0:0,0:0:0:0:
216,296,41499,1,8,0:0:0:0:
128,316,41686,1,0,0:0:0:0:
108,224,41874,1,2,0:0:0:0:
200,204,42061,1,0,0:0:0:0:
216,296,42249,6,0,L|340:308,1,120.000004577637,4|2,0:0|0:0,0:0:0:0:
496,240,42999,2,0,L|432:232,1,60.0000022888184,8|0,0:0|0:0,0:0:0:0:
340,252,43374,2,0,P|328:188|336:132,1,120.000004577637,0|2,0:0|0:0,0:0:0:0:
396,52,43936,1,0,0:0:0:0:
456,132,44124,2,0,L|520:128,1,60.0000022888184,2|0,0:0|0:0,0:0:0:0:
396,52,44499,2,0,L|272:40,1,120.000004577637,8|0,0:0|0:0,0:0:0:0:
196,108,45061,1,0,0:0:0:0:
196,108,45249,6,0,P|136:116|88:80,2,120.000004577637,2|2|8,0:0|0:0|0:0,0:0:0:0:
352,84,46374,2,0,L|348:144,1,60.0000022888184,0|2,0:0|0:0,0:0:0:0:
248,208,46749,2,0,L|240:144,2,60.0000022888184,0|2|2,0:0|0:0|0:0,0:0:0:0:
432,352,47499,1,8,0:0:0:0:
432,352,47686,1,2,0:0:0:0:
352,300,47874,2,0,L|288:304,1,60.0000022888184,2|2,0:0|0:0,0:0:0:0:
212,364,48249,6,0,P|188:304|208:248,1,120.000004577637,4|2,0:0|0:0,0:0:0:0:
276,176,48811,1,0,0:0:0:0:
356,240,48999,2,0,L|420:236,2,60.0000022888184,8|0|0,0:0|0:0|0:0,0:0:0:0:
276,176,49561,2,0,L|152:168,1,120.000004577637,2|2,0:0|0:0,0:0:0:0:
76,112,50124,1,2,0:0:0:0:
16,192,50311,2,0,P|12:224|20:256,1,60.0000022888184,0|8,0:0|0:0,0:0:0:0:
88,316,50686,2,0,L|152:312,1,60.0000022888184
224,240,51061,1,0,0:0:0:0:
308,312,51249,6,0,P|364:328|416:300,1,120.000004577637,2|2,0:0|0:0,0:0:0:0:
500,164,51999,2,0,L|372:152,1,120.000004577637,8|0,0:0|0:0,0:0:0:0:
304,84,52561,1,2,0:0:0:0:
220,152,52749,2,0,P|220:184|224:216,1,60.0000022888184,0|2,0:0|0:0,0:0:0:0:
292,288,53124,1,2,0:0:0:0:
292,288,53499,2,0,L|352:284,1,60.0000022888184,8|2,0:0|0:0,0:0:0:0:
440,196,53874,2,0,L|380:192,1,60.0000022888184,2|2,0:0|0:0,0:0:0:0:
316,120,54249,6,0,P|256:108|208:136,1,120.000004577637,4|2,0:0|0:0,0:0:0:0:
140,212,54811,1,0,0:0:0:0:
64,144,54999,2,0,L|-4:136,2,60.0000022888184,8|0|0,0:0|0:0|0:0,0:0:0:0:
140,212,55561,2,0,P|164:268|148:328,1,120.000004577637,2|2,0:0|0:0,0:0:0:0:
72,276,56124,1,2,0:0:0:0:
140,212,56311,2,0,L|208:216,1,60.0000022888184,2|0,0:0|1:0,0:0:0:0:
280,272,56686,2,0,L|348:268,1,60.0000022888184
432,228,57061,1,0,0:0:0:0:
432,228,57249,6,0,P|448:184|428:116,2,120.000004577637,2|2|8,0:0|0:0|0:0,0:0:0:0:
356,168,58186,1,0,0:0:0:0:
240,248,58374,2,0,L|308:240,1,60.0000022888184,8|0,0:0|0:0,0:0:0:0:
168,320,58749,6,0,L|104:316,1,60.0000022888184,2|8,0:0|0:0,0:0:0:0:
16,232,59124,2,0,L|80:228,1,60.0000022888184,8|2,0:0|0:0,0:0:0:0:
152,152,59499,1,8,0:0:0:0:
232,216,59686,2,0,L|264:212,5,30.0000011444092,8|2|8|2|8|2,0:0|0:0|0:0|0:0|0:0|0:0,0:0:0:0:
304,244,60249,6,0,P|312:152|304:76,1,160,4|8,0:0|0:0,0:0:0:0:
216,24,60811,1,0,0:0:0:0:
128,92,60999,2,0,L|48:84,2,80,2|2|8,0:0|0:0|0:0,0:0:0:0:
200,172,61561,2,0,L|288:164,1,80,0|2,0:0|0:0,0:0:0:0:
388,76,61936,2,0,L|296:68,1,80,2|8,0:0|0:0,0:0:0:0:
472,128,62311,2,0,P|484:88|480:44,1,80,0|2,0:0|0:0,0:0:0:0:
384,172,62686,2,0,P|384:216|400:252,1,80,2|8,0:0|0:0,0:0:0:0:
484,304,63061,1,2,0:0:0:0:
396,356,63249,6,0,L|236:344,1,160,0|8,0:0|0:0,0:0:0:0:
136,280,63811,1,0,0:0:0:0:
136,280,63999,2,0,L|52:284,1,80,2|2,0:0|0:0,0:0:0:0:
8,180,64374,2,0,L|92:184,1,80,8|0,0:0|0:0,0:0:0:0:
180,128,64749,2,0,P|260:108|320:152,1,160,2|8,0:0|0:0,0:0:0:0:
368,244,65311,1,0,0:0:0:0:
280,316,65499,2,0,L|200:308,1,80,2|2,0:0|0:0,0:0:0:0:
128,228,65874,1,8,0:0:0:0:
40,296,66061,1,2,0:0:0:0:
40,296,66155,1,8,0:0:0:0:
40,296,66249,6,0,P|31:208|32:128,1,160,4|8,0:0|0:0,0:0:0:0:
104,56,66811,1,0,0:0:0:0:
184,128,66999,2,0,P|224:132|272:128,1,80,2|2,0:0|0:0,0:0:0:0:
352,64,67374,1,8,0:0:0:0:
432,128,67561,2,0,L|428:208,1,80,0|2,0:0|0:0,0:0:0:0:
328,272,67936,2,0,L|324:192,1,80,2|8,0:0|0:0,0:0:0:0:
236,128,68311,2,0,P|196:120|156:120,1,80,2|0,0:0|0:0,0:0:0:0:
88,232,68686,2,0,P|127:231|167:223,1,80,2|8,0:0|0:0,0:0:0:0:
304,212,69061,1,0,0:0:0:0:
304,212,69249,6,0,P|312:128|308:48,2,160,2|8|2,0:0|0:0|0:0,0:0:0:0:
220,280,70186,2,0,L|140:272,1,80,2|8,0:0|0:0,0:0:0:0:
84,176,70561,1,0,0:0:0:0:
84,176,70749,2,0,L|164:168,1,80,2|2,0:0|0:0,0:0:0:0:
248,72,71124,2,0,L|168:64,2,80,8|2|8,0:0|0:0|0:0,0:0:0:0:
320,152,71686,2,0,L|360:148,5,40,2|2|8|2|2|2,0:0|0:0|0:0|0:0|0:0|0:0,0:0:0:0:
384,192,72249,6,0,P|456:184|508:256,1,160,4|8,0:0|0:0,0:0:0:0:
476,348,72811,1,0,0:0:0:0:
392,300,72999,2,0,L|312:296,1,80,2|2,0:0|0:0,0:0:0:0:
220,348,73374,1,8,0:0:0:0:
152,268,73561,2,0,P|148:228|148:188,1,80,0|2,0:0|0:0,0:0:0:0:
264,132,73936,2,0,P|263:171|259:211,1,80,2|8,0:0|0:0,0:0:0:0:
152,268,74311,2,0,L|72:264,1,80,0|2,0:0|0:0,0:0:0:0:
16,160,74686,2,0,L|100:152,1,80,2|8,0:0|0:0,0:0:0:0:
168,80,75061,1,0,0:0:0:0:
248,156,75249,6,0,P|328:172|384:124,1,160,2|8,0:0|0:0,0:0:0:0:
472,56,75811,1,0,0:0:0:0:
508,148,75999,2,0,P|512:188|508:232,1,80,2|2,0:0|0:0,0:0:0:0:
428,296,76374,2,0,L|348:288,1,80,8|0,0:0|0:0,0:0:0:0:
256,232,76749,2,0,P|184:212|116:264,1,160,2|8,0:0|0:0,0:0:0:0:
118,258,77311,1,0,0:0:0:0:
172,360,77499,2,0,L|252:356,1,80,2|2,0:0|0:0,0:0:0:0:
340,284,77874,1,8,0:0:0:0:
436,348,78061,1,2,0:0:0:0:
436,348,78155,1,8,0:0:0:0:
436,348,78249,6,0,P|452:268|436:188,1,160,4|8,0:0|0:0,0:0:0:0:
288,88,78999,2,0,L|208:80,1,80,2|2,0:0|0:0,0:0:0:0:
120,144,79374,1,8,0:0:0:0:
120,144,79561,2,0,P|160:208|240:216,1,160,2|2,0:0|0:0,0:0:0:0:
304,132,80124,1,8,0:0:0:0:
380,212,80311,2,0,L|460:208,1,80,0|2,0:0|0:0,0:0:0:0:
372,312,80686,2,0,L|292:308,1,80,2|8,0:0|0:0,0:0:0:0:
216,236,81061,1,0,0:0:0:0:
136,308,81249,6,0,P|64:316|8:256,2,160,8|8|8,0:0|0:0|0:0,0:0:0:0:
216,236,82186,2,0,L|296:232,1,80,2|2,0:0|0:0,0:0:0:0:
384,336,82561,1,8,0:0:0:0:
384,336,82749,2,0,L|304:332,1,80,2|2,0:0|0:0,0:0:0:0:
204,364,83124,1,8,0:0:0:0:
120,292,83311,2,0,P|116:252|116:212,1,80,2|8,0:0|0:0,0:0:0:0:
184,120,83686,1,8,0:0:0:0:
184,120,83780,1,8,0:0:0:0:
184,120,83874,1,8,3:0:0:0:
268,192,84061,6,0,L|352:188,1,80,4|4,3:0|0:0,0:0:0:0:
32,132,108249,6,0,P|16:192|40:248,1,120.000004577637,0|2,0:0|0:0,0:0:0:0:
224,352,108999,1,0,0:0:0:0:
224,352,109186,2,0,L|284:344,1,60.0000022888184,0|2,0:0|0:0,0:0:0:0:
352,248,109561,2,0,L|288:240,1,60.0000022888184,0|0,0:0|0:0,0:0:0:0:
208,144,109936,2,0,L|272:136,1,60.0000022888184,0|2,0:0|0:0,0:0:0:0:
340,72,110311,1,0,0:0:0:0:
436,128,110499,2,0,L|432:192,1,60.0000022888184,2|0,0:0|0:0,0:0:0:0:
376,276,110874,1,2,0:0:0:0:
376,276,111249,6,0,P|316:264|268:296,1,120.000004577637,0|0,0:0|0:0,0:0:0:0:
192,360,111811,2,0,L|64:348,1,120.000004577637,2|0,0:0|0:0,0:0:0:0:
16,268,112374,1,2,0:0:0:0:
16,268,112936,5,0,0:0:0:0:
36,168,113124,1,0,0:0:0:0:
36,168,113499,2,0,L|96:164,1,60.0000022888184,2|0,0:0|0:0,0:0:0:0:
196,244,113874,2,0,L|136:248,1,60.0000022888184,2|0,0:0|0:0,0:0:0:0:
268,295,114249,6,0,P|284:239|261:185,2,120.000004577637,2|2|2,0:0|0:0|0:0,0:0:0:0:
52,288,115374,6,0,B|68:232|68:232|28:184|44:116,1,180.000006866455,2|0,0:0|0:0,0:0:0:0:
120,64,116124,2,0,L|244:56,2,120.000004577637,2|2|2,0:0|0:0|0:0,0:0:0:0:
28,184,117249,6,0,P|20:220|36:308,1,120.000004577637,0|0,0:0|0:0,0:0:0:0:
100,368,117811,1,2,0:0:0:0:
100,368,118374,1,2,0:0:0:0:
236,300,118936,5,0,0:0:0:0:
236,300,119124,1,0,0:0:0:0:
376,360,119499,2,0,L|448:356,1,60.0000022888184,0|0,0:0|0:0,0:0:0:0:
504,264,119874,2,0,L|440:260,1,60.0000022888184,2|0,0:0|0:0,0:0:0:0:
340,260,120249,6,0,P|332:200|336:136,1,120.000004577637,2|0,0:0|0:0,0:0:0:0:
388,52,120811,1,2,0:0:0:0:
388,52,120999,2,0,L|452:44,1,60.0000022888184,0|0,0:0|0:0,0:0:0:0:
504,152,121374,2,0,L|440:148,1,60.0000022888184,2|0,0:0|0:0,0:0:0:0:
360,200,121749,6,0,P|304:216|252:184,1,120.000004577637,0|0,0:0|0:0,0:0:0:0:
164,40,122499,2,0,L|152:160,1,120.000004577637,2|0,0:0|0:0,0:0:0:0:
84,232,123061,1,0,0:0:0:0:
152,308,123249,2,0,P|208:324|264:304,1,120.000004577637,2|0,0:0|0:0,0:0:0:0:
324,212,123811,1,2,0:0:0:0:
324,212,124374,2,0,L|448:220,1,120.000004577637,2|0,0:0|0:0,0:0:0:0:
492,312,124936,2,0,L|432:316,1,60.0000022888184,0|0,0:0|0:0,0:0:0:0:
268,328,125499,5,2,0:0:0:0:
176,344,125686,1,0,0:0:0:0:
160,252,125874,1,2,0:0:0:0:
256,236,126061,1,0,0:0:0:0:
268,328,126249,6,0,L|388:340,1,120.000004577637,0|2,0:0|0:0,0:0:0:0:
480,284,126811,1,0,0:0:0:0:
480,284,126999,2,0,P|484:248|480:220,1,60.0000022888184
416,148,127374,1,2,0:0:0:0:
336,208,127561,2,0,L|268:204,1,60.0000022888184
200,120,127936,2,0,L|268:116,1,60.0000022888184,0|2,0:0|0:0,0:0:0:0:
136,196,128311,1,0,0:0:0:0:
136,196,128499,2,0,P|80:204|24:168,1,120.000004577637,2|0,0:0|0:0,0:0:0:0:
199,119,129249,6,0,P|233:200|190:275,1,180.000006866455,2|2,0:0|0:0,0:0:0:0:
190,275,130374,2,0,L|320:268,1,120.000004577637,2|0,0:0|0:0,0:0:0:0:
384,172,130936,2,0,L|320:168,1,60.0000022888184,0|2,0:0|0:0,0:0:0:0:
192,76,131499,2,0,L|128:80,1,60.0000022888184,2|0,0:0|0:0,0:0:0:0:
68,176,131874,2,0,L|132:180,1,60.0000022888184,2|0,0:0|0:0,0:0:0:0:
280,132,132249,6,0,P|296:80|276:12,1,120,4|2,0:0|0:0,0:0:0:0:
188,168,132999,2,0,P|220:212|288:224,1,120.000004577637,8|0,0:0|0:0,0:0:0:0:
368,180,133561,1,2,0:0:0:0:
440,248,133749,2,0,L|504:244,1,60.0000022888184,0|2,0:0|0:0,0:0:0:0:
400,336,134124,2,0,L|336:332,1,60.0000022888184,2|0,0:0|0:0,0:0:0:0:
272,272,134499,2,0,P|216:260|168:296,1,120.000004577637,8|0,0:0|0:0,0:0:0:0:
88,360,135061,1,0,0:0:0:0:
20,288,135249,6,0,P|16:224|16:168,2,120.000004577637,2|2|8,0:0|0:0|0:0,0:0:0:0:
160,208,136374,2,0,L|220:212,1,60.0000022888184,0|2,0:0|0:0,0:0:0:0:
304,296,136749,2,0,L|240:300,1,60.0000022888184,0|2,0:0|0:0,0:0:0:0:
160,348,137124,1,2,0:0:0:0:
160,348,137499,1,8,0:0:0:0:
68,296,137686,2,0,L|64:232,1,60.0000022888184,0|0,0:0|0:0,0:0:0:0:
132,148,138061,1,0,0:0:0:0:
212,220,138249,6,0,P|264:236|324:208,1,120.000004577637,2|2,0:0|0:0,0:0:0:0:
432,72,138999,2,0,L|368:68,1,60.0000022888184,8|0,0:0|0:0,0:0:0:0:
288,24,139374,2,0,P|224:12|176:48,1,120.000004577637,0|2,0:0|0:0,0:0:0:0:
116,120,139936,1,0,0:0:0:0:
28,80,140124,2,0,L|20:20,1,60.0000022888184,2|0,0:0|0:0,0:0:0:0:
116,120,140499,2,0,P|132:176|116:240,1,120.000004577637,8|0,0:0|0:0,0:0:0:0:
40,304,141061,1,0,0:0:0:0:
128,364,141249,6,0,L|188:360,1,60.0000022888184,2|0,0:0|0:0,0:0:0:0:
272,272,141624,2,0,L|212:268,1,60.0000022888184,2|0,0:0|0:0,0:0:0:0:
128,184,141999,2,0,L|248:176,1,120.000004577637,8|0,0:0|0:0,0:0:0:0:
360,208,142561,2,0,P|372:152|360:88,1,120.000004577637,2|2,0:0|0:0,0:0:0:0:
284,24,143124,1,2,0:0:0:0:
284,24,143499,2,0,L|220:20,1,60.0000022888184,8|2,0:0|0:0,0:0:0:0:
156,120,143874,2,0,L|224:116,1,60.0000022888184,0|0,0:0|0:0,0:0:0:0:
76,72,144249,6,0,P|60:128|88:188,1,120.000004577637,4|2,0:0|0:0,0:0:0:0:
224,252,144999,2,0,L|344:244,1,120.000004577637,8|0,0:0|0:0,0:0:0:0:
432,292,145561,1,2,0:0:0:0:
496,224,145749,6,0,P|500:192|496:160,1,60.0000022888184,0|2,0:0|0:0,0:0:0:0:
428,88,146124,2,0,L|368:92,1,60.0000022888184,2|0,0:0|0:0,0:0:0:0:
288,184,146499,2,0,L|420:192,1,120.000004577637,8|0,0:0|0:0,0:0:0:0:
407,191,147061,1,0,0:0:0:0:
496,252,147249,2,0,P|504:192|496:132,2,120.000004577637,2|2|8,0:0|0:0|0:0,0:0:0:0:
360,356,148374,2,0,L|300:352,1,60.0000022888184,0|2,0:0|0:0,0:0:0:0:
216,264,148749,2,0,L|284:260,2,60.0000022888184,0|2|2,0:0|0:0|0:0,0:0:0:0:
40,312,149499,2,0,L|32:252,1,60.0000022888184,8|0,0:0|0:0,0:0:0:0:
144,200,149874,2,0,L|136:260,1,60.0000022888184,0|0,0:0|0:0,0:0:0:0:
96,124,150249,6,0,P|136:108|204:136,1,120.000004577637,4|2,0:0|0:0,0:0:0:0:
260,212,150811,1,0,0:0:0:0:
260,212,150999,2,0,L|328:208,1,60.0000022888184,8|0,0:0|0:0,0:0:0:0:
400,112,151374,2,0,L|336:108,1,60.0000022888184,0|0,0:0|0:0,0:0:0:0:
476,168,151749,2,0,P|492:112|472:52,2,120.000004577637,2|2|8,0:0|0:0|0:0,0:0:0:0:
344,256,152874,2,0,L|280:252,1,60.0000022888184,0|0,0:0|0:0,0:0:0:0:
208,188,153249,6,0,P|148:176|96:208,1,120.000004577637,2|2,0:0|0:0,0:0:0:0:
64,296,153811,1,0,0:0:0:0:
140,360,153999,2,0,L|208:356,1,60.0000022888184,8|0,0:0|0:0,0:0:0:0:
296,272,154374,2,0,L|228:268,1,60.0000022888184,8|0,0:0|0:0,0:0:0:0:
144,176,154749,2,0,L|208:172,1,60.0000022888184,2|8,0:0|0:0,0:0:0:0:
304,88,155124,2,0,L|240:80,2,60.0000022888184,8|2|8,0:0|0:0|0:0,0:0:0:0:
368,168,155686,2,0,L|408:164,5,30.0000011444092,2|2|8|2|2|2,0:0|0:0|0:0|0:0|0:0|0:0,0:0:0:0:
448,196,156249,6,0,P|364:192|324:248,1,160,4|8,0:0|0:0,0:0:0:0:
364,348,156811,1,0,0:0:0:0:
364,348,156999,2,0,L|444:344,2,80,2|2|8,0:0|0:0|0:0,0:0:0:0:
280,284,157561,2,0,L|196:280,1,80,0|2,0:0|0:0,0:0:0:0:
120,192,157936,2,0,L|200:184,1,80,2|8,0:0|0:0,0:0:0:0:
40,252,158311,2,0,P|24:216|24:172,1,80,0|2,0:0|0:0,0:0:0:0:
96,88,158686,1,2,0:0:0:0:
192,132,158874,1,8,0:0:0:0:
260,52,159061,1,0,0:0:0:0:
344,112,159249,6,0,P|424:128|480:80,2,160,2|8|2,0:0|0:0|0:0,0:0:0:0:
260,52,160186,1,2,0:0:0:0:
192,132,160374,2,0,P|156:124|108:124,1,80,8|0,0:0|0:0,0:0:0:0:
32,236,160749,2,0,P|71:235|110:227,1,80,2|2,0:0|0:0,0:0:0:0:
216,172,161124,2,0,L|212:256,1,80,8|0,0:0|0:0,0:0:0:0:
136,324,161499,1,2,0:0:0:0:
224,376,161686,2,0,P|268:380|304:372,1,80,2|8,0:0|0:0,0:0:0:0:
380,304,162061,1,0,0:0:0:0:
380,304,162249,6,0,L|400:144,1,160,4|8,0:0|0:0,0:0:0:0:
224,52,162999,2,0,L|144:44,1,80,2|2,0:0|0:0,0:0:0:0:
40,148,163374,1,8,0:0:0:0:
40,148,163561,2,0,L|124:140,1,80,0|2,0:0|0:0,0:0:0:0:
252,232,163936,2,0,L|168:224,1,80,2|8,0:0|0:0,0:0:0:0:
40,316,164311,2,0,L|124:308,1,80,2|0,0:0|0:0,0:0:0:0:
204,368,164686,1,2,0:0:0:0:
284,300,164874,1,8,0:0:0:0:
388,328,165061,1,0,0:0:0:0:
480,272,165249,6,0,P|492:192|476:112,2,160,2|8|2,0:0|0:0|0:0,0:0:0:0:
388,328,166186,1,2,0:0:0:0:
304,280,166374,2,0,L|224:288,1,80,8|0,0:0|0:0,0:0:0:0:
108,184,166749,2,0,L|192:192,1,80,2|2,0:0|0:0,0:0:0:0:
256,124,167124,2,0,P|264:85|254:46,2,80,8|2|8,0:0|0:0|0:0,0:0:0:0:
332,180,167686,2,0,L|380:172,5,40,2|2|8|2|2|2,0:0|0:0|0:0|0:0|0:0|0:0,0:0:0:0:
396,167,168249,6,0,P|471:173|516:244,1,160,4|8,0:0|0:0,0:0:0:0:
412,336,168811,1,0,0:0:0:0:
412,336,168999,2,0,L|428:244,2,80,2|2|8,0:0|0:0|0:0,0:0:0:0:
312,320,169561,2,0,P|264:316|232:316,1,80,0|2,0:0|0:0,0:0:0:0:
144,352,169936,2,0,P|104:344|64:328,1,80,2|8,0:0|0:0,0:0:0:0:
8,232,170311,1,0,0:0:0:0:
8,232,170499,2,0,P|72:180|144:192,1,160,2|8,0:0|0:0,0:0:0:0:
216,260,171061,1,0,0:0:0:0:
292,188,171249,6,0,L|372:192,1,80,2|0,0:0|0:0,0:0:0:0:
460,280,171624,2,0,L|372:288,1,80,8|0,0:0|0:0,0:0:0:0:
292,336,171999,1,2,0:0:0:0:
208,264,172186,2,0,P|200:224|204:184,1,80,2|8,0:0|0:0,0:0:0:0:
260,96,172561,1,0,0:0:0:0:
336,184,172749,2,0,P|412:204|476:152,1,160,2|8,0:0|0:0,0:0:0:0:
392,116,173311,1,0,0:0:0:0:
260,96,173499,2,0,P|224:84|180:84,1,80,2|2,0:0|0:0,0:0:0:0:
108,212,173874,2,0,P|147:211|185:199,1,80,8|0,0:0|0:0,0:0:0:0:
292,200,174249,6,0,L|276:364,2,160,4|8|2,0:0|0:0|0:0,0:0:0:0:
348,112,175186,2,0,P|392:104|432:100,1,80,2|8,0:0|0:0,0:0:0:0:
512,216,175561,2,0,P|472:211|432:204,1,80,0|2,0:0|0:0,0:0:0:0:
336,312,175936,2,0,P|380:304|420:300,1,80,2|8,0:0|0:0,0:0:0:0:
264,240,176311,2,0,P|188:216|128:268,1,160,2|2,0:0|0:0,0:0:0:0:
52,336,176874,1,8,0:0:0:0:
52,336,177249,6,0,L|40:256,1,80,8|2,0:0|0:0,0:0:0:0:
108,168,177624,1,8,0:0:0:0:
108,168,177811,1,2,0:0:0:0:
184,244,177999,2,0,P|224:252|272:252,1,80,8|2,0:0|0:0,0:0:0:0:
348,148,178374,2,0,P|308:148|268:156,1,80,2|8,0:0|0:0,0:0:0:0:
184,244,178749,1,0,0:0:0:0:
108,168,178936,2,0,L|100:88,2,80,2|8|0,0:0|0:0|0:0,0:0:0:0:
80,268,179499,1,2,0:0:0:0:
208,144,179686,2,0,L|252:148,5,40,8|2|8|2|2|0,0:0|0:0|0:0|0:0|0:0|0:0,0:0:0:0:
280,180,180249,6,0,P|360:188|440:168,1,160,2|8,0:0|0:0,0:0:0:0:
480,72,180811,1,2,0:0:0:0:
380,20,180999,2,0,L|292:24,1,80,2|2,0:0|0:0,0:0:0:0:
168,96,181374,2,0,L|252:100,1,80,8|2,0:0|0:0,0:0:0:0:
103,175,181749,2,0,P|70:105|95:32,2,160,2|8|2,0:0|0:0|0:0,0:0:0:0:
184,216,182686,1,2,0:0:0:0:
104,276,182874,2,0,L|20:260,1,80,8|0,0:0|0:0,0:0:0:0:
168,352,183249,6,0,L|332:336,1,160,2|8,0:0|0:0,0:0:0:0:
420,372,183811,1,0,0:0:0:0:
484,304,183999,2,0,P|492:260|488:216,1,80,2|2,0:0|0:0,0:0:0:0:
404,160,184374,2,0,P|396:204|400:248,1,80,8|2,0:0|0:0,0:0:0:0:
344,320,184749,6,0,L|260:312,1,80,8|2,0:0|0:0,0:0:0:0:
140,232,185124,2,0,L|224:224,1,80,8|2,0:0|0:0,0:0:0:0:
352,152,185499,2,0,L|268:144,1,80,8|2,0:0|0:0,0:0:0:0:
196,64,185874,1,8,0:0:0:0:
112,132,186061,1,2,0:0:0:0:
12,92,186249,6,0,P|12:172|24:256,1,160,2|8,0:0|0:0,0:0:0:0:
104,324,186811,1,0,0:0:0:0:
216,220,186999,2,0,L|132:216,1,80,2|2,0:0|0:0,0:0:0:0:
92,308,187374,1,8,0:0:0:0:
200,368,187561,6,0,P|280:368|352:328,1,160,2|2,0:0|0:0,0:0:0:0:
368,296,188030,1,2,0:0:0:0:
368,296,188124,2,0,P|364:248|356:212,1,80,8|0,0:0|0:0,0:0:0:0:
272,136,188499,2,0,L|192:132,1,80,2|2,0:0|0:0,0:0:0:0:
112,236,188874,2,0,L|196:232,1,80,8|2,0:0|0:0,0:0:0:0:
32,176,189249,6,0,P|16:248|60:324,2,160,2|8|2,0:0|0:0|0:0,0:0:0:0:
104,100,190186,2,0,L|188:104,1,80,2|8,0:0|0:0,0:0:0:0:
264,180,190561,2,0,P|340:196|416:156,1,160,2|2,0:0|0:0,0:0:0:0:
504,112,191124,2,0,L|496:280,1,160,8|8,0:0|0:0,0:0:0:0:
424,348,191686,2,0,L|380:340,5,40,2|2|8|2|2|2,0:0|0:0|0:0|0:0|0:0|0:0,0:0:0:0:
336,304,192249,6,0,L|344:384,2,80,2|2|8,1:0|1:0|0:0,0:0:0:0:
392,208,192811,1,2,1:0:0:0:
320,136,192999,2,0,P|240:120|180:164,1,160,2|10,1:0|1:0,0:0:0:0:
152,256,193561,1,2,1:0:0:0:
224,328,193749,6,0,L|312:332,1,80,6|2,1:0|1:0,0:0:0:0:
384,224,194124,2,0,L|296:228,1,80,8|8,0:0|3:0,0:0:0:0:
304,227,194405,1,4,3:0:0:0:
304,227,194499,1,8,3:0:0:0:
200,116,194686,2,0,L|288:120,1,80,2|8,0:0|0:0,0:0:0:0:
136,204,195061,5,8,0:0:0:0:
136,204,195155,1,8,0:0:0:0:
136,204,195249,2,0,L|52:196,2,80,2|2|8,1:0|1:0|0:0,0:0:0:0:
212,280,195811,1,10,1:0:0:0:
312,236,195999,2,0,P|324:152|312:76,1,160,2|10,1:0|1:0,0:0:0:0:
224,20,196561,1,2,1:0:0:0:
148,96,196749,6,0,L|68:88,1,80,2|10,0:0|1:0,0:0:0:0:
12,212,197124,2,0,L|92:204,1,80,10|2,1:0|0:0,0:0:0:0:
184,236,197499,1,2,1:0:0:0:
264,176,197686,2,0,P|268:132|264:96,2,80,2|10|2,1:0|1:0|1:0,0:0:0:0:
184,236,198249,5,6,1:0:0:0:
256,312,198436,2,0,L|416:300,1,160,2|2,1:0|1:0,0:0:0:0:
484,200,198999,2,0,L|400:192,1,80,2|0,1:0|0:0,0:0:0:0:
304,104,199374,2,0,L|384:96,1,80,10|2,1:0|1:0,0:0:0:0:
216,148,199749,2,0,P|204:108|208:68,1,80,6|0,1:0|0:0,0:0:0:0:
304,200,200124,2,0,P|304:240|296:280,1,80,10|0,1:0|0:0,0:0:0:0:
212,340,200499,2,0,L|128:336,1,80,2|2,1:0|0:0,0:0:0:0:
24,364,200874,1,10,1:0:0:0:
24,364,201249,5,6,1:0:0:0:
92,280,201436,2,0,L|88:200,1,80,2|8,1:0|0:0,0:0:0:0:
156,112,201811,1,2,1:0:0:0:
240,184,201999,2,0,P|320:204|388:164,1,160,10|10,1:0|1:0,0:0:0:0:
480,120,202561,2,0,B|488:172|488:172|480:224|480:224|488:280,1,160,2|2,1:0|0:0,0:0:0:0:
416,352,203124,2,0,P|340:368|276:320,1,160,8|8,0:0|0:0,0:0:0:0:
264,204,203686,1,2,0:0:0:0:
172,256,203874,2,0,L|128:252,3,40,8|2|2|0,0:0|0:0|0:0|0:0,0:0:0:0:
80,272,204249,6,0,P|76:224|76:188,1,80,4|0,0:0|0:0,0:0:0:0:
136,112,204624,2,0,L|216:116,1,80,8|0,0:0|0:0,0:0:0:0:
348,208,204999,1,2,0:0:0:0:
348,208,205186,2,0,L|268:212,1,80,2|8,0:0|0:0,0:0:0:0:
184,272,205561,2,0,P|120:292|48:240,1,160,0|2,0:0|0:0,0:0:0:0:
24,136,206124,1,8,0:0:0:0:
120,172,206311,2,0,L|204:168,1,80,0|2,0:0|0:0,0:0:0:0:
272,76,206686,2,0,L|192:72,1,80,2|8,0:0|0:0,0:0:0:0:
340,160,207061,1,0,0:0:0:0:
340,160,207249,6,0,P|376:84|352:8,2,160,2|8|2,0:0|0:0|0:0,0:0:0:0:
248,224,208186,2,0,P|248:264|256:308,1,80,2|8,0:0|0:0,0:0:0:0:
336,360,208561,1,0,0:0:0:0:
336,360,208749,2,0,L|416:352,1,80,2|0,0:0|0:0,0:0:0:0:
492,260,209124,2,0,L|412:252,1,80,8|0,0:0|0:0,0:0:0:0:
312,172,209499,2,0,L|392:164,2,80,2|2|8,0:0|0:0|0:0,0:0:0:0:
232,232,210061,1,0,0:0:0:0:
152,180,210249,6,0,P|136:104|144:20,2,160,4|8|2,0:0|0:0|0:0,0:0:0:0:
232,232,211186,2,0,L|316:224,1,80,2|8,0:0|0:0,0:0:0:0:
400,328,211561,2,0,L|320:324,1,80,0|2,0:0|0:0,0:0:0:0:
232,372,211936,1,2,0:0:0:0:
148,320,212124,1,8,0:0:0:0:
56,360,212311,2,0,P|28:288|52:208,1,160,2|2,0:0|0:0,0:0:0:0:
128,140,212874,2,0,L|216:144,1,80,8|0,0:0|0:0,0:0:0:0:
288,204,213249,6,0,P|364:224|432:180,1,160,2|8,0:0|0:0,0:0:0:0:
452,80,213811,1,0,0:0:0:0:
364,24,213999,2,0,L|284:16,1,80,2|2,0:0|0:0,0:0:0:0:
216,124,214374,2,0,L|296:120,1,80,8|0,0:0|0:0,0:0:0:0:
128,92,214749,6,0,P|124:136|136:172,1,80,2|2,0:0|0:0,0:0:0:0:
212,300,215124,2,0,P|220:256|220:220,1,80,8|0,0:0|0:0,0:0:0:0:
124,256,215499,1,8,0:0:0:0:
304,264,215686,2,0,L|344:256,5,40,2|2|8|2|2|2,0:0|0:0|0:0|0:0|0:0|0:0,0:0:0:0:
384,276,216249,6,0,P|388:240|384:192,1,80,4|0,0:0|0:0,0:0:0:0:
324,112,216624,1,8,0:0:0:0:
324,112,216811,1,0,0:0:0:0:
248,172,216999,2,0,L|168:168,1,80,2|2,0:0|0:0,0:0:0:0:
84,112,217374,1,8,0:0:0:0:
12,188,217561,6,0,P|0:260|20:344,1,160,2|2,0:0|0:0,0:0:0:0:
112,376,218124,1,8,0:0:0:0:
112,376,218311,2,0,L|192:368,1,80,2|0,0:0|0:0,0:0:0:0:
264,272,218686,2,0,L|184:264,1,80,2|8,0:0|0:0,0:0:0:0:
100,172,219061,1,0,0:0:0:0:
100,172,219249,6,0,P|179:172|255:146,1,160,2|8,0:0|0:0,0:0:0:0:
348,76,219811,1,0,0:0:0:0:
436,140,219999,2,0,P|436:184|432:224,1,80,2|2,0:0|0:0,0:0:0:0:
336,288,220374,2,0,P|332:248|332:208,1,80,8|0,0:0|0:0,0:0:0:0:
256,148,220749,6,0,P|180:128|116:176,1,160,2|8,0:0|0:0,0:0:0:0:
80,264,221311,1,0,0:0:0:0:
148,336,221499,2,0,P|188:336|232:324,1,80,2|2,0:0|0:0,0:0:0:0:
308,264,221874,1,8,0:0:0:0:
400,316,222061,1,2,0:0:0:0:
400,316,222155,1,2,0:0:0:0:
400,315,222249,6,0,P|407:236|404:156,1,160,4|8,0:0|0:0,0:0:0:0:
332,80,222811,1,0,0:0:0:0:
252,152,222999,2,0,L|168:148,1,80,2|2,0:0|0:0,0:0:0:0:
92,88,223374,1,8,0:0:0:0:
12,160,223561,6,0,P|0:240|24:320,1,160,2|2,0:0|0:0,0:0:0:0:
108,368,224124,1,8,0:0:0:0:
108,368,224311,2,0,L|272:356,1,160,2|2,0:0|0:0,0:0:0:0:
352,288,224874,1,8,0:0:0:0:
352,288,225249,6,0,L|432:288,2,80,8|2|8,0:0|0:0|0:0,0:0:0:0:
276,212,225811,1,2,0:0:0:0:
208,292,225999,2,0,L|128:284,1,80,8|2,0:0|0:0,0:0:0:0:
60,184,226374,2,0,L|144:180,1,80,2|8,0:0|0:0,0:0:0:0:
224,84,226749,6,0,L|140:76,2,80,2|2|8,0:0|0:0|0:0,0:0:0:0:
304,152,227311,1,2,0:0:0:0:
384,88,227499,2,0,P|388:48|380:8,1,80,8|2,0:0|0:0,0:0:0:0:
304,152,227874,2,0,L|312:192,3,40,8|2|2|2,0:0|0:0|0:0|0:0,0:0:0:0:
308,224,228249,6,0,P|388:212|448:264,1,160,4|8,0:0|0:0,0:0:0:0:
416,360,228811,1,0,0:0:0:0:
316,328,228999,2,0,L|236:324,1,80,2|2,0:0|0:0,0:0:0:0:
148,276,229374,1,8,0:0:0:0:
72,340,229561,6,0,P|24:272|24:196,1,160,2|2,0:0|0:0,0:0:0:0:
92,116,230124,1,8,0:0:0:0:
164,184,230311,2,0,P|204:192|252:192,1,80,0|2,0:0|0:0,0:0:0:0:
320,88,230686,2,0,P|280:88|240:96,1,80,2|8,0:0|0:0,0:0:0:0:
392,176,231061,1,0,0:0:0:0:
392,176,231249,6,0,L|404:16,2,160,2|8|2,0:0|0:0|0:0,0:0:0:0:
448,272,232186,1,2,0:0:0:0:
368,340,232374,2,0,L|288:348,1,80,8|2,0:0|0:0,0:0:0:0:
192,240,232749,6,0,L|280:248,1,80,2|2,0:0|0:0,0:0:0:0:
112,296,233124,2,0,P|96:256|100:216,1,80,8|2,0:0|0:0,0:0:0:0:
160,68,233499,2,0,P|164:108|160:152,1,80,8|0,0:0|0:0,0:0:0:0:
64,108,233874,1,8,0:0:0:0:
256,112,234061,1,8,0:0:0:0:
256,112,234155,1,2,0:0:0:0:
256,112,234249,6,0,P|340:116|416:96,1,160,4|8,0:0|0:0,0:0:0:0:
488,180,234811,1,0,0:0:0:0:
424,276,234999,2,0,L|340:268,1,80,2|2,0:0|0:0,0:0:0:0:
344,268,235280,1,2,0:0:0:0:
344,268,235374,1,8,0:0:0:0:
248,216,235561,6,0,P|168:192|104:240,1,160,2|2,0:0|0:0,0:0:0:0:
148,344,236124,2,0,L|232:340,1,80,8|2,0:0|0:0,0:0:0:0:
227,340,236405,1,2,0:0:0:0:
227,340,236499,1,2,0:0:0:0:
404,352,236686,2,0,L|324:359,1,80,2|8,0:0|0:0,0:0:0:0:
264,188,237249,6,0,L|184:192,2,80,8|2|2,0:0|0:0|0:0,0:0:0:0:
328,112,237811,2,0,L|408:116,2,80,8|2|2,0:0|0:0|0:0,0:0:0:0:
252,52,238374,2,0,L|172:56,2,80,8|0|2,0:0|0:0|0:0,0:0:0:0:
328,112,238936,1,8,0:0:0:0:
248,224,239124,6,0,L|236:140,1,80,2|2,0:0|0:0,0:0:0:0:
360,208,239499,2,0,L|348:292,1,80,8|2,0:0|0:0,0:0:0:0:
348,287,239780,1,2,0:0:0:0:
348,287,239874,1,8,3:0:0:0:
256,360,240061,1,4,3:0:0:0:
176,272,240249,6,0,L|116:268,1,60.0000022888184,4|0,0:0|0:0,0:0:0:0:
36,196,240624,1,2,0:0:0:0:
112,124,240811,2,0,L|104:60,2,60.0000022888184,0|0|2,0:0|0:0|0:0,0:0:0:0:
204,176,241374,1,0,0:0:0:0:
204,176,241561,1,0,0:0:0:0:
280,104,241749,6,0,L|340:108,1,60.0000022888184,2|0,0:0|0:0,0:0:0:0:
424,196,242124,2,0,L|360:200,1,60.0000022888184,0|2,0:0|0:0,0:0:0:0:
284,304,242499,2,0,L|344:300,2,60.0000022888184,0|0|2,0:0|0:0|0:0,0:0:0:0:
204,176,243249,6,0,L|140:184,1,60.0000022888184
60,224,243624,1,2,0:0:0:0:
8,152,243811,2,0,P|4:120|8:92,2,60.0000022888184,0|0|2,0:0|0:0|0:0,0:0:0:0:
60,224,244374,2,0,L|132:216,1,60.0000022888184
212,308,244749,6,0,L|148:304,2,60.0000022888184,2|0|0,0:0|0:0|0:0,0:0:0:0:
280,244,245311,1,0,0:0:0:0:
352,312,245499,2,0,L|412:304,1,60.0000022888184,2|0,0:0|0:0,0:0:0:0:
484,208,245874,2,0,L|412:204,1,60.0000022888184,2|0,0:0|0:0,0:0:0:0:
320,152,246249,6,0,L|328:216,2,60.0000022888184,0|0|2,0:0|0:0|0:0,0:0:0:0:
372,64,246811,1,0,0:0:0:0:
284,20,246999,2,0,P|252:16|220:20,1,60.0000022888184,0|2,0:0|0:0,0:0:0:0:
144,88,247374,2,0,L|80:80,1,60.0000022888184,0|0,0:0|0:0,0:0:0:0:
24,184,247749,5,2,0:0:0:0:
24,184,247936,2,0,L|92:180,1,60.0000022888184,0|0,0:0|0:0,0:0:0:0:
172,228,248311,1,2,0:0:0:0:
256,160,248499,2,0,P|260:124|256:96,2,60.0000022888184,0|0|2,0:0|0:0|0:0,0:0:0:0:
320,356,249249,5,2,0:0:0:0:
240,312,249436,1,2,0:0:0:0:
312,264,249624,1,2,0:0:0:0:
320,356,249811,1,2,0:0:0:0:
436,192,250186,5,2,0:0:0:0:
436,192,250561,1,2,0:0:0:0:
436,192,250936,1,2,0:0:0:0:
256,36,251499,5,2,0:0:0:0:
