osu file format v14

[General]
AudioFilename: 023--TEENAGER.mp3
AudioLeadIn: 0
PreviewTime: 60999
Countdown: 0
SampleSet: Soft
StackLeniency: 0.7
Mode: 0
LetterboxInBreaks: 0
WidescreenStoryboard: 0

[Editor]
Bookmarks: 84530,155686
DistanceSpacing: 1.11
BeatDivisor: 4
GridSize: 4
TimelineZoom: 1

[Metadata]
Title:TEENAGER
TitleUnicode:TEENAGER
Artist:Jung Joon Young
ArtistUnicode:정준영
Creator:HabiHolic
Version:Easy
Source:
Tags:CJ E&M MMO Gaia
BeatmapID:483045
BeatmapSetID:189288

[Difficulty]
HPDrainRate:2
CircleSize:3
OverallDifficulty:2
ApproachRate:3
SliderMultiplier:0.899999999999999
SliderTickRate:1

[Events]
//Background and Video events
0,0,"BG.jpg",0,0
//Break Periods
2,84449,106809
//Storyboard Layer 0 (Background)
//Storyboard Layer 1 (Fail)
//Storyboard Layer 2 (Pass)
//Storyboard Layer 3 (Foreground)
//Storyboard Sound Samples

[TimingPoints]
249,375,4,2,0,30,1,0
12249,-100,4,2,0,30,0,0
36249,-100,4,2,1,50,0,0
56499,-100,4,2,3,50,0,0
56592,-100,4,2,1,50,0,0
57249,-100,4,2,1,60,0,0
58561,-100,4,2,1,70,0,0
59686,-100,4,2,1,75,0,0
60249,-100,4,2,2,80,0,0
84249,-100,4,2,2,80,0,0
108249,-100,4,2,0,30,0,0
132249,-100,4,2,1,50,0,0
153249,-100,4,2,1,60,0,0
154749,-100,4,2,1,70,0,0
155686,-100,4,2,1,75,0,0
156249,-100,4,2,2,80,0,0
180249,-100,4,2,2,80,0,0
192249,-100,4,2,2,80,0,0
204249,-100,4,2,2,80,0,0
240249,-100,4,2,0,50,0,0
241374,-100,4,2,0,40,0,0
242499,-100,4,2,0,30,0,0
243249,-100,4,2,0,20,0,0
244936,-100,4,2,0,15,0,0
246249,-100,4,2,0,10,0,0
246811,-100,4,2,0,5,0,0

[Colours]
Combo1 : 126,4,6
Combo2 : 47,36,40

[HitObjects]
183,184,12249,6,0,P|97:183|45:113,1,180,0|0,0:0|0:0,0:0:0:0:
144,92,13374,1,2,0:0:0:0:
244,108,13749,2,0,B|288:108|316:76|316:76|380:76,2,135,0|0|2,0:0|0:0|0:0,0:0:0:0:
180,184,15249,6,0,P|186:250|226:303,2,135,0|2|0,0:0|0:0|0:0,0:0:0:0:
328,196,16936,1,2,0:0:0:0:
244,72,17499,2,0,L|144:84,1,89.9999999999999,2|0,0:0|0:0,0:0:0:0:
60,40,18249,6,0,P|48:124|64:224,1,180,2|2,0:0|0:0,0:0:0:0:
140,280,19374,1,0,0:0:0:0:
223,224,19749,2,0,P|289:225|331:276,2,135,0|2|0,0:0|0:0|0:0,0:0:0:0:
124,232,21249,6,0,L|116:95,2,135,0|2|0,0:0|0:0|0:0,0:0:0:0:
256,308,22936,1,2,0:0:0:0:
368,208,23499,2,0,P|380:164|412:128,1,89.9999999999999,0|2,0:0|0:0,0:0:0:0:
495,88,24249,6,0,P|410:98|353:33,1,180,0|0,0:0|0:0,0:0:0:0:
256,28,25374,1,2,0:0:0:0:
158,33,25749,2,0,P|101:98|16:88,1,180,0|2,0:0|0:0,0:0:0:0:
36,188,26874,1,2,0:0:0:0:
115,247,27249,6,0,P|112:314|79:372,2,135,0|2|0,0:0|0:0|0:0,0:0:0:0:
204,128,28936,1,2,0:0:0:0:
300,244,29499,2,0,P|328:224|356:176,1,89.9999999999999,2|2,0:0|0:0,0:0:0:0:
336,79,30249,6,0,P|372:158|457:173,1,180,0|0,0:0|0:0,0:0:0:0:
456,276,31374,1,2,0:0:0:0:
380,336,31749,2,0,L|236:320,2,135,0|0|2,0:0|0:0|0:0,0:0:0:0:
372,236,33249,6,0,P|356:168|368:100,2,135,0|2|0,0:0|0:0|0:0,0:0:0:0:
256,140,34936,1,2,0:0:0:0:
208,284,35499,2,0,L|116:296,1,89.9999999999999,2|2,0:0|0:0,0:0:0:0:
24,260,36249,6,0,L|8:80,1,180,4|8,0:0|0:0,0:0:0:0:
100,36,37374,1,0,0:0:0:0:
152,120,37749,2,0,P|241:111|309:54,1,180,2|8,0:0|0:0,0:0:0:0:
472,172,39249,6,0,P|480:128|472:80,2,89.9999999999999,2|2|8,0:0|0:0|0:0,0:0:0:0:
372,204,40374,1,2,0:0:0:0:
276,224,40749,2,0,P|268:268|276:316,2,89.9999999999999,2|2|8,0:0|0:0|0:0,0:0:0:0:
308,128,41874,1,2,0:0:0:0:
212,151,42249,6,0,P|140:201|57:176,1,180,4|8,0:0|0:0,0:0:0:0:
128,104,43374,1,0,0:0:0:0:
211,51,43749,2,0,P|290:89|313:173,1,180,2|8,0:0|0:0,0:0:0:0:
212,348,45249,6,0,P|256:348|292:320,2,89.9999999999999,2|2|8,0:0|0:0|0:0,0:0:0:0:
224,248,46374,1,0,0:0:0:0:
232,148,46749,2,0,P|188:148|152:176,2,89.9999999999999,0|2|8,0:0|0:0|0:0,0:0:0:0:
316,200,47874,1,2,0:0:0:0:
323,99,48249,6,0,P|253:48|166:62,1,180,4|8,0:0|0:0,0:0:0:0:
76,108,49374,1,0,0:0:0:0:
56,204,49749,2,0,B|112:216|148:176|148:176|232:176,1,180,0|8,0:0|0:0,0:0:0:0:
412,208,51249,6,0,P|416:164|408:116,1,89.9999999999999,2|2,0:0|0:0,0:0:0:0:
344,39,51999,2,0,P|320:78|305:120,1,89.9999999999999,8|0,0:0|0:0,0:0:0:0:
207,119,52749,2,0,P|194:77|170:39,1,89.9999999999999,0|2,0:0|0:0,0:0:0:0:
105,117,53499,2,0,P|97:161|101:206,1,89.9999999999999,8|2,0:0|0:0,0:0:0:0:
44,288,54249,6,0,P|115:237|201:251,1,180,4|8,0:0|0:0,0:0:0:0:
256,336,55374,1,0,0:0:0:0:
308,252,55749,2,0,P|396:236|466:289,1,180,2|0,0:0|1:0,0:0:0:0:
372,328,56874,1,0,0:0:0:0:
256,192,57249,12,4,60249,0:0:0:0:
127,248,61749,6,0,P|151:186|130:123,2,135,2|2|8,0:0|0:0|0:0,0:0:0:0:
48,308,63249,5,2,0:0:0:0:
128,368,63624,2,0,L|220:356,1,89.9999999999999,8|2,0:0|0:0,0:0:0:0:
288,288,64374,1,8,0:0:0:0:
364,351,64749,2,0,P|382:311|380:266,1,89.9999999999999,2|8,0:0|0:0,0:0:0:0:
312,196,65499,2,0,P|310:151|328:110,1,89.9999999999999,2|8,0:0|0:0,0:0:0:0:
400,43,66249,6,0,P|327:92|243:70,1,180,4|2,0:0|0:0,0:0:0:0:
152,32,67374,1,8,0:0:0:0:
64,79,67749,2,0,P|47:144|69:207,2,135,2|2|8,0:0|0:0|0:0,0:0:0:0:
144,140,69249,6,0,B|212:140|212:140|252:112|252:112|328:112,1,180,2|2,0:0|0:0,0:0:0:0:
392,172,70374,1,8,0:0:0:0:
468,108,70749,2,0,P|490:191|432:264,1,180,2|8,0:0|0:0,0:0:0:0:
336,268,71874,1,8,0:0:0:0:
256,208,72249,6,0,P|212:200|168:208,1,89.9999999999999,4|8,0:0|0:0,0:0:0:0:
88,268,72999,2,0,L|72:172,1,89.9999999999999,2|8,0:0|0:0,0:0:0:0:
128,96,73749,2,0,P|62:84|1:111,2,135,2|0|8,0:0|0:0|0:0,0:0:0:0:
208,156,75249,6,0,P|224:120|220:64,2,89.9999999999999,2|8|2,0:0|0:0|0:0,0:0:0:0:
136,224,76374,1,8,0:0:0:0:
232,248,76749,2,0,L|324:244,1,89.9999999999999,2|8,0:0|0:0,0:0:0:0:
412,284,77499,2,0,P|420:240|412:188,1,89.9999999999999,2|8,0:0|0:0,0:0:0:0:
479,120,78249,6,0,P|396:142|329:87,1,180,4|2,0:0|0:0,0:0:0:0:
256,20,79374,1,8,0:0:0:0:
182,87,79749,2,0,P|115:142|32:120,1,180,2|2,0:0|0:0,0:0:0:0:
24,220,80874,1,8,0:0:0:0:
64,312,81249,6,0,L|160:296,1,89.9999999999999,8|8,0:0|0:0,0:0:0:0:
235,240,81999,2,0,P|301:234|351:277,2,135,8|8|8,0:0|0:0|0:0,0:0:0:0:
148,192,83499,2,0,L|132:100,1,89.9999999999999,8|8,0:0|3:0,0:0:0:0:
204,32,84249,5,4,0:0:0:0:
12,64,108249,6,0,L|40:252,1,180,0|0,0:0|0:0,0:0:0:0:
104,316,109374,1,2,0:0:0:0:
183,256,109749,2,0,P|228:253|267:275,1,89.9999999999999,0|2,0:0|0:0,0:0:0:0:
344,340,110499,2,0,L|448:324,1,89.9999999999999,2|2,0:0|0:0,0:0:0:0:
492,244,111249,6,0,P|510:179|490:116,2,135,0|2|2,0:0|0:0|0:0,0:0:0:0:
356,184,112936,1,0,0:0:0:0:
256,71,113499,2,0,P|218:95|173:94,1,89.9999999999999,2|2,0:0|0:0,0:0:0:0:
92,40,114249,5,2,0:0:0:0:
28,116,114624,2,0,L|48:216,1,89.9999999999999,2|2,0:0|0:0,0:0:0:0:
20,300,115374,2,0,P|85:241|171:253,1,180,0|2,0:0|0:0,0:0:0:0:
256,304,116499,1,2,0:0:0:0:
324,232,116874,1,2,0:0:0:0:
343,131,117249,6,0,P|403:159|428:220,2,135,0|2|2,0:0|0:0|0:0,0:0:0:0:
204,184,118936,1,0,0:0:0:0:
100,76,119499,1,0,0:0:0:0:
20,136,119874,1,2,0:0:0:0:
112,176,120249,6,0,L|88:324,2,135,2|2|2,0:0|0:0|0:0,0:0:0:0:
248,24,122499,1,0,0:0:0:0:
292,112,122874,1,2,0:0:0:0:
348,196,123249,6,0,P|412:181|463:223,2,135,2|2|2,0:0|0:0|0:0,0:0:0:0:
256,316,124936,1,0,0:0:0:0:
120,256,125499,2,0,L|108:160,1,89.9999999999999,2|2,0:0|0:0,0:0:0:0:
144,72,126249,6,0,P|100:63|58:78,2,89.9999999999999,0|2|0,0:0|0:0|0:0,0:0:0:0:
204,152,127374,2,0,P|289:165|350:103,1,180,2|2,0:0|0:0,0:0:0:0:
392,12,128499,1,2,0:0:0:0:
484,188,129249,6,0,L|464:324,1,135,2|2,0:0|0:0,0:0:0:0:
316,348,130374,2,0,L|296:214,1,135,2|0,0:0|0:0,0:0:0:0:
287,63,131499,2,0,P|243:63|204:83,1,89.9999999999999,2|2,0:0|0:0,0:0:0:0:
107,59,132249,6,0,P|163:128|157:216,1,180,4|8,0:0|0:0,0:0:0:0:
76,276,133374,1,0,0:0:0:0:
148,348,133749,2,0,L|240:336,1,89.9999999999999,0|2,0:0|0:0,0:0:0:0:
308,268,134499,2,0,L|412:284,1,89.9999999999999,8|0,0:0|0:0,0:0:0:0:
480,227,135249,6,0,P|508:143|482:59,1,180,2|8,0:0|0:0,0:0:0:0:
392,16,136374,1,0,0:0:0:0:
304,60,136749,2,0,L|204:44,1,89.9999999999999,0|2,0:0|0:0,0:0:0:0:
116,36,137499,2,0,B|128:84|128:84|112:128,1,89.9999999999999,8|0,0:0|0:0,0:0:0:0:
40,188,138249,6,0,P|124:168|189:225,1,180,2|8,0:0|0:0,0:0:0:0:
248,308,139374,1,0,0:0:0:0:
332,364,139749,2,0,L|432:352,1,89.9999999999999,2|2,0:0|0:0,0:0:0:0:
495,284,140499,2,0,P|508:241|499:197,1,89.9999999999999,8|0,0:0|0:0,0:0:0:0:
428,128,141249,6,0,B|376:128|336:160|336:160|252:140,1,180,2|8,0:0|0:0,0:0:0:0:
184,72,142374,1,0,0:0:0:0:
92,108,142749,2,0,L|76:12,2,89.9999999999999,0|2|8,0:0|0:0|0:0,0:0:0:0:
164,176,143874,1,0,0:0:0:0:
88,240,144249,6,0,P|167:275|243:234,1,180,4|8,0:0|0:0,0:0:0:0:
304,152,145374,1,0,0:0:0:0:
348,60,145749,2,0,L|484:84,2,135,2|0|2,0:0|0:0|0:0,0:0:0:0:
252,32,147249,6,0,L|160:48,1,89.9999999999999,2|2,0:0|0:0,0:0:0:0:
64,60,147999,2,0,P|80:100|76:152,1,89.9999999999999,8|0,0:0|0:0,0:0:0:0:
20,227,148749,2,0,P|105:211|169:270,1,180,0|8,0:0|0:0,0:0:0:0:
232,348,149874,1,0,0:0:0:0:
316,296,150249,6,0,B|300:240|300:240|332:108,1,180,4|8,0:0|0:0,0:0:0:0:
276,36,151374,1,0,0:0:0:0:
208,108,151749,2,0,L|120:88,1,89.9999999999999,2|2,0:0|0:0,0:0:0:0:
40,144,152499,2,0,P|48:188|41:232,1,89.9999999999999,8|0,0:0|0:0,0:0:0:0:
256,192,153249,12,4,156249,0:0:0:0:
388,248,157749,6,0,L|408:112,2,135,2|2|8,0:0|0:0|0:0,0:0:0:0:
464,308,159249,5,2,0:0:0:0:
384,368,159624,2,0,P|340:368|292:356,1,89.9999999999999,8|2,0:0|0:0,0:0:0:0:
224,288,160374,1,8,0:0:0:0:
147,351,160749,2,0,P|129:311|131:266,1,89.9999999999999,2|8,0:0|0:0,0:0:0:0:
200,196,161499,2,0,P|201:151|183:110,1,89.9999999999999,2|8,0:0|0:0,0:0:0:0:
111,43,162249,6,0,P|184:92|268:70,1,180,4|2,0:0|0:0,0:0:0:0:
360,32,163374,1,8,0:0:0:0:
447,79,163749,2,0,P|464:144|442:207,2,135,2|2|8,0:0|0:0|0:0,0:0:0:0:
368,140,165249,6,0,B|300:140|300:140|260:112|260:112|184:112,1,180,2|2,0:0|0:0,0:0:0:0:
120,172,166374,1,8,0:0:0:0:
43,108,166749,2,0,P|21:191|75:260,1,180,2|8,0:0|0:0,0:0:0:0:
176,268,167874,1,8,0:0:0:0:
256,208,168249,6,0,P|300:200|344:208,1,89.9999999999999,4|8,0:0|0:0,0:0:0:0:
424,268,168999,2,0,L|440:172,1,89.9999999999999,2|8,0:0|0:0,0:0:0:0:
383,96,169749,2,0,P|449:84|510:111,2,135,2|0|8,0:0|0:0|0:0,0:0:0:0:
304,156,171249,6,0,P|288:120|292:64,2,89.9999999999999,2|8|2,0:0|0:0|0:0,0:0:0:0:
376,224,172374,1,8,0:0:0:0:
280,248,172749,2,0,L|188:244,1,89.9999999999999,2|8,0:0|0:0,0:0:0:0:
100,284,173499,2,0,P|92:240|100:188,1,89.9999999999999,2|8,0:0|0:0,0:0:0:0:
32,120,174249,6,0,P|115:142|182:87,1,180,4|2,0:0|0:0,0:0:0:0:
252,20,175374,1,8,0:0:0:0:
329,87,175749,2,0,P|396:142|479:120,1,180,2|2,0:0|0:0,0:0:0:0:
488,220,176874,1,8,0:0:0:0:
448,312,177249,6,0,L|352:296,1,89.9999999999999,8|8,0:0|0:0,0:0:0:0:
280,240,177999,2,0,P|276:172|284:92,2,135,8|8|8,0:0|0:0|0:0,0:0:0:0:
236,328,179499,2,0,L|140:320,1,89.9999999999999,2|8,0:0|0:0,0:0:0:0:
52,352,180249,6,0,P|36:263|45:174,1,180,2|2,0:0|0:0,0:0:0:0:
116,104,181374,1,8,0:0:0:0:
188,172,181749,2,0,L|284:164,1,89.9999999999999,2|8,0:0|0:0,0:0:0:0:
376,188,182499,2,0,P|384:144|372:92,2,89.9999999999999,2|8|2,0:0|0:0|0:0,0:0:0:0:
300,252,183624,5,8,0:0:0:0:
340,344,183999,2,0,L|488:336,2,135,2|2|8,0:0|0:0|0:0,0:0:0:0:
244,312,185499,2,0,P|200:300|144:308,1,89.9999999999999,8|8,0:0|0:0,0:0:0:0:
60,348,186249,6,0,P|60:264|52:160,1,180,2|2,0:0|0:0,0:0:0:0:
36,68,187374,1,8,0:0:0:0:
128,104,187749,2,0,P|172:104|224:96,1,89.9999999999999,0|8,0:0|0:0,0:0:0:0:
308,56,188499,2,0,P|352:49|397:49,1,89.9999999999999,2|8,0:0|0:0,0:0:0:0:
472,120,189249,6,0,B|472:188|472:188|448:228|448:228|448:296,1,180,2|2,0:0|0:0,0:0:0:0:
372,356,190374,1,8,0:0:0:0:
296,292,190749,2,0,B|296:226|296:226|272:186|272:186|272:118,1,180,2|8,0:0|0:0,0:0:0:0:
208,44,191874,1,8,0:0:0:0:
148,120,192249,6,0,P|113:63|126:-1,2,135,6|2|10,1:0|1:0|1:0,0:0:0:0:
244,140,193749,2,0,P|190:208|103:209,1,180,6|8,1:0|3:0,0:0:0:0:
28,276,194874,1,8,0:0:0:0:
100,344,195249,6,0,P|152:344|192:320,1,89.9999999999999,6|8,1:0|0:0,0:0:0:0:
284,328,195999,2,0,P|324:347|368:345,1,89.9999999999999,2|10,1:0|1:0,0:0:0:0:
460,312,196749,2,0,P|480:228|460:136,1,180,2|2,0:0|1:0,0:0:0:0:
372,88,197874,1,10,1:0:0:0:
284,128,198249,6,0,P|278:62|318:9,2,135,6|2|10,1:0|1:0|1:0,0:0:0:0:
356,196,199749,2,0,P|276:228|196:184,1,180,6|2,1:0|1:0,0:0:0:0:
152,96,200874,1,10,1:0:0:0:
256,192,201249,12,4,204249,0:0:0:0:
388,136,205749,6,0,L|248:156,2,135,2|2|8,0:0|0:0|0:0,0:0:0:0:
464,76,207249,5,2,0:0:0:0:
384,16,207624,2,0,P|340:16|292:28,1,89.9999999999999,8|2,0:0|0:0,0:0:0:0:
224,96,208374,1,8,0:0:0:0:
147,32,208749,2,0,P|129:72|131:117,1,89.9999999999999,2|8,0:0|0:0,0:0:0:0:
200,188,209499,2,0,P|201:232|183:273,1,89.9999999999999,2|8,0:0|0:0,0:0:0:0:
111,340,210249,6,0,P|184:291|268:313,1,180,4|2,0:0|0:0,0:0:0:0:
360,352,211374,1,8,0:0:0:0:
447,304,211749,2,0,P|464:239|442:176,2,135,2|2|8,0:0|0:0|0:0,0:0:0:0:
368,244,213249,6,0,B|300:244|300:244|260:272|260:272|184:272,1,180,2|2,0:0|0:0,0:0:0:0:
120,212,214374,1,8,0:0:0:0:
43,275,214749,2,0,P|21:192|75:123,1,180,2|8,0:0|0:0,0:0:0:0:
176,116,215874,1,8,0:0:0:0:
256,176,216249,6,0,P|300:184|344:176,1,89.9999999999999,4|8,0:0|0:0,0:0:0:0:
424,116,216999,2,0,L|440:212,1,89.9999999999999,2|8,0:0|0:0,0:0:0:0:
383,287,217749,2,0,P|449:299|510:272,2,135,2|2|8,0:0|0:0|0:0,0:0:0:0:
304,228,219249,6,0,P|288:264|292:320,2,89.9999999999999,2|8|2,0:0|0:0|0:0,0:0:0:0:
376,160,220374,1,8,0:0:0:0:
280,136,220749,2,0,L|188:140,1,89.9999999999999,2|8,0:0|0:0,0:0:0:0:
100,100,221499,2,0,P|92:144|100:196,1,89.9999999999999,2|8,0:0|0:0,0:0:0:0:
32,263,222249,6,0,P|115:241|182:296,1,180,4|2,0:0|0:0,0:0:0:0:
252,364,223374,1,8,0:0:0:0:
329,296,223749,2,0,P|396:241|479:263,1,180,2|2,0:0|0:0,0:0:0:0:
488,164,224874,1,8,0:0:0:0:
448,72,225249,6,0,L|352:88,1,89.9999999999999,8|8,0:0|0:0,0:0:0:0:
280,144,225999,2,0,P|276:212|284:292,2,135,8|8|8,0:0|0:0|0:0,0:0:0:0:
236,56,227499,2,0,L|140:64,1,89.9999999999999,8|8,0:0|0:0,0:0:0:0:
48,40,228249,6,0,P|56:116|48:228,1,180,4|2,0:0|0:0,0:0:0:0:
88,308,229374,1,8,0:0:0:0:
172,352,229749,2,0,L|312:344,2,135,2|2|8,0:0|0:0|0:0,0:0:0:0:
180,256,231249,6,0,P|188:208|180:160,1,89.9999999999999,2|8,0:0|0:0,0:0:0:0:
156,76,231999,2,0,L|248:80,1,89.9999999999999,2|8,0:0|0:0,0:0:0:0:
331,127,232749,2,0,P|419:124|470:54,1,180,2|8,0:0|0:0,0:0:0:0:
372,36,233874,1,8,0:0:0:0:
332,128,234249,6,0,L|344:324,1,180,4|2,0:0|0:0,0:0:0:0:
256,356,235374,1,8,0:0:0:0:
169,307,235749,2,0,L|180:128,1,180,2|2,0:0|0:0,0:0:0:0:
256,56,236874,1,8,0:0:0:0:
307,140,237249,6,0,P|347:87|346:20,4,135,8|8|8|8|8,0:0|0:0|0:0|0:0|0:0,0:0:0:0:
208,140,239874,1,8,3:0:0:0:
120,190,240249,6,0,P|112:103|176:44,2,180,4|0|2,0:0|0:0|0:0,0:0:0:0:
320,192,242499,2,0,L|412:176,1,89.9999999999999,0|2,0:0|0:0,0:0:0:0:
492,228,243249,2,0,P|455:146|464:57,2,180,0|0|2,0:0|0:0|0:0,0:0:0:0:
320,332,245499,2,0,L|220:316,1,89.9999999999999,2|2,0:0|0:0,0:0:0:0:
155,251,246249,6,0,P|69:254|17:324,2,180,0|0|2,0:0|0:0|0:0,0:0:0:0:
344,180,248499,2,0,L|328:80,1,89.9999999999999,0|2,0:0|0:0,0:0:0:0:
256,192,249249,12,2,251499,0:0:0:0:
