osu file format v14

[General]
AudioFilename: audio.mp3
AudioLeadIn: 0
PreviewTime: 67016
Countdown: 0
SampleSet: Soft
StackLeniency: 0.2
Mode: 0
LetterboxInBreaks: 0
WidescreenStoryboard: 0

[Editor]
DistanceSpacing: 1.2
BeatDivisor: 6
GridSize: 8
TimelineZoom: 2.1

[Metadata]
Title:Saus VIP
TitleUnicode:Saus VIP
Artist:June Miller & Mafjus
ArtistUnicode:June Miller & Mafjus
Creator:Im Yuuki
Version:Progression
Source:
Tags:
BeatmapID:1551390
BeatmapSetID:734850

[Difficulty]
HPDrainRate:6.5
CircleSize:4
OverallDifficulty:9
ApproachRate:10
SliderMultiplier:3.59999990463257
SliderTickRate:1

[Events]
//Background and Video events
0,0,"93d5246bf4c929ebca2dd0438a3e1953.jpg",0,0
//Break Periods
2,44890,55403
//Storyboard Layer 0 (Background)
//Storyboard Layer 1 (Fail)
//Storyboard Layer 2 (Pass)
//Storyboard Layer 3 (Foreground)
//Storyboard Sound Samples

[TimingPoints]
22365,348.837209302326,4,1,0,100,1,0
22365,-133.333333333333,4,2,0,60,0,0
32103,-100,4,2,0,60,0,0
32190,-100,4,2,0,5,0,0
32452,-133.333333333333,4,2,0,60,0,0
33479,-100,4,2,0,60,0,0
55809,-100,4,2,0,60,0,0
63702,-100,4,1,0,60,0,0
66958,-100,4,2,0,60,0,0
66958,-100,4,2,0,60,0,0
67597,-100,4,1,0,60,0,0
68004,-100,4,2,0,60,0,0
68353,-100,4,2,0,60,0,0
69051,-100,4,1,0,60,0,0
69399,-100,4,2,0,60,0,0
69748,-100,4,2,0,60,0,0
70446,-100,4,1,0,60,0,0
70795,-100,4,2,0,60,0,0
71144,-100,4,1,0,60,0,0
71958,-200,4,1,0,60,0,0
72568,-100,4,2,0,60,0,0
73237,-100,4,1,0,60,0,0
73591,-100,4,2,0,60,0,0
74632,-100,4,1,0,60,0,0
74981,-100,4,2,0,60,0,0
75330,-100,4,2,0,60,0,0
76027,-100,4,1,0,60,0,0
76376,-100,4,2,0,60,0,0
76725,-100,4,1,0,60,0,0
77529,-100,4,2,0,60,0,0
78120,-100,4,2,0,60,0,0
78818,-100,4,1,0,60,0,0
79167,-100,4,2,0,60,0,0
79516,-100,4,2,0,60,0,0
80213,-100,4,1,0,60,0,0
80562,-100,4,2,0,60,0,0
80911,-100,4,2,0,60,0,0
81609,-100,4,1,0,60,0,0
81958,-100,4,2,0,60,0,0
82306,-100,4,1,0,60,0,0
83091,-200,4,1,0,60,0,0
83760,-100,4,2,0,60,0,0
84399,-100,4,1,0,60,0,0
84748,-100,4,2,0,60,0,0
85097,-100,4,2,0,60,0,0
85795,-100,4,1,0,60,0,0
86144,-100,4,2,0,60,0,0
86492,-100,4,2,0,60,0,0
87190,-100,4,1,0,60,0,0
95562,-66.6666666666667,4,1,0,60,0,0
99865,-100,4,2,0,60,0,0
106027,-200,4,2,0,60,0,0
108818,-100,4,2,0,60,0,0
111609,-100,4,1,0,60,0,0
113702,-66.6666666666667,4,1,0,60,0,0
121376,-100,4,1,0,60,0,0
122617,-100,4,1,0,60,0,0
124865,-66.6666666666667,4,1,0,60,0,0
125562,-100,4,1,0,60,0,0
127655,-66.6666666666667,4,1,0,60,0,0
128353,-100,4,1,0,60,0,0
135330,-66.6666666666667,4,1,0,60,0,0
139283,-100,4,2,0,60,0,0

[HitObjects]
296,280,22365,6,0,P|352:176|360:152,1,135.000001573563
368,56,22713,1,0,0:0:0:0:
216,104,22888,2,0,P|160:208|152:232,1,135.000001573563
144,328,23236,1,0,0:0:0:0:
416,248,23411,5,0,0:0:0:0:
360,120,23585,1,0,0:0:0:0:
120,176,23760,2,0,B|80:112|80:112|120:48,1,135.000001573563
232,48,24109,1,0,0:0:0:0:
296,328,24283,1,0,0:0:0:0:
360,224,24458,1,0,0:0:0:0:
80,96,24632,2,0,B|136:176|136:176|200:216|224:128|224:128|288:128,1,270.000003147125
408,336,25155,6,0,B|416:264|416:264|336:256,1,135.000001573563
256,192,25504,1,0,0:0:0:0:
104,48,25678,2,0,B|96:120|96:120|176:128,1,135.000001573563
256,192,26027,1,0,0:0:0:0:
392,48,26202,1,0,0:0:0:0:
496,104,26376,1,0,0:0:0:0:
264,312,26551,2,0,P|168:304|144:272,1,135.000001573563
112,144,26812,1,0,0:0:0:0:
112,144,26899,2,0,B|136:80|136:80|224:80,1,135.000001573563
320,176,27248,2,0,B|288:248|288:248|336:304,1,135.000001573563
440,216,27597,1,0,0:0:0:0:
440,216,27771,1,0,0:0:0:0:
232,144,27946,6,0,P|184:184|136:143,1,135.000001573563
184,40,28295,1,0,0:0:0:0:
304,256,28469,2,0,B|352:208|352:208|408:264,1,135.000001573563
352,344,28818,1,0,0:0:0:0:
48,160,28992,1,0,0:0:0:0:
48,160,29167,1,0,0:0:0:0:
104,280,29341,2,0,P|192:272|232:240,1,135.000001573563
152,192,29690,1,0,0:0:0:0:
112,320,29865,2,0,P|200:312|240:280,1,135.000001573563
152,192,30213,2,0,B|104:80|192:64|192:64|256:64|256:64|296:104,1,270.000003147125
432,64,30737,6,0,B|456:104|456:144|456:144|400:176,1,135.000001573563
368,296,31085,1,0,0:0:0:0:
80,320,31260,2,0,B|56:280|56:240|56:240|112:208,1,135.000001573563
144,88,31609,1,0,0:0:0:0:
424,120,31783,1,0,0:0:0:0:
424,120,31958,1,0,0:0:0:0:
136,288,32132,6,0,L|144:192,1,89.9999976158143
144,72,32365,1,0,0:0:0:0:
144,72,32481,2,0,P|256:80|312:136,1,179.999995231629
144,72,32771,2,0,P|248:114|284:184,1,179.999995231629
144,72,33062,2,0,P|228:145|239:224,1,179.999995231629
320,320,33527,6,0,B|408:296|408:296|456:200,1,179.999995231629
368,56,33876,1,0,0:0:0:0:
144,64,34051,2,0,B|128:144|152:184|152:184|248:184,1,179.999995231629
304,280,34399,1,0,0:0:0:0:
160,320,34574,1,0,0:0:0:0:
64,224,34748,1,0,0:0:0:0:
326,205,34923,6,0,B|256:208|256:152|176:112,1,179.999995231629
88,48,35271,1,0,0:0:0:0:
184,224,35446,2,0,P|256:128|352:104,1,179.999995231629
456,160,35795,2,0,B|448:280|448:280|376:352|376:352|296:328|248:240,1,359.999990463257
264,64,36318,6,0,B|176:96|120:136|120:136|64:96,1,179.999995231629
120,288,36667,1,0,0:0:0:0:
344,312,36841,2,0,B|304:272|288:216|288:216|408:176,1,179.999995231629
456,176,37190,1,0,0:0:0:0:
264,48,37365,1,0,0:0:0:0:
152,96,37539,1,0,0:0:0:0:
144,288,37713,6,0,B|208:224|208:224|256:272|336:280,1,179.999995231629
408,304,37975,1,0,0:0:0:0:
408,304,38062,1,0,0:0:0:0:
416,192,38237,2,0,P|416:96|304:112,1,179.999995231629
160,80,38585,1,0,0:0:0:0:
120,280,38760,1,0,0:0:0:0:
120,280,38934,1,0,0:0:0:0:
392,304,39109,6,0,P|352:240|440:200,1,179.999995231629
448,64,39458,1,0,0:0:0:0:
120,80,39632,2,0,P|160:144|72:184,1,179.999995231629
64,320,39981,1,0,0:0:0:0:
320,152,40155,2,0,B|328:56|328:56|432:112,1,179.999995231629
464,208,40504,1,0,0:0:0:0:
304,320,40678,5,0,0:0:0:0:
128,288,40853,1,0,0:0:0:0:
232,176,41027,1,0,0:0:0:0:
304,320,41202,2,0,P|392:272|416:176,1,179.999995231629
336,48,41551,1,0,0:0:0:0:
336,48,41725,1,0,0:0:0:0:
120,232,41899,6,0,B|40:184|40:184|96:136|80:88,1,179.999995231629
184,40,42248,1,0,0:0:0:0:
272,200,42423,2,0,B|304:304|368:272|368:272|392:216,1,179.999995231629
424,80,42771,1,0,0:0:0:0:
192,288,42946,2,0,P|88:304|64:240,1,179.999995231629
88,72,43295,2,0,B|160:128|160:128|248:104,1,179.999995231629
368,64,43556,1,0,0:0:0:0:
368,64,43644,1,0,0:0:0:0:
408,232,43818,6,0,P|304:224|232:288,1,179.999995231629
120,320,44167,1,0,0:0:0:0:
120,128,44341,2,0,B|200:72|200:72|304:88,1,179.999995231629
432,320,44690,1,0,0:0:0:0:
112,88,55853,6,0,B|144:83|144:83|176:80,1,44.9999988079071
136,152,56115,2,0,L|200:144,1,44.9999988079071
160,216,56376,2,0,L|224:208,1,44.9999988079071
184,280,56638,2,0,L|248:272,1,44.9999988079071
368,304,56899,6,0,L|323:309,1,44.9999988079071
376,240,57161,2,0,L|331:245,1,44.9999988079071
384,176,57423,2,0,L|339:181,1,44.9999988079071
392,112,57684,2,0,L|347:117,1,44.9999988079071
400,48,57946,2,0,L|355:53,1,44.9999988079071
256,192,58644,6,0,L|208:192,1,44.9999988079071
256,192,58905,2,0,L|256:256,1,44.9999988079071
256,192,59167,2,0,L|336:192,1,44.9999988079071
256,192,59428,2,0,L|256:112,1,44.9999988079071
400,56,59690,6,0,L|355:56,1,44.9999988079071
400,328,59952,2,0,L|400:283,1,44.9999988079071
96,328,60213,2,0,L|141:328,1,44.9999988079071
96,64,60475,2,0,L|96:109,1,44.9999988079071
256,192,60737,2,0,L|256:147,1,44.9999988079071
104,72,61434,6,0,L|128:24,1,44.9999988079071
152,120,61696,2,0,L|176:72,1,44.9999988079071
192,168,61958,2,0,L|216:120,1,44.9999988079071
240,216,62219,2,0,L|264:168,1,44.9999988079071
416,48,62481,6,0,L|436:88,1,44.9999988079071
368,96,62742,2,0,L|388:136,1,44.9999988079071
320,144,63004,2,0,L|340:184,1,44.9999988079071
272,200,63266,2,0,L|292:240,1,44.9999988079071
224,256,63527,2,0,L|244:296,1,44.9999988079071
256,192,64225,12,0,66667,0:0:0:0:
360,288,67016,6,0,B|376:216|280:144|328:96,1,179.999995231629
368,88,67365,2,0,B|336:40|256:96|176:-8,1,179.999995231629
80,136,67713,2,0,B|64:192|64:192|176:216,2,119.999996821086
160,64,68062,2,0,B|248:96|248:96|232:200|360:184,1,239.999993642171,0|0,1:0|0:0,0:0:0:0:
384,272,68411,6,0,B|288:312|288:312|192:288,1,179.999995231629
112,264,68760,2,0,B|208:224|208:224|304:248,1,179.999995231629
384,160,69109,2,0,P|400:88|448:80,2,119.999996821086
280,144,69458,2,0,B|192:48|192:48|120:64|112:96|128:136,1,239.999993642171,0|0,1:0|0:0,0:0:0:0:
128,272,69806,6,0,B|192:248|192:248|256:240|304:336,1,179.999995231629
165,312,70155,2,0,B|216:267|216:267|273:236|352:309,1,179.999995231629
400,312,70504,1,0,0:0:0:0:
472,192,70620,1,0,0:0:0:0:
326,159,70737,1,0,0:0:0:0:
400,312,70853,2,0,B|280:248|280:248|280:192|336:152,1,239.999993642171,0|0,1:0|0:0,0:0:0:0:
456,136,71202,6,0,B|400:256|400:256|288:288|192:224|192:224|168:80|168:80|64:80|64:80|32:136|32:208,1,719.999980926514
64,256,71987,5,0,0:0:0:0:
96,280,72074,1,0,0:0:0:0:
208,320,72161,1,0,0:0:0:0:
256,320,72248,1,0,0:0:0:0:
376,288,72335,1,0,0:0:0:0:
440,208,72423,1,0,0:0:0:0:
416,112,72510,1,0,0:0:0:0:
360,32,72597,2,0,B|306:74|306:74|253:66|253:66|174:109,1,179.999995231629
192,24,72946,2,0,B|256:46|256:46|277:95|277:95|355:140,1,179.999995231629
192,240,73295,2,0,P|136:288|64:256,2,119.999996821086
152,120,73644,2,0,B|224:72|224:72|304:136|376:80,1,239.999993642171,0|0,1:0|0:0,0:0:0:0:
416,224,73992,2,0,B|368:312|368:312|296:240,1,179.999995231629
352,160,74341,2,0,B|386:88|386:88|288:71,1,179.999995231629
128,208,74690,2,0,B|80:256|80:256|120:304,2,119.999996821086
256,296,75039,2,0,B|344:208|344:208|272:144|360:96,1,239.999993642171,0|0,1:0|0:0,0:0:0:0:
256,40,75388,6,0,B|208:80|144:48|96:128,1,179.999995231629
104,208,75737,2,0,B|147:280|211:248|259:288,1,179.999995231629
368,336,76085,1,0,0:0:0:0:
312,192,76202,1,0,0:0:0:0:
256,296,76318,1,0,0:0:0:0:
416,232,76434,2,0,B|424:144|424:144|368:64|296:136,1,239.999993642171,0|0,1:0|0:0,0:0:0:0:
80,56,76783,1,0,0:0:0:0:
120,88,76870,1,0,0:0:0:0:
80,120,76958,1,0,0:0:0:0:
128,144,77045,1,0,0:0:0:0:
88,176,77132,1,0,0:0:0:0:
136,200,77219,1,0,0:0:0:0:
96,232,77306,1,0,0:0:0:0:
144,256,77394,1,0,0:0:0:0:
104,280,77481,1,0,0:0:0:0:
168,336,77568,5,0,0:0:0:0:
208,336,77655,1,0,0:0:0:0:
272,264,77742,1,0,0:0:0:0:
312,264,77830,1,0,0:0:0:0:
368,184,77917,1,0,0:0:0:0:
416,184,78004,1,0,0:0:0:0:
464,184,78091,1,0,0:0:0:0:
504,184,78178,6,0,B|480:64|480:64|408:40,1,179.999995231629
352,112,78527,2,0,B|279:164|268:214|268:214|200:216,1,179.999995231629
104,144,78876,2,0,B|80:88|80:88|104:32,2,119.999996821086
176,280,79225,2,0,B|240:304|240:304|344:288|344:288|392:240,1,239.999993642171,0|0,1:0|0:0,0:0:0:0:
376,96,79574,6,0,P|248:144|232:176,1,179.999995231629
104,208,79923,2,0,B|152:280|152:280|264:320,1,179.999995231629
376,224,80271,2,0,B|416:272|416:272|384:320,2,119.999996821086
464,64,80620,2,0,B|384:112|328:40|232:128,1,239.999993642171,0|0,1:0|0:0,0:0:0:0:
192,264,80969,2,0,L|64:120,1,179.999995231629
152,64,81318,2,0,P|240:32|344:72,1,179.999995231629
416,312,81667,1,0,0:0:0:0:
288,208,81783,1,0,0:0:0:0:
240,368,81899,1,0,0:0:0:0:
416,312,82016,2,0,B|280:344|280:344|288:240,1,239.999993642171,0|0,1:0|0:0,0:0:0:0:
304,112,82365,6,0,B|200:48|200:48|80:56|56:192|56:192|208:296|224:304|224:304|392:240,1,719.999980926514
456,208,83149,1,0,0:0:0:0:
456,168,83236,1,0,0:0:0:0:
432,56,83323,1,0,0:0:0:0:
392,24,83410,1,0,0:0:0:0:
288,0,83497,1,0,0:0:0:0:
200,8,83585,1,0,0:0:0:0:
120,32,83673,1,0,0:0:0:0:
56,88,83760,6,0,B|8:160|8:160|64:192|56:256,1,179.999995231629
88,328,84109,2,0,B|120:299|177:331|177:331|213:255,1,179.999995231629
216,104,84458,2,0,B|192:72|192:72|152:72|152:72|128:104,2,119.999996821086
264,208,84806,2,0,B|304:136|408:120|408:120|448:192,1,239.999993642171,0|0,1:0|0:0,0:0:0:0:
400,328,85155,6,0,B|320:280|288:280|288:280|224:304,1,179.999995231629
96,320,85504,2,0,B|70:230|78:199|78:199|111:152,1,179.999995231629
272,88,85853,2,0,P|296:144|352:120,2,119.999996821086
408,48,86202,2,0,B|448:120|448:120|408:224|496:248,1,239.999993642171,0|0,1:0|0:0,0:0:0:0:
392,320,86551,6,0,B|368:232|368:232|248:184,1,179.999995231629
200,160,86899,2,0,B|224:248|224:248|306:280,1,179.999995231629
416,312,87248,1,0,0:0:0:0:
456,136,87365,1,0,0:0:0:0:
288,184,87481,1,0,0:0:0:0:
416,312,87597,2,0,B|488:256|488:192|488:192|344:216,1,239.999993642171,0|0,1:0|0:0,0:0:0:0:
144,88,87946,5,0,0:0:0:0:
256,312,88062,1,0,0:0:0:0:
368,88,88178,1,0,0:0:0:0:
144,296,88295,1,0,0:0:0:0:
256,72,88411,1,0,0:0:0:0:
368,296,88527,1,0,0:0:0:0:
256,192,88644,1,0,0:0:0:0:
108,128,89341,5,0,0:0:0:0:
404,256,89690,5,0,0:0:0:0:
256,40,90039,5,0,0:0:0:0:
256,344,90388,5,0,0:0:0:0:
404,128,90737,5,0,0:0:0:0:
108,256,91085,5,0,0:0:0:0:
404,256,91434,5,0,0:0:0:0:
120,88,91783,5,0,0:0:0:0:
392,88,92132,5,0,0:0:0:0:
392,296,92481,5,0,0:0:0:0:
120,296,92830,5,0,0:0:0:0:
256,192,93178,5,0,0:0:0:0:
328,336,93527,6,0,B|424:264|400:192|400:192|480:176|456:104|456:104|368:80|368:80,1,359.999990463257
320,40,94051,1,0,0:0:0:0:
288,40,94138,1,0,0:0:0:0:
208,96,94225,1,0,0:0:0:0:
184,120,94312,1,0,0:0:0:0:
192,192,94399,1,0,0:0:0:0:
256,256,94487,1,0,0:0:0:0:
232,344,94574,1,0,0:0:0:0:
144,360,94661,1,0,0:0:0:0:
56,312,94748,1,0,0:0:0:0:
32,224,94835,1,0,0:0:0:0:
64,112,94923,5,0,0:0:0:0:
168,56,95039,1,0,0:0:0:0:
168,168,95155,1,0,0:0:0:0:
104,64,95271,5,0,0:0:0:0:
240,80,95388,1,0,0:0:0:0:
152,200,95504,1,0,0:0:0:0:
384,136,95620,6,0,P|416:240|344:352,2,180.000002098084
296,200,95969,6,0,P|273:114|306:31,2,180.000002098084
56,104,96318,5,0,0:0:0:0:
128,272,96434,1,0,0:0:0:0:
104,72,96551,1,0,0:0:0:0:
80,312,96667,1,0,0:0:0:0:
152,40,96783,1,0,0:0:0:0:
32,344,96899,1,0,0:0:0:0:
280,240,97016,6,0,B|360:224|360:224|458:360,2,180.000002098084
232,144,97365,6,0,B|152:160|152:160|54:24,2,180.000002098084
256,192,97713,5,0,0:0:0:0:
368,88,97830,1,0,0:0:0:0:
144,296,97946,1,0,0:0:0:0:
144,88,98062,1,0,0:0:0:0:
368,296,98178,1,0,0:0:0:0:
368,88,98295,5,0,0:0:0:0:
176,320,98411,1,0,0:0:0:0:
336,64,98527,1,0,0:0:0:0:
216,336,98644,1,0,0:0:0:0:
296,48,98760,1,0,0:0:0:0:
256,344,98876,1,0,0:0:0:0:
256,40,98992,1,0,0:0:0:0:
384,312,99109,5,0,0:0:0:0:
368,272,99196,1,0,0:0:0:0:
336,304,99283,1,0,0:0:0:0:
328,264,99370,1,0,0:0:0:0:
288,296,99458,1,0,0:0:0:0:
280,256,99545,1,0,0:0:0:0:
248,288,99632,1,0,0:0:0:0:
240,248,99719,1,0,0:0:0:0:
208,280,99806,1,0,0:0:0:0:
136,200,99894,5,0,0:0:0:0:
120,176,99981,1,0,0:0:0:0:
136,72,100068,1,0,0:0:0:0:
160,48,100155,1,0,0:0:0:0:
256,24,100242,1,0,0:0:0:0:
296,24,100330,1,0,0:0:0:0:
392,56,100417,1,0,0:0:0:0:
416,88,100504,1,0,0:0:0:0:
404,256,100853,5,0,0:0:0:0:
108,128,101202,5,0,0:0:0:0:
256,344,101551,5,0,0:0:0:0:
256,40,101900,5,0,0:0:0:0:
108,256,102249,5,0,0:0:0:0:
404,128,102597,5,0,0:0:0:0:
108,128,102946,5,0,0:0:0:0:
392,296,103295,5,0,0:0:0:0:
120,296,103644,5,0,0:0:0:0:
120,88,103993,5,0,0:0:0:0:
392,88,104342,5,0,0:0:0:0:
256,368,104690,5,0,0:0:0:0:
80,192,105039,5,0,0:0:0:0:
256,16,105388,5,0,0:0:0:0:
432,192,105737,5,0,0:0:0:0:
392,280,106085,2,0,B|256:408|104:264|104:264|48:192|72:112|72:112|256:40|256:40|440:120|440:120|456:208|392:280|392:280|256:208|256:208|256:136|256:40,1,1379.99996344249
384,112,108876,2,0,P|440:168|432:232,2,119.999996821086
368,176,109225,2,0,P|424:232|416:296,2,119.999996821086
352,240,109574,2,0,P|408:296|400:360,2,119.999996821086
96,328,109923,2,0,P|107:270|153:234,2,119.999996821086
80,264,110272,2,0,P|91:206|137:170,2,119.999996821086
64,200,110621,2,0,P|75:142|121:106,2,119.999996821086
256,64,110969,2,0,L|256:192,2,119.999996821086
256,184,111318,2,0,L|256:312,2,119.999996821086
208,136,111667,5,0,0:0:0:0:
300,232,111783,1,0,0:0:0:0:
260,116,111899,1,0,0:0:0:0:
252,256,112016,1,0,0:0:0:0:
312,128,112132,1,0,0:0:0:0:
200,256,112248,1,0,0:0:0:0:
352,160,112365,1,0,0:0:0:0:
160,224,112481,1,0,0:0:0:0:
384,200,112597,1,0,0:0:0:0:
128,184,112713,1,0,0:0:0:0:
376,72,112830,5,0,0:0:0:0:
136,312,112946,1,0,0:0:0:0:
436,192,113062,1,0,0:0:0:0:
76,192,113178,1,0,0:0:0:0:
376,312,113295,1,0,0:0:0:0:
136,72,113411,1,0,0:0:0:0:
256,384,113527,1,0,0:0:0:0:
256,0,113644,1,0,0:0:0:0:
288,240,113760,6,0,L|472:192,2,180.000002098084
224,144,114109,6,0,L|40:96,2,180.000002098084
256,192,114458,5,0,0:0:0:0:
408,80,114574,1,0,0:0:0:0:
256,344,114690,1,0,0:0:0:0:
112,80,114806,1,0,0:0:0:0:
408,312,114923,1,0,0:0:0:0:
116,312,115039,1,0,0:0:0:0:
256,32,115155,6,0,L|168:192,2,180.000002098084
256,352,115504,6,0,L|342:194,2,180.000002098084
384,192,115853,5,0,0:0:0:0:
80,192,115969,1,0,0:0:0:0:
436,192,116085,1,0,0:0:0:0:
96,256,116202,1,0,0:0:0:0:
416,128,116318,1,0,0:0:0:0:
128,320,116434,1,0,0:0:0:0:
384,64,116550,1,0,0:0:0:0:
184,368,116667,1,0,0:0:0:0:
332,16,116783,1,0,0:0:0:0:
256,384,116899,1,0,0:0:0:0:
256,0,117016,1,0,0:0:0:0:
332,368,117132,5,0,0:0:0:0:
180,16,117248,1,0,0:0:0:0:
392,320,117365,1,0,0:0:0:0:
120,64,117481,1,0,0:0:0:0:
432,256,117597,1,0,0:0:0:0:
80,128,117713,1,0,0:0:0:0:
464,192,117830,1,0,0:0:0:0:
47,192,117946,2,0,P|131:202|143:285,2,180.000002098084
464,192,118295,2,0,P|376:176|416:64,2,180.000002098084
304,192,118644,2,0,P|368:104|344:40,2,180.000002098084
208,192,118992,2,0,P|144:280|168:344,2,180.000002098084
424,152,119341,1,0,0:0:0:0:
80,152,119458,1,0,0:0:0:0:
360,320,119574,1,0,0:0:0:0:
256,32,119690,1,0,0:0:0:0:
152,320,119806,1,0,0:0:0:0:
286,167,119923,5,0,0:0:0:0:
262,231,120040,1,0,0:0:0:0:
222,175,120156,1,0,0:0:0:0:
192,384,120271,5,0,0:0:0:0:
96,96,120387,1,0,0:0:0:0:
352,32,120504,1,0,0:0:0:0:
416,288,120620,1,0,0:0:0:0:
160,352,120736,1,0,0:0:0:0:
128,64,120852,1,0,0:0:0:0:
384,64,120969,1,0,0:0:0:0:
384,320,121085,1,0,0:0:0:0:
128,320,121201,1,0,0:0:0:0:
344,40,121318,1,0,0:0:0:0:
440,168,121434,2,0,B|360:224|360:224|272:120|272:120|160:192|160:192|84:68|228:24|228:24|316:16|400:68|400:68|276:324|276:324|240:320,1,1079.99997138977
128,304,122830,6,0,P|96:248|96:184,1,119.999996821086
104,64,123062,1,0,0:0:0:0:
256,184,123178,1,0,0:0:0:0:
144,40,123295,1,0,0:0:0:0:
216,216,123411,1,0,0:0:0:0:
192,32,123527,1,0,0:0:0:0:
168,232,123644,1,0,0:0:0:0:
240,32,123760,5,0,0:0:0:0:
368,192,123876,1,0,0:0:0:0:
168,232,123992,1,0,0:0:0:0:
288,24,124109,1,0,0:0:0:0:
376,240,124225,1,0,0:0:0:0:
128,208,124341,1,0,0:0:0:0:
328,24,124458,1,0,0:0:0:0:
360,288,124574,1,0,0:0:0:0:
88,176,124690,1,0,0:0:0:0:
224,120,124806,1,0,0:0:0:0:
392,48,124923,6,0,B|344:152|432:144|368:256,2,180.000002098084
120,336,125271,6,0,B|168:232|80:240|144:128,2,180.000002098084
312,240,125620,5,0,0:0:0:0:
264,112,125737,5,0,0:0:0:0:
435,186,125854,1,0,0:0:0:0:
371,373,125970,1,0,0:0:0:0:
188,302,126086,1,0,0:0:0:0:
304,104,126202,5,0,0:0:0:0:
447,220,126318,1,0,0:0:0:0:
333,383,126434,1,0,0:0:0:0:
177,264,126551,1,0,0:0:0:0:
48,168,126667,5,0,0:0:0:0:
304,40,126783,1,0,0:0:0:0:
32,128,126899,1,0,0:0:0:0:
320,80,127016,1,0,0:0:0:0:
24,88,127132,1,0,0:0:0:0:
328,128,127248,1,0,0:0:0:0:
24,48,127365,1,0,0:0:0:0:
328,168,127481,1,0,0:0:0:0:
32,8,127597,1,0,0:0:0:0:
120,232,127713,6,0,B|112:176|112:176|160:160|160:160|144:64,2,180.000002098084
392,152,128062,6,0,B|400:208|400:208|352:224|352:224|368:320,2,180.000002098084
112,280,128411,5,0,0:0:0:0:
408,272,128527,1,0,0:0:0:0:
120,320,128644,1,0,0:0:0:0:
392,232,128760,1,0,0:0:0:0:
136,360,128876,1,0,0:0:0:0:
368,80,128992,5,0,0:0:0:0:
144,304,129109,1,0,0:0:0:0:
424,192,129225,1,0,0:0:0:0:
88,192,129341,1,0,0:0:0:0:
368,304,129458,1,0,0:0:0:0:
144,80,129574,1,0,0:0:0:0:
256,360,129690,1,0,0:0:0:0:
256,32,129806,1,0,0:0:0:0:
128,176,129923,5,0,0:0:0:0:
312,160,130039,1,0,0:0:0:0:
144,248,130155,1,0,0:0:0:0:
272,104,130271,1,0,0:0:0:0:
192,304,130388,1,0,0:0:0:0:
208,88,130504,1,0,0:0:0:0:
256,320,130620,1,0,0:0:0:0:
144,72,130737,1,0,0:0:0:0:
320,336,130853,1,0,0:0:0:0:
396,241,130969,2,0,P|420:187|416:128,1,119.999996821086
256,192,131202,12,0,132248,0:0:0:0:
256,192,132597,12,0,133644,0:0:0:0:
160,112,133992,5,0,0:0:0:0:
224,200,134109,1,0,0:0:0:0:
184,80,134225,1,0,0:0:0:0:
200,240,134341,1,0,0:0:0:0:
224,64,134458,1,0,0:0:0:0:
168,264,134574,1,0,0:0:0:0:
352,272,134690,5,0,0:0:0:0:
288,184,134807,1,0,0:0:0:0:
328,304,134923,1,0,0:0:0:0:
312,144,135039,1,0,0:0:0:0:
288,320,135156,1,0,0:0:0:0:
344,120,135271,1,0,0:0:0:0:
64,192,135388,6,0,B|96:136|192:176|224:104,2,180.000002098084
447,190,135737,6,0,B|416:136|320:176|292:113,2,180.000002098084
256,312,136085,1,0,0:0:0:0:
256,64,136434,5,0,2:0:0:0:
159,219,136783,5,0,0:0:0:0:
280,94,136899,1,0,0:0:0:0:
328,261,137016,1,0,0:0:0:0:
128,40,137132,5,0,0:0:0:0:
296,112,137248,1,0,0:0:0:0:
221,285,137365,1,0,0:0:0:0:
52,209,137481,1,0,0:0:0:0:
384,40,137597,5,0,0:0:0:0:
215,114,137713,1,0,0:0:0:0:
291,285,137830,1,0,0:0:0:0:
460,209,137946,1,0,0:0:0:0:
204,259,138062,5,0,0:0:0:0:
307,124,138178,1,0,0:0:0:0:
171,182,138295,1,0,0:0:0:0:
340,201,138411,1,0,0:0:0:0:
226,120,138527,1,0,0:0:0:0:
293,271,138643,1,0,0:0:0:0:
