osu file format v14

[General]
AudioFilename: audio.mp3
AudioLeadIn: 0
PreviewTime:3945
Countdown: 0
SampleSet: Soft
StackLeniency: 0.7
Mode: 0
LetterboxInBreaks: 0
WidescreenStoryboard: 1

[Editor]
DistanceSpacing: 1
BeatDivisor: 1
GridSize: 4
TimelineZoom: 1

[Metadata]
Title:Additional Time (Cut Ver.)
TitleUnicode:Additional Time (Cut Ver.)
Artist:Jun*Murayama
ArtistUnicode:村山☆潤
Creator:KaedeharaKazuha
Version:Normal
Source:ブルーロック
Tags:Addy2607 Kaedehara Kazuha BLUE LOCK BLUELOCK anime football soccer insert song instrumental novelty recorder 20th twentieth episode ep 20 #20 twenty Nagi Seishiro 凪誠士郎 Reo Mikage 御影玲王 Jun Murayama
BeatmapID:4542270
BeatmapSetID:2155130

[Difficulty]
HPDrainRate:3
CircleSize:5
OverallDifficulty:3
ApproachRate:4
SliderMultiplier:1
SliderTickRate:1

[Events]
//Background and Video events
0,0,"BG.jpg",0,0
Video,90,"video.mp4"
//Break Periods
//Storyboard Layer 0 (Background)
//Storyboard Layer 1 (Fail)
//Storyboard Layer 2 (Pass)
//Storyboard Layer 3 (Foreground)
//Storyboard Layer 4 (Overlay)
//Storyboard Sound Samples
Sample,90,0,"Sample/reo.wav",60

[TimingPoints]
4070,500,4,2,1,50,1,0
4070,-111.111111111111,4,2,1,50,0,0
12070,-105.263157894737,4,2,1,60,0,0
15070,-100,4,2,1,70,0,0
16070,-105.263157894737,4,2,1,60,0,0
19070,-100,4,2,1,70,0,0
20070,-105.263157894737,4,2,1,60,0,0
23070,-100,4,2,1,70,0,0
24070,-105.263157894737,4,2,1,60,0,0
27070,-100,4,2,1,70,0,0
28070,-105.263157894737,4,2,1,60,0,0
36070,-125,4,2,1,50,0,0
39903,-125,4,2,1,5,0,0

[Colours]
Combo1 : 128,128,128
Combo2 : 192,192,192

[HitObjects]
506,188,4070,6,0,P|508:222|516:262,1,59.9999981689454,8|2,0:3|0:3,0:0:0:0:
512,248,4570,1,4,0:3:0:0:
458,309,5070,2,0,P|462:339|465:369,1,59.9999981689454,8|2,0:3|0:3,0:0:0:0:
464,369,5570,1,4,0:3:0:0:
383,381,6070,2,0,P|379:351|376:321,1,59.9999981689454,8|8,0:3|0:3,0:0:0:0:
377,321,6570,1,4,0:3:0:0:
314,270,7070,2,0,P|312:236|304:196,1,59.9999981689454,8|2,0:3|0:3,0:0:0:0:
308,210,7570,1,4,0:3:0:0:
234,167,8070,6,0,P|229:137|228:108,1,59.9999981689454,8|2,0:3|0:3,0:0:0:0:
228,107,8570,1,4,0:3:0:0:
165,70,9070,2,0,P|162:40|159:11,1,59.9999981689454,8|2,0:3|0:3,0:0:0:0:
159,11,9570,1,4,0:3:0:0:
78,21,10070,2,0,P|81:51|85:80,1,59.9999981689454,8|8,0:3|0:3,0:0:0:0:
85,80,10570,1,4,0:3:0:0:
35,144,11070,1,8,0:3:0:0:
125,289,12070,6,0,P|173:280|201:277,1,63.3333316421509,8|2,0:3|0:3,0:0:0:0:
194,274,12570,2,0,P|203:322|206:350,1,63.3333316421509,4|2,0:3|0:3,0:0:0:0:
211,340,13070,1,8,0:3:0:0:
294,323,13570,2,0,P|284:275|282:247,1,63.3333316421509,4|2,0:3|0:3,0:0:0:0:
279,254,14070,2,0,P|327:245|355:242,1,63.3333316421509,8|8,0:3|0:3,0:0:0:0:
345,237,14570,1,4,0:3:0:0:
434,227,15070,5,8,0:0:0:0:
425,137,15570,1,8,0:0:0:0:
339,143,16070,6,0,P|287:148|259:151,1,63.3333316421509,8|2,0:3|0:3,0:0:0:0:
270,158,16570,2,0,P|261:110|258:82,1,63.3333316421509,4|2,0:3|0:3,0:0:0:0:
253,92,17070,1,8,0:3:0:0:
170,109,17570,2,0,P|180:157|182:185,1,63.3333316421509,4|2,0:3|0:3,0:0:0:0:
185,178,18070,2,0,P|137:187|109:190,1,63.3333316421509,8|8,0:3|0:3,0:0:0:0:
119,195,18570,1,4,0:3:0:0:
30,205,19070,5,8,0:0:0:0:
19,115,19570,1,8,0:0:0:0:
100,90,20070,6,0,P|132:93|161:74,1,63.3333316421509,8|2,0:3|0:3,0:0:0:0:
166,80,20570,2,0,P|184:54|182:20,1,63.3333316421509,4|2,0:3|0:3,0:0:0:0:
191,18,21070,1,8,0:3:0:0:
276,14,21570,2,0,P|283:45|310:67,1,63.3333316421509,4|2,0:3|0:3,0:0:0:0:
306,74,22070,2,0,P|336:83|368:70,1,63.3333316421509,8|8,0:3|0:3,0:0:0:0:
372,78,22570,1,4,0:3:0:0:
403,162,23070,5,8,0:0:0:0:
354,237,23570,1,8,0:0:0:0:
293,297,24070,6,0,P|268:275|234:274,1,63.3333316421509,8|2,0:3|0:3,0:0:0:0:
234,267,24570,2,0,P|204:277|185:306,1,63.3333316421509,4|2,0:3|0:3,0:0:0:0:
177,302,25070,1,8,0:3:0:0:
106,255,25570,2,0,P|118:225|109:192,1,63.3333316421509,4|2,0:3|0:3,0:0:0:0:
117,189,26070,2,0,P|98:164|64:155,1,63.3333316421509,8|8,0:3|0:3,0:0:0:0:
66,147,26570,1,4,0:3:0:0:
10,76,27070,5,8,0:0:0:0:
76,15,27570,1,8,0:0:0:0:
140,70,28070,6,0,P|198:62|222:61,1,63.3333316421509,8|2,0:3|0:3,0:0:0:0:
203,62,28570,1,4,0:3:0:0:
270,9,29070,2,0,B|301:9|320:2|364:-1,1,94.9999974632264,8|4,0:3|0:3,0:0:0:0:
404,74,30070,2,0,B|378:76|367:79|347:78|322:83,1,63.3333316421509,8|8,0:3|0:3,0:0:0:0:
340,80,30570,1,4,0:3:0:0:
274,135,31070,2,0,B|239:140|226:138|212:133|198:145|179:145,1,94.9999974632264,8|4,0:3|0:3,0:0:0:0:
98,118,32069,6,0,B|95:132|106:145|100:150|104:162|106:176|107:200,1,63.3333316421509,8|2,0:3|0:3,0:0:0:0:
105,180,32569,1,4,0:3:0:0:
159,248,33069,2,0,B|164:275|158:286|162:295|170:313|160:317|169:329|169:342,1,94.9999974632264,8|4,0:3|0:3,0:0:0:0:
91,381,34069,2,0,B|85:365|87:356|94:349|87:343|86:332|83:323|88:320|82:299,1,63.3333316421509,8|8,0:3|0:3,0:0:0:0:
86,319,34569,1,4,0:3:0:0:
32,251,35069,2,0,B|35:237|26:236|29:220|31:206|28:203|21:187|26:180|19:168|21:156,1,94.9999974632264,8|4,0:3|0:3,0:0:0:0:
8,86,36070,6,0,B|62:71|98:77|135:64|164:71|216:46|225:58|256:56|253:46|275:49|296:37|336:29,1,320,8|0,0:0|0:0,0:0:0:0:
385,68,38570,5,2,0:0:0:0:
418,4,39070,1,2,0:0:0:0:
474,48,39570,1,2,0:0:0:0:
