osu file format v14

[General]
AudioFilename: audio.mp3
AudioLeadIn: 0
PreviewTime: 3945
Countdown: 0
SampleSet: Soft
StackLeniency: 0.7
Mode: 0
LetterboxInBreaks: 0
WidescreenStoryboard: 0

[Editor]
DistanceSpacing: 1.3
BeatDivisor: 3
GridSize: 4
TimelineZoom: 1

[Metadata]
Title:Additional Time (Cut Ver.)
TitleUnicode:Additional Time (Cut Ver.)
Artist:Jun*Murayama
ArtistUnicode:村山☆潤
Creator:KaedeharaKazuha
Version:Minovsky Particles
Source:ブルーロック
Tags:Addy2607 Kaedehara Kazuha BLUE LOCK BLUELOCK anime football soccer insert song instrumental novelty recorder 20th twentieth episode ep 20 #20 twenty Nagi Seishiro 凪誠士郎 Reo Mikage 御影玲王 Jun Murayama
BeatmapID:4542233
BeatmapSetID:2155130

[Difficulty]
HPDrainRate:5
CircleSize:7
OverallDifficulty:6
ApproachRate:8
SliderMultiplier:1.6
SliderTickRate:1

[Events]
//Background and Video events
0,0,"BG.jpg",0,0
Video,90,"video.mp4"
//Break Periods
//Storyboard Layer 0 (Background)
//Storyboard Layer 1 (Fail)
//Storyboard Layer 2 (Pass)
//Storyboard Layer 3 (Foreground)
//Storyboard Layer 4 (Overlay)
//Storyboard Sound Samples
Sample,90,0,"Sample/nagi.wav",60

[TimingPoints]
4070,500,4,2,1,50,1,0
4070,-125,4,2,1,50,0,0
12070,-111.111111111111,4,2,1,60,0,0
15070,-95.2380952380952,4,2,1,70,0,0
16070,-111.111111111111,4,2,1,60,0,0
19070,-95.2380952380952,4,2,1,70,0,0
20070,-111.111111111111,4,2,1,60,0,0
23070,-95.2380952380952,4,2,1,70,0,0
24070,-111.111111111111,4,2,1,60,0,0
27070,-95.2380952380952,4,2,1,70,0,0
28070,-111.111111111111,4,2,1,60,0,0
36070,-166.666666666667,4,2,1,50,0,0
39903,-166.666666666667,4,2,1,5,0,0

[Colours]
Combo1 : 128,128,128
Combo2 : 192,192,192

[HitObjects]
512,61,4070,6,0,P|473:52|424:35,1,85.3333333333333,8|2,0:3|0:3,0:0:0:0:
430,37,4570,1,4,0:3:0:0:
501,109,4903,1,2,0:3:0:0:
501,109,5070,2,0,P|462:100|413:83,1,85.3333333333333,8|2,0:3|0:3,0:0:0:0:
419,85,5570,1,4,0:3:0:0:
290,25,5903,5,2,0:3:0:0:
290,25,6070,2,0,P|329:16|378:-1,1,85.3333333333333,8|8,0:3|0:3,0:0:0:0:
372,1,6570,1,4,0:3:0:0:
301,73,6903,1,0,0:0:0:0:
301,73,7070,2,0,P|340:64|389:47,1,85.3333333333333,8|2,0:3|0:3,0:0:0:0:
383,49,7570,1,4,0:3:0:0:
496,183,8070,6,0,P|488:229|481:278,1,85.3333333333333,8|2,0:3|0:3,0:0:0:0:
432,258,8570,2,0,P|440:212|447:163,1,85.3333333333333,4|2,0:3|0:3,0:0:0:0:
344,297,9070,6,0,P|352:343|359:392,1,85.3333333333333,8|2,0:3|0:3,0:0:0:0:
408,372,9570,2,0,P|400:326|393:277,1,85.3333333333333,4|2,0:3|0:3,0:0:0:0:
324,175,10070,6,0,P|316:221|309:270,1,85.3333333333333,8|8,0:3|0:3,0:0:0:0:
260,250,10570,2,0,P|268:204|275:155,1,85.3333333333333,4|2,0:3|0:3,0:0:0:0:
307,129,11070,1,8,0:3:0:0:
256,53,11403,1,2,0:3:0:0:
257,45,11569,1,2,0:3:0:0:
59,230,12070,6,0,P|63:256|65:283,1,47.9999985351563,8|0,0:3|0:0,0:0:0:0:
11,236,12403,1,2,0:3:0:0:
11,236,12570,2,0,P|15:262|17:289,1,47.9999985351563,4|0,0:3|0:0,0:0:0:0:
5,374,12903,1,2,0:3:0:0:
5,374,13070,2,0,P|31:331|79:340,1,95.9999970703126,8|2,0:3|0:3,0:0:0:0:
179,376,13570,6,0,P|183:350|185:323,1,47.9999985351563,4|0,0:3|0:0,0:0:0:0:
131,370,13903,1,2,0:3:0:0:
131,370,14070,2,0,P|135:344|137:317,1,47.9999985351563,8|0,0:3|0:0,0:0:0:0:
125,232,14403,1,8,0:3:0:0:
125,232,14570,2,0,P|151:275|199:266,1,95.9999970703126,4|0,0:3|0:0,0:0:0:0:
304,217,15070,6,0,P|296:273|288:333,1,111.999996582031,8|2,0:0|0:3,0:0:0:0:
353,225,15570,6,0,P|345:281|337:341,1,111.999996582031,8|2,0:0|0:3,0:0:0:0:
455,164,16070,6,0,P|451:138|449:111,1,47.9999985351563,8|0,0:3|0:0,0:0:0:0:
503,158,16403,1,2,0:3:0:0:
503,158,16570,2,0,P|499:132|497:105,1,47.9999985351563,4|0,0:3|0:0,0:0:0:0:
509,20,16903,1,2,0:3:0:0:
509,20,17070,2,0,P|483:63|435:54,1,95.9999970703126,8|2,0:3|0:3,0:0:0:0:
335,18,17570,6,0,P|331:44|329:71,1,47.9999985351563,4|0,0:3|0:0,0:0:0:0:
383,24,17903,1,2,0:3:0:0:
383,24,18070,2,0,P|379:50|377:77,1,47.9999985351563,8|0,0:3|0:0,0:0:0:0:
389,162,18403,1,8,0:3:0:0:
389,162,18570,2,0,P|363:119|315:128,1,95.9999970703126,4|0,0:3|0:0,0:0:0:0:
210,177,19070,6,0,P|218:121|226:61,1,111.999996582031,8|2,0:0|0:3,0:0:0:0:
161,169,19570,6,0,P|169:113|177:53,1,111.999996582031,8|2,0:0|0:3,0:0:0:0:
26,215,20070,6,0,P|21:240|39:266,1,47.9999985351563,8|0,0:3|0:0,0:0:0:0:
83,209,20403,1,2,0:3:0:0:
83,209,20570,2,0,P|92:230|87:253,1,47.9999985351563,4|0,0:3|0:0,0:0:0:0:
0,312,20903,1,2,0:3:0:0:
0,312,21070,2,0,P|49:319|107:336,1,95.9999970703126,8|2,0:3|0:3,0:0:0:0:
229,257,21570,6,0,P|234:282|216:308,1,47.9999985351563,4|0,0:3|0:0,0:0:0:0:
172,253,21903,1,2,0:3:0:0:
172,253,22070,2,0,P|163:274|168:297,1,47.9999985351563,8|0,0:3|0:0,0:0:0:0:
255,354,22403,1,8,0:3:0:0:
255,354,22570,2,0,P|206:361|148:378,1,95.9999970703126,4|0,0:3|0:0,0:0:0:0:
353,263,23070,6,0,P|362:315|378:377,1,111.999996582031,8|2,0:0|0:3,0:0:0:0:
304,274,23570,6,0,P|313:326|329:388,1,111.999996582031,8|2,0:0|0:3,0:0:0:0:
486,185,24070,6,0,P|491:160|473:134,1,47.9999985351563,8|0,0:3|0:0,0:0:0:0:
429,191,24403,1,2,0:3:0:0:
429,191,24570,2,0,P|420:170|425:147,1,47.9999985351563,4|0,0:3|0:0,0:0:0:0:
512,88,24903,1,2,0:3:0:0:
512,88,25070,2,0,P|463:81|405:64,1,95.9999970703126,8|2,0:3|0:3,0:0:0:0:
283,143,25570,6,0,P|278:118|296:92,1,47.9999985351563,4|0,0:3|0:0,0:0:0:0:
340,148,25903,1,2,0:3:0:0:
340,148,26070,2,0,P|349:127|344:104,1,47.9999985351563,8|0,0:3|0:0,0:0:0:0:
257,46,26403,1,8,0:3:0:0:
257,46,26570,2,0,P|306:39|364:22,1,95.9999970703126,4|0,0:3|0:0,0:0:0:0:
159,137,27070,6,0,P|150:85|134:23,1,111.999996582031,8|2,0:0|0:3,0:0:0:0:
208,126,27570,6,0,P|199:74|183:12,1,111.999996582031,8|2,0:0|0:3,0:0:0:0:
9,124,28070,6,0,P|15:151|19:179,1,47.9999985351563,8|0,0:3|0:0,0:0:0:0:
58,114,28403,1,2,0:3:0:0:
58,114,28570,2,0,P|64:141|68:169,1,47.9999985351563,4|0,0:3|0:0,0:0:0:0:
231,205,29070,6,0,B|225:232|226:240|221:260,1,47.9999985351563,8|0,0:3|0:0,0:0:0:0:
182,195,29403,1,2,0:3:0:0:
182,195,29570,2,0,B|176:222|172:227|172:250,2,47.9999985351563,4|0|2,0:3|0:0|0:3,0:0:0:0:
0,256,30070,6,0,B|0:273|5:280|13:293|10:311,1,47.9999985351563,8|0,0:3|0:0,0:0:0:0:
49,246,30403,1,8,0:3:0:0:
49,246,30570,2,0,B|43:265|55:273|57:281|59:301,1,47.9999985351563,4|0,0:3|0:0,0:0:0:0:
222,337,31070,6,0,B|216:350|222:355|216:364|212:371|212:392,1,47.9999985351563,8|0,0:3|0:0,0:0:0:0:
173,327,31403,1,2,0:3:0:0:
173,327,31570,2,0,B|161:344|167:354|170:356|167:364|163:382,2,47.9999985351563,4|8|0,0:3|0:3|3:0,0:0:0:0:
67,161,32069,6,0,B|61:152|65:146|63:137|67:130|58:124|58:114,1,47.9999985351563,8|0,0:3|0:0,0:0:0:0:
18,171,32402,1,2,0:3:0:0:
18,171,32570,2,0,B|7:161|17:151|14:147|13:134|4:134|9:124,1,47.9999985351563,4|0,0:3|0:0,0:0:0:0:
152,18,33070,6,0,B|145:24|152:32|154:37|148:41|143:49|151:53|142:65,1,47.9999985351563,8|0,0:3|0:0,0:0:0:0:
103,8,33403,1,2,0:3:0:0:
103,8,33571,2,0,B|95:19|104:27|99:31|101:38|100:44|93:40|93:55,2,47.9999985351563,4|0|2,0:3|0:0|0:3,0:0:0:0:
247,154,34070,6,0,B|247:147|241:146|246:138|243:130|245:122|243:117|233:113|238:107,1,47.9999985351563,8|0,0:3|0:0,0:0:0:0:
198,164,34403,1,8,0:3:0:0:
198,164,34571,2,0,B|190:153|200:155|197:149|194:140|185:129|193:131|197:122|189:117,1,47.9999985351563,4|0,0:3|0:0,0:0:0:0:
332,11,35071,6,0,B|326:18|331:24|331:30|328:34|332:37|329:44|323:49|330:54|322:58,1,47.9999985351563,8|0,0:3|0:0,0:0:0:0:
283,1,35404,1,2,0:3:0:0:
283,1,35570,2,0,B|282:7|276:12|279:24|271:24|278:27|279:36|273:37|276:42|273:48,2,47.9999985351563,4|0|0,0:3|0:0|0:0,0:0:0:0:
480,43,36070,6,0,B|432:43|421:58|394:51|380:97|356:69|302:73|297:58|262:65|241:86|236:103|191:113|168:92|148:83|113:119|84:95|95:108,1,383.99998828125,8|0,0:0|0:0,0:0:0:0:
24,246,38570,6,0,P|21:272|15:315,1,63.9999980468751,2|0,0:0|0:0,0:0:0:0:
74,254,39070,2,0,P|71:280|65:323,1,63.9999980468751,2|0,0:0|0:0,0:0:0:0:
43,373,39570,6,0,P|27:358|44:369,1,63.9999980468751,2|0,0:0|0:0,0:0:0:0:
