osu file format v14

[General]
AudioFilename: audio.mp3
AudioLeadIn: 0
PreviewTime: -1
Countdown: 1
SampleSet: Soft
StackLeniency: 0.7
Mode: 0
LetterboxInBreaks: 0
WidescreenStoryboard: 1

[Editor]
Bookmarks: 34616,65886,66782,98969
DistanceSpacing: 1
BeatDivisor: 4
GridSize: 4
TimelineZoom: 2.4

[Metadata]
Title:The Refrain of the Lovely Great War
TitleUnicode:可愛い大戦争のリフレーン
Artist:Jun.A
ArtistUnicode:Jun.A
Creator:Genki1000
Version:Lunatic
Source:妖精大戦争 ~ 東方三月精
Tags:Yousei Daisensou The Great Fairy War Touhou Sangetsusei Three Fairies 東方Project 12.8 Strange and Bright Nature Deity 坂本 昌一郎 Soichiro Sakamoto sound sepher
BeatmapID:3366135
BeatmapSetID:708318

[Difficulty]
HPDrainRate:6
CircleSize:4
OverallDifficulty:8.5
ApproachRate:9
SliderMultiplier:1.00000000596046
SliderTickRate:2

[Events]
//Background and Video events
0,0,"bg.jpg",0,0
//Break Periods
//Storyboard Layer 0 (Background)
//Storyboard Layer 1 (Fail)
//Storyboard Layer 2 (Pass)
//Storyboard Layer 3 (Foreground)
//Storyboard Layer 4 (Overlay)
//Storyboard Sound Samples

[TimingPoints]
572,333.333333333333,4,2,0,100,1,0
572,-400,4,2,0,100,0,0
13321,-800,4,2,0,100,0,0
14295,333.333333333333,4,2,0,100,1,0
14295,-50,4,2,0,100,0,0

[HitObjects]
174,93,14295,5,0,0:0:0:0:
378,188,15628,5,0,0:0:0:0:
113,298,16961,5,0,0:0:0:0:
305,238,17628,1,0,0:0:0:0:
213,235,18294,5,0,0:0:0:0:
298,270,18628,1,0,0:0:0:0:
216,324,18961,1,0,0:0:0:0:
307,176,19294,6,0,P|356:151|419:149,1,100.000000596046
209,152,19628,1,0,0:0:0:0:
292,83,19961,1,0,0:0:0:0:
199,56,20294,1,0,0:0:0:0:
225,259,20628,6,0,P|227:323|207:363,1,100.000000596046
145,298,20961,1,0,0:0:0:0:
149,205,21294,1,0,0:0:0:0:
68,245,21628,1,0,0:0:0:0:
238,255,21961,6,0,P|302:257|342:237,1,100.000000596046
279,175,22294,5,0,0:0:0:0:
326,102,22461,1,0,0:0:0:0:
189,179,22628,2,0,P|154:222|148:281,1,100.000000596046
365,175,22961,5,0,0:0:0:0:
237,98,23128,1,0,0:0:0:0:
418,102,23294,2,0,P|453:145|451:206,1,100.000000596046
237,98,23628,6,0,L|197:52,2,50.000000298023
97,129,23961,6,0,L|33:112,2,50.000000298023
149,268,24294,5,0,0:0:0:0:
135,260,24378,1,0,0:0:0:0:
122,252,24461,1,0,0:0:0:0:
109,244,24544,1,0,0:0:0:0:
96,236,24628,1,0,0:0:0:0:
83,228,24711,1,0,0:0:0:0:
70,220,24794,1,0,0:0:0:0:
57,212,24878,1,0,0:0:0:0:
43,203,24961,6,0,P|63:164|118:144,1,100.000000596046
253,163,25294,2,0,P|227:200|169:222,1,100.000000596046,0|0,0:0|0:0,0:0:0:0:
123,80,25628,1,0,0:0:0:0:
229,94,25794,1,0,0:0:0:0:
81,160,25961,1,0,0:0:0:0:
229,94,26128,1,0,0:0:0:0:
298,164,26294,5,0,0:0:0:0:
405,134,26461,1,0,0:0:0:0:
405,134,26544,1,0,0:0:0:0:
405,134,26628,1,0,0:0:0:0:
380,256,26794,1,0,0:0:0:0:
378,265,26878,1,0,0:0:0:0:
376,274,26961,1,0,0:0:0:0:
301,179,27128,1,0,0:0:0:0:
295,159,27211,1,0,0:0:0:0:
290,139,27295,1,0,0:0:0:0:
249,255,27461,1,0,0:0:0:0:
235,281,27544,1,0,0:0:0:0:
219,306,27628,5,0,0:0:0:0:
308,324,27794,1,0,0:0:0:0:
164,203,27961,2,0,P|143:153|152:91,1,100.000000596046,0|0,0:0|0:0,0:0:0:0:
63,238,28294,5,0,0:0:0:0:
236,180,28460,1,0,0:0:0:0:
155,277,28627,2,0,P|134:327|143:389,1,100.000000596046,0|0,0:0|0:0,0:0:0:0:
121,137,28960,5,0,0:0:0:0:
133,120,29043,1,0,0:0:0:0:
151,102,29127,1,0,0:0:0:0:
172,88,29210,1,0,0:0:0:0:
193,74,29294,2,0,P|229:59|265:62,3,50.000000298023,0|0|0|0,0:0|0:0|0:0|0:0,0:0:0:0:
225,37,29628,5,0,0:0:0:0:
260,182,29794,1,0,0:0:0:0:
330,98,29961,1,0,0:0:0:0:
426,213,30128,1,0,0:0:0:0:
373,290,30294,6,0,P|340:334|272:349,1,100.000000596046
181,305,30628,1,0,0:0:0:0:
291,229,30794,1,0,0:0:0:0:
138,213,30961,6,0,P|94:256|78:307,1,100.000000596046
238,146,31295,1,0,0:0:0:0:
260,306,31461,1,0,0:0:0:0:
394,232,31628,5,0,0:0:0:0:
394,232,31711,1,0,0:0:0:0:
394,232,31794,1,0,0:0:0:0:
291,232,31961,1,0,0:0:0:0:
274,250,32044,1,0,0:0:0:0:
258,271,32128,1,0,0:0:0:0:
302,139,32294,5,0,0:0:0:0:
200,152,32461,1,0,0:0:0:0:
409,124,32628,1,0,0:0:0:0:
302,139,32795,1,0,0:0:0:0:
247,230,32961,5,0,0:0:0:0:
239,253,33044,1,0,0:0:0:0:
239,278,33128,1,0,0:0:0:0:
245,302,33211,1,0,0:0:0:0:
257,323,33294,2,0,L|323:316,1,50.000000298023
413,342,33461,2,0,L|479:335,1,50.000000298023
390,247,33628,5,0,0:0:0:0:
396,223,33711,1,0,0:0:0:0:
399,198,33794,1,0,0:0:0:0:
395,173,33878,1,0,0:0:0:0:
385,149,33961,2,0,L|336:71,1,50.000000298023
436,50,34128,2,0,L|491:-29,1,50.000000298023
283,29,34294,6,0,L|204:53,1,50.000000298023
177,149,34461,2,0,L|108:185,1,50.000000298023
275,120,34628,2,0,L|269:192,1,50.000000298023
137,25,34795,2,0,L|122:89,1,50.000000298023
55,203,34961,5,0,0:0:0:0:
53,212,35044,1,0,0:0:0:0:
51,222,35128,1,0,0:0:0:0:
49,231,35211,1,0,0:0:0:0:
48,240,35294,1,0,0:0:0:0:
47,250,35378,1,0,0:0:0:0:
46,259,35461,1,0,0:0:0:0:
45,268,35544,1,0,0:0:0:0:
44,278,35628,6,0,P|42:304|46:328,1,50.000000298023
186,318,35794,2,0,P|194:347|209:376,1,50.000000298023
338,328,35961,1,0,0:0:0:0:
359,357,36044,1,0,0:0:0:0:
389,374,36128,2,0,P|439:384|477:382,1,50.000000298023
436,250,36294,5,0,0:0:0:0:
451,218,36378,1,0,0:0:0:0:
456,183,36461,1,0,0:0:0:0:
449,148,36544,1,0,0:0:0:0:
433,116,36628,2,0,P|408:87|372:89,1,50.000000298023
337,175,36795,2,0,P|313:194|305:217,1,50.000000298023
298,53,36961,5,0,0:0:0:0:
270,78,37044,1,0,0:0:0:0:
235,98,37128,2,0,P|208:107|180:106,1,50.000000298023
197,214,37294,1,0,0:0:0:0:
161,211,37378,1,0,0:0:0:0:
131,192,37461,1,0,0:0:0:0:
104,169,37544,2,0,P|54:110|45:52,1,100.000000596046
142,60,37794,1,0,0:0:0:0:
168,30,37878,1,0,0:0:0:0:
179,67,37961,5,0,0:0:0:0:
208,93,38044,1,0,0:0:0:0:
241,115,38128,2,0,P|285:111|316:101,1,50.000000298023
118,195,38294,6,0,P|89:199|55:227,1,50.000000298023
136,354,38461,2,0,P|147:321|149:275,1,50.000000298023,0|0,0:3|0:3,0:3:0:0:
244,224,38628,1,0,0:0:0:0:
263,258,38711,1,0,0:0:0:0:
300,270,38794,1,0,0:0:0:0:
318,305,38878,2,0,P|361:348|422:396,1,100.000000596046
403,214,39127,1,0,0:0:0:0:
428,182,39211,1,0,0:0:0:0:
441,144,39294,1,0,0:0:0:0:
441,103,39378,1,0,0:0:0:0:
421,68,39461,2,0,P|396:44|368:30,1,50.000000298023
221,158,39628,5,0,0:0:0:0:
261,160,39711,1,0,0:0:0:0:
299,147,39794,2,0,P|333:123|353:92,1,50.000000298023
303,240,39961,1,0,0:0:0:0:
288,271,40044,1,0,0:0:0:0:
256,284,40128,1,0,0:0:0:0:
238,314,40211,1,0,0:0:0:0:
203,314,40294,2,0,P|167:308|118:315,3,50.000000298023
45,355,40628,2,0,P|25:334|5:290,1,50.000000298023
78,174,40794,2,0,P|85:199|83:229,1,50.000000298023
172,120,40961,5,0,0:0:0:0:
197,93,41044,1,0,0:0:0:0:
232,82,41128,2,0,P|264:73|298:82,1,50.000000298023
247,207,41294,1,0,0:0:0:0:
261,239,41378,2,0,P|286:280|339:311,1,100.000000596046
372,193,41628,1,0,0:0:0:0:
394,166,41711,1,0,0:0:0:0:
422,146,41794,1,0,0:0:0:0:
456,138,41878,1,0,0:0:0:0:
490,140,41961,2,0,P|467:174|467:203,1,50.000000298023
468,271,42128,5,0,0:0:0:0:
448,302,42211,2,0,P|402:321|332:309,1,100.000000596046
333,195,42461,1,0,0:0:0:0:
298,204,42544,1,0,0:0:0:0:
270,224,42628,1,0,0:0:0:0:
249,252,42711,2,0,P|235:313|275:361,1,100.000000596046
125,327,42961,1,0,0:0:0:0:
90,335,43044,1,0,0:0:0:0:
58,332,43128,2,0,P|19:312|-5:268,1,50.000000298023
96,107,43294,1,0,0:0:0:0:
110,138,43378,1,0,0:0:0:0:
114,176,43461,2,0,P|106:211|84:242,1,50.000000298023
8,49,43628,6,0,P|23:25|49:9,1,50.000000298023
233,126,43794,2,0,P|218:150|192:166,1,50.000000298023
165,52,43961,1,0,0:0:0:0:
196,39,44044,2,0,P|255:31|313:56,1,100.000000596046
346,120,44294,1,0,0:0:0:0:
379,131,44378,1,0,0:0:0:0:
413,130,44461,1,0,0:0:0:0:
446,120,44544,1,0,0:0:0:0:
474,98,44628,2,0,P|503:69|517:33,1,50.000000298023
394,0,44794,2,0,P|392:38|412:69,1,50.000000298023
468,206,44961,5,0,0:0:0:0:
479,239,45044,1,0,0:0:0:0:
468,272,45127,1,0,0:0:0:0:
478,305,45211,1,0,0:0:0:0:
459,334,45294,5,0,0:0:0:0:
425,322,45378,1,0,0:0:0:0:
392,335,45461,1,0,0:0:0:0:
358,324,45544,1,0,0:0:0:0:
326,339,45628,6,0,L|271:315,1,50.000000298023
201,345,45794,2,0,L|183:299,1,50.000000298023
109,261,45961,2,0,L|132:207,1,50.000000298023
102,137,46128,2,0,L|148:119,1,50.000000298023
267,15,46294,5,0,0:0:0:0:
301,19,46378,1,0,0:0:0:0:
330,37,46461,1,0,0:0:0:0:
346,65,46544,1,0,0:0:0:0:
313,79,46627,5,0,0:0:0:0:
307,103,46710,1,0,0:0:0:0:
291,128,46794,2,0,P|254:158|215:155,1,50.000000298023
164,97,46961,5,0,0:0:0:0:
127,113,47044,1,0,0:0:0:0:
93,135,47128,1,0,0:0:0:0:
66,163,47211,2,0,P|123:189|167:222,1,100.000000596046
69,242,47461,1,0,0:0:0:0:
104,260,47544,1,0,0:0:0:0:
132,277,47628,5,0,0:0:0:0:
99,300,47711,1,0,0:0:0:0:
77,333,47794,2,0,P|52:377|55:407,1,50.000000298023
199,350,47961,5,0,0:0:0:0:
238,356,48044,1,0,0:0:0:0:
278,357,48128,1,0,0:0:0:0:
314,347,48211,2,0,P|361:316|387:253,1,100.000000596046
296,259,48461,1,0,0:0:0:0:
280,222,48544,1,0,0:0:0:0:
264,184,48628,5,0,0:0:0:0:
303,189,48711,1,0,0:0:0:0:
342,189,48794,2,0,P|370:187|398:164,1,50.000000298023
480,52,48961,6,0,P|472:94|437:118,1,50.000000298023
251,34,49128,2,0,P|283:17|296:15,1,50.000000298023
347,106,49294,1,0,0:0:0:0:
311,125,49378,1,0,0:0:0:0:
273,139,49461,1,0,0:0:0:0:
233,145,49544,2,0,P|180:136|131:106,1,100.000000596046
287,267,49794,2,0,B|272:304|240:328,1,50.000000298023
422,229,49961,1,0,0:0:0:0:
454,241,50044,1,0,0:0:0:0:
481,262,50128,2,0,P|493:288|499:314,1,50.000000298023
286,159,50294,5,0,0:0:0:0:
318,134,50378,1,0,0:0:0:0:
353,116,50461,2,0,P|384:106|410:107,1,50.000000298023
243,264,50628,5,0,0:0:0:0:
209,285,50711,1,0,0:0:0:0:
171,299,50794,1,0,0:0:0:0:
130,303,50878,1,0,0:0:0:0:
91,293,50961,2,0,P|94:341|87:370,3,50.000000298023
14,196,51294,6,0,P|32:164|60:148,1,50.000000298023
140,55,51461,2,0,P|167:67|187:89,1,50.000000298023
307,93,51628,5,0,0:0:0:0:
302,132,51711,1,0,0:0:0:0:
283,161,51794,1,0,0:0:0:0:
247,179,51878,1,0,0:0:0:0:
231,217,51961,5,0,0:0:0:0:
195,198,52044,2,0,P|140:184|81:188,1,100.000000596046
127,309,52294,1,0,0:0:0:0:
158,324,52378,1,0,0:0:0:0:
191,332,52461,2,0,P|230:332|265:300,1,50.000000298023
316,229,52628,2,0,P|336:243|349:264,1,50.000000298023
194,192,52794,5,0,0:0:0:0:
212,162,52878,2,0,P|267:124|339:116,1,100.000000596046
408,195,53128,5,0,0:0:0:0:
422,163,53211,1,0,0:0:0:0:
423,128,53294,1,0,0:0:0:0:
414,93,53378,2,0,P|393:38|342:-11,1,100.000000596046
290,108,53628,5,0,0:0:0:0:
257,121,53711,1,0,0:0:0:0:
222,121,53794,2,0,P|189:114|159:88,1,50.000000298023
82,15,53961,1,0,0:0:0:0:
63,44,54044,1,0,0:0:0:0:
56,78,54128,2,0,P|53:111|63:139,1,50.000000298023
75,308,54294,6,0,P|36:283|11:252,1,50.000000298023
157,144,54461,2,0,P|170:170|168:213,1,50.000000298023
187,303,54628,1,0,0:0:0:0:
220,312,54711,1,0,0:0:0:0:
254,308,54794,1,0,0:0:0:0:
286,294,54878,1,0,0:0:0:0:
315,276,54961,6,0,P|349:274|403:303,1,50.000000298023
458,208,55128,2,0,P|439:191|400:187,1,50.000000298023
365,86,55294,1,0,0:0:0:0:
335,105,55378,1,0,0:0:0:0:
312,132,55461,1,0,0:0:0:0:
302,166,55544,1,0,0:0:0:0:
330,194,55627,5,0,0:0:0:0:
313,212,55711,1,0,0:0:0:0:
291,224,55794,2,0,P|248:223|217:206,1,50.000000298023
63,90,55961,5,0,0:0:0:0:
100,103,56044,1,0,0:0:0:0:
128,130,56128,2,0,P|150:160|157:186,1,50.000000298023
126,265,56294,5,0,0:0:0:0:
123,269,56378,1,0,0:0:0:0:
120,272,56461,1,0,0:0:0:0:
117,275,56544,1,0,0:0:0:0:
114,279,56628,1,0,0:0:0:0:
111,283,56711,1,0,0:0:0:0:
108,287,56794,1,0,0:0:0:0:
105,291,56878,1,0,0:0:0:0:
101,294,56961,6,0,P|47:326|-4:329,1,100.000000596046
0,142,57294,2,0,P|32:196|35:247,1,100.000000596046
184,43,57628,1,0,0:0:0:0:
108,145,57794,1,0,0:0:0:0:
234,134,57961,1,0,0:0:0:0:
69,47,58128,1,0,0:0:0:0:
150,247,58294,5,0,0:0:0:0:
74,152,58461,1,0,0:0:0:0:
65,146,58544,1,0,0:0:0:0:
58,138,58627,1,0,0:0:0:0:
58,269,58794,1,0,0:0:0:0:
56,278,58877,1,0,0:0:0:0:
54,287,58961,1,0,0:0:0:0:
183,158,59127,1,0,0:0:0:0:
189,150,59211,1,0,0:0:0:0:
196,143,59294,1,0,0:0:0:0:
188,268,59461,1,0,0:0:0:0:
188,307,59544,1,0,0:0:0:0:
187,347,59628,5,0,0:0:0:0:
291,358,59794,1,0,0:0:0:0:
385,296,59961,2,0,P|417:252|435:172,1,100.000000596046
427,51,60294,5,0,0:0:0:0:
350,143,60460,1,0,0:0:0:0:
225,62,60627,2,0,P|181:30|101:12,1,100.000000596046
123,114,60961,5,0,0:0:0:0:
101,147,61044,1,0,0:0:0:0:
87,184,61127,1,0,0:0:0:0:
80,224,61211,1,0,0:0:0:0:
83,263,61294,2,0,P|96:300|123:333,3,50.000000298023
141,317,61628,5,0,0:0:0:0:
284,302,61794,1,0,0:0:0:0:
213,349,61961,1,0,0:0:0:0:
279,223,62128,1,0,0:0:0:0:
399,251,62294,5,0,0:0:0:0:
396,170,62461,1,0,0:0:0:0:
358,99,62628,1,0,0:0:0:0:
291,55,62794,1,0,0:0:0:0:
222,13,62961,6,0,P|192:59|202:139,1,100.000000596046
260,160,63294,2,0,P|207:190|132:173,1,100.000000596046
113,286,63628,5,0,0:0:0:0:
95,321,63711,1,0,0:0:0:0:
73,354,63794,1,0,0:0:0:0:
59,211,63961,1,0,0:0:0:0:
58,186,64044,1,0,0:0:0:0:
55,160,64128,1,0,0:0:0:0:
169,198,64294,5,0,0:0:0:0:
128,84,64461,1,0,0:0:0:0:
270,52,64628,1,0,0:0:0:0:
242,134,64794,1,0,0:0:0:0:
243,274,64961,5,0,0:0:0:0:
247,282,65044,1,0,0:0:0:0:
250,291,65128,1,0,0:0:0:0:
254,299,65211,1,0,0:0:0:0:
257,308,65294,2,0,L|333:327,3,50.000000298023
337,288,65628,5,0,0:0:0:0:
362,257,65711,1,0,0:0:0:0:
376,219,65794,1,0,0:0:0:0:
383,179,65878,1,0,0:0:0:0:
377,139,65961,2,0,P|364:113|337:81,3,50.000000298023
319,97,66294,6,0,P|296:124|256:126,1,50.000000298023
195,166,66461,2,0,P|164:164|134:135,1,50.000000298023
209,26,66628,2,0,P|216:56|240:87,1,50.000000298023
89,70,66794,2,0,P|133:74|178:97,1,50.000000298023
285,145,66961,5,0,0:0:0:0:
322,158,67044,1,0,0:0:0:0:
359,171,67128,1,0,0:0:0:0:
395,188,67211,1,0,0:0:0:0:
406,210,67294,5,0,0:0:0:0:
408,224,67378,1,0,0:0:0:0:
411,238,67461,1,0,0:0:0:0:
414,252,67544,1,0,0:0:0:0:
413,268,67628,5,0,0:0:0:0:
365,351,67794,1,0,0:0:0:0:
315,291,67961,1,0,0:0:0:0:
296,146,68128,1,0,0:0:0:0:
252,239,68294,1,0,0:0:0:0:
220,172,68461,1,0,0:0:0:0:
184,239,68628,1,0,0:0:0:0:
179,328,68794,1,0,0:0:0:0:
108,231,68961,1,0,0:0:0:0:
108,231,69461,1,0,0:0:0:0:
108,231,69544,1,0,0:0:0:0:
108,231,69628,1,0,0:0:0:0:
133,160,70128,1,0,0:0:0:0:
141,147,70211,1,0,0:0:0:0:
149,134,70294,5,0,0:0:0:0:
225,210,70461,1,0,0:0:0:0:
258,188,70628,1,0,0:0:0:0:
292,152,70794,1,0,0:0:0:0:
357,181,70961,1,0,0:0:0:0:
292,152,71128,1,0,0:0:0:0:
255,81,71294,1,0,0:0:0:0:
304,4,71461,1,0,0:0:0:0:
378,71,71628,1,0,0:0:0:0:
361,296,72461,5,0,0:0:0:0:
352,277,72794,1,0,0:0:0:0:
332,141,72961,5,0,0:0:0:0:
307,225,73128,1,0,0:0:0:0:
215,152,73294,1,0,0:0:0:0:
242,262,73461,1,0,0:0:0:0:
147,260,73628,1,0,0:0:0:0:
197,321,73794,1,0,0:0:0:0:
137,194,73961,1,0,0:0:0:0:
98,321,74128,1,0,0:0:0:0:
30,247,74294,2,0,P|-9:188|52:231,1,200.000001192092
30,247,74961,1,0,0:0:0:0:
188,333,75461,6,0,L|239:285,1,50.000000298023
147,211,75628,1,0,0:0:0:0:
313,204,75794,1,0,0:0:0:0:
381,64,75961,2,0,P|333:52|251:113,1,150.000000894069
242,130,76294,1,0,0:0:0:0:
249,212,76461,1,0,0:0:0:0:
89,203,76628,1,0,0:0:0:0:
161,62,76794,1,0,0:0:0:0:
336,47,76961,6,0,L|391:67,3,50.000000298023
384,143,77294,2,0,L|423:198,3,50.000000298023
417,258,77628,5,0,0:0:0:0:
414,302,77711,1,0,0:0:0:0:
399,344,77794,1,0,0:0:0:0:
371,380,77878,1,0,0:0:0:0:
362,336,77961,5,0,0:0:0:0:
339,297,78044,1,0,0:0:0:0:
308,263,78128,1,0,0:0:0:0:
273,233,78211,1,0,0:0:0:0:
252,265,78294,6,0,P|229:298|190:322,1,50.000000298023
138,251,78461,2,0,P|116:235|88:231,1,50.000000298023
52,349,78628,1,0,0:0:0:0:
52,349,78711,1,0,0:0:0:0:
52,349,78794,2,0,P|21:374|-10:380,1,50.000000298023
21,164,78961,1,0,0:0:0:0:
12,119,79044,1,0,0:0:0:0:
12,73,79128,1,0,0:0:0:0:
30,31,79211,1,0,0:0:0:0:
63,0,79294,5,0,0:0:0:0:
84,40,79378,1,0,0:0:0:0:
117,69,79461,2,0,P|147:80|193:85,1,50.000000298023
310,33,79628,6,0,P|270:30|247:41,1,50.000000298023
394,146,79794,2,0,P|427:144|462:125,1,50.000000298023
275,141,79961,1,0,0:0:0:0:
257,177,80044,1,0,0:0:0:0:
249,216,80128,1,0,0:0:0:0:
252,255,80211,2,0,P|280:307|336:328,2,100.000000596046
453,152,80628,5,0,0:0:0:0:
427,188,80711,1,0,0:0:0:0:
399,223,80794,2,0,P|357:242|326:234,1,50.000000298023
264,68,80961,2,0,P|287:89|286:137,1,50.000000298023
177,227,81128,2,0,P|157:206|161:151,1,50.000000298023
29,165,81294,1,0,0:0:0:0:
48,124,81378,1,0,0:0:0:0:
82,95,81461,1,0,0:0:0:0:
120,72,81544,2,0,P|184:65|235:93,1,100.000000596046
158,182,81794,6,0,P|166:214|156:250,1,50.000000298023
67,362,81961,2,0,P|91:338|127:329,1,50.000000298023
280,342,82128,2,0,P|247:333|221:306,1,50.000000298023
297,192,82294,6,0,P|322:195|344:207,3,50.000000298023
343,252,82628,5,0,0:0:0:0:
386,241,82711,1,0,0:0:0:0:
412,277,82794,1,0,0:0:0:0:
453,259,82878,1,0,0:0:0:0:
483,287,82961,6,0,P|487:257|469:219,3,50.000000298023
477,193,83294,5,0,0:0:0:0:
456,152,83378,1,0,0:0:0:0:
418,126,83461,1,0,0:0:0:0:
374,115,83544,1,0,0:0:0:0:
350,76,83628,5,0,0:0:0:0:
319,108,83711,1,0,0:0:0:0:
276,121,83794,2,0,P|248:114|228:97,1,50.000000298023
63,119,83961,5,0,0:0:0:0:
74,75,84044,2,0,P|88:37|157:-2,1,100.000000596046
216,184,84294,1,0,0:0:0:0:
176,206,84378,1,0,0:0:0:0:
132,215,84461,1,0,0:0:0:0:
87,222,84544,1,0,0:0:0:0:
41,225,84628,2,0,P|64:245|108:258,1,50.000000298023
189,376,84794,5,0,0:0:0:0:
210,336,84878,2,0,P|207:280|148:266,1,100.000000596046
291,308,85128,5,0,0:0:0:0:
335,315,85211,1,0,0:0:0:0:
377,302,85294,1,0,0:0:0:0:
413,275,85378,2,0,P|476:265|545:285,1,100.000000596046
399,135,85628,5,0,0:0:0:0:
366,104,85711,1,0,0:0:0:0:
326,83,85794,2,0,P|286:78|248:83,1,50.000000298023
164,193,85961,5,0,0:0:0:0:
206,207,86044,1,0,0:0:0:0:
251,207,86128,2,0,P|285:190|309:153,1,50.000000298023
84,39,86294,6,0,P|73:61|70:86,1,50.000000298023
0,201,86461,2,0,P|16:219|37:233,1,50.000000298023
132,332,86628,5,0,0:0:0:0:
173,349,86711,2,0,P|197:352|222:350,1,50.000000298023
358,272,86878,1,0,0:0:0:0:
325,240,86961,2,0,P|304:222|295:193,1,50.000000298023
405,81,87128,6,0,P|402:119|381:155,1,50.000000298023
236,94,87294,2,0,P|260:76|291:84,1,50.000000298023
201,250,87461,2,0,P|189:228|189:204,1,50.000000298023
327,290,87628,5,0,0:0:0:0:
317,333,87711,1,0,0:0:0:0:
273,323,87794,1,0,0:0:0:0:
263,367,87878,1,0,0:0:0:0:
223,345,87961,5,0,0:0:0:0:
179,355,88044,1,0,0:0:0:0:
159,314,88128,1,0,0:0:0:0:
114,319,88211,1,0,0:0:0:0:
78,291,88294,5,0,0:0:0:0:
52,253,88378,1,0,0:0:0:0:
42,209,88461,1,0,0:0:0:0:
45,164,88544,1,0,0:0:0:0:
76,197,88628,5,0,0:0:0:0:
117,212,88711,1,0,0:0:0:0:
161,212,88794,1,0,0:0:0:0:
205,202,88878,1,0,0:0:0:0:
239,173,88961,6,0,P|263:152|274:104,1,50.000000298023
236,26,89128,2,0,P|267:17|308:27,1,50.000000298023
456,34,89294,5,0,0:0:0:0:
447,78,89378,1,0,0:0:0:0:
424,116,89461,2,0,P|402:150|362:154,1,50.000000298023
271,136,89628,5,0,0:0:0:0:
279,180,89711,1,0,0:0:0:0:
305,215,89794,1,0,0:0:0:0:
348,235,89878,1,0,0:0:0:0:
392,233,89961,5,0,0:0:0:0:
365,269,90044,1,0,0:0:0:0:
331,299,90128,2,0,P|293:323|254:320,1,50.000000298023
150,251,90294,5,0,0:0:0:0:
125,289,90378,1,0,0:0:0:0:
128,333,90461,2,0,P|129:358|150:385,1,50.000000298023
89,163,90628,6,0,P|58:191|48:222,2,50.000000298023
57,48,90878,2,0,P|96:77|155:92,1,100.000000596046
189,81,91128,1,0,0:0:0:0:
229,60,91211,1,0,0:0:0:0:
260,28,91294,5,0,0:0:0:0:
282,67,91378,1,0,0:0:0:0:
285,111,91461,2,0,P|275:159|239:172,1,50.000000298023
282,357,91628,6,0,P|301:371|362:361,1,50.000000298023
356,261,91794,2,0,P|336:233|335:209,1,50.000000298023
478,165,91961,2,0,P|463:184|442:198,2,50.000000298023
388,23,92211,2,0,P|377:72|395:139,1,100.000000596046
507,96,92461,6,0,P|479:88|431:77,1,50.000000298023
282,42,92628,2,0,P|256:56|215:82,1,50.000000298023
106,131,92794,2,0,P|98:159|87:206,1,50.000000298023
90,286,92961,5,0,0:0:0:0:
134,278,93044,1,0,0:0:0:0:
170,251,93128,1,0,0:0:0:0:
197,216,93211,1,0,0:0:0:0:
213,174,93294,6,0,P|201:144|213:105,3,50.000000298023
235,95,93628,2,0,P|241:67|278:27,3,50.000000298023
158,54,93961,5,0,0:0:0:0:
114,66,94044,1,0,0:0:0:0:
79,95,94128,2,0,P|53:125|43:160,1,50.000000298023
168,241,94294,6,0,P|175:217|177:192,1,50.000000298023
42,296,94461,2,0,P|34:319|33:344,1,50.000000298023
189,374,94628,5,0,0:0:0:0:
233,371,94711,2,0,P|255:359|273:342,1,50.000000298023
274,229,94878,1,0,0:0:0:0:
318,229,94961,2,0,P|354:252|367:284,1,50.000000298023
431,367,95128,5,0,0:0:0:0:
469,344,95211,1,0,0:0:0:0:
492,305,95294,2,0,P|503:268|495:233,2,50.000000298023
434,192,95544,2,0,P|418:132|419:88,1,100.000000596046
309,155,95794,5,0,0:0:0:0:
266,170,95878,1,0,0:0:0:0:
261,214,95961,1,0,0:0:0:0:
218,228,96044,2,0,P|142:252|87:233,1,100.000000596046
0,259,96294,5,0,0:0:0:0:
7,303,96378,1,0,0:0:0:0:
33,339,96461,2,0,P|63:359|123:363,1,50.000000298023
145,266,96628,5,0,0:0:0:0:
181,292,96712,1,0,0:0:0:0:
224,299,96795,2,0,P|259:291|304:252,1,50.000000298023
236,149,96961,5,0,0:0:0:0:
280,156,97044,1,0,0:0:0:0:
322,172,97128,1,0,0:0:0:0:
357,199,97211,1,0,0:0:0:0:
385,233,97294,2,0,P|404:270|412:307,3,50.000000298023
408,232,97628,5,0,0:0:0:0:
395,178,97711,1,0,0:0:0:0:
359,135,97795,1,0,0:0:0:0:
316,99,97878,1,0,0:0:0:0:
265,78,97961,2,0,P|235:67|188:67,3,50.000000298023
143,133,98294,5,0,0:0:0:0:
108,176,98378,1,0,0:0:0:0:
62,206,98461,2,0,P|24:224|-18:220,1,50.000000298023
222,188,98628,5,0,0:0:0:0:
258,229,98712,1,0,0:0:0:0:
268,282,98795,2,0,P|260:331|234:347,1,50.000000298023
362,181,98961,5,0,0:0:0:0:
412,201,99044,1,0,0:0:0:0:
442,247,99128,1,0,0:0:0:0:
457,299,99211,1,0,0:0:0:0:
414,286,99294,5,0,0:0:0:0:
368,282,99378,1,0,0:0:0:0:
324,292,99461,1,0,0:0:0:0:
282,310,99544,1,0,0:0:0:0:
249,341,99628,5,0,0:0:0:0:
93,270,99794,1,0,0:0:0:0:
222,188,99961,2,0,P|170:150|101:137,1,100.000000596046
310,276,100294,5,0,0:0:0:0:
395,165,100461,1,0,0:0:0:0:
468,284,100628,2,0,P|444:327|401:351,1,100.000000596046
156,319,100961,5,0,0:0:0:0:
104,201,101128,1,0,0:0:0:0:
94,152,101211,1,0,0:0:0:0:
85,102,101294,1,0,0:0:0:0:
202,62,101461,1,0,0:0:0:0:
198,81,101544,1,0,0:0:0:0:
194,100,101628,1,0,0:0:0:0:
262,182,101794,1,0,0:0:0:0:
288,158,101878,1,0,0:0:0:0:
312,133,101961,1,0,0:0:0:0:
331,33,102128,1,0,0:0:0:0:
338,39,102211,1,0,0:0:0:0:
345,46,102295,5,0,0:0:0:0:
437,125,102461,1,0,0:0:0:0:
215,79,102628,2,0,P|166:85|116:114,1,100.000000596046
207,250,102961,5,0,0:0:0:0:
296,141,103128,1,0,0:0:0:0:
335,290,103294,2,0,P|389:334|447:359,1,100.000000596046
436,216,103628,6,0,L|470:159,3,50.000000298023
422,141,103961,2,0,L|388:84,3,50.000000298023
396,47,104294,5,0,0:0:0:0:
295,149,104460,1,0,0:0:0:0:
214,25,104627,1,0,0:0:0:0:
251,234,104794,1,0,0:0:0:0:
60,186,104961,2,0,L|37:249,2,50.000000298023
154,134,105294,2,0,L|174:68,2,50.000000298023
171,295,105628,2,0,P|149:339|105:360,1,100.000000596046
304,315,105961,2,0,P|358:328|406:373,1,100.000000596046
437,228,106294,5,0,0:0:0:0:
437,228,106378,1,0,0:0:0:0:
437,228,106461,1,0,0:0:0:0:
320,263,106628,1,0,0:0:0:0:
297,273,106711,1,0,0:0:0:0:
274,283,106794,1,0,0:0:0:0:
354,158,106961,6,0,P|388:96|439:61,1,100.000000596046
436,228,107294,2,0,P|395:254|346:259,1,100.000000596046
265,200,107628,5,0,0:0:0:0:
177,247,107794,1,0,0:0:0:0:
91,194,107961,1,0,0:0:0:0:
177,142,108128,1,0,0:0:0:0:
78,272,108294,5,0,0:0:0:0:
128,123,108461,1,0,0:0:0:0:
95,353,108628,1,0,0:0:0:0:
91,194,108794,1,0,0:0:0:0:
177,276,108961,5,0,0:0:0:0:
190,277,109044,1,0,0:0:0:0:
204,280,109128,1,0,0:0:0:0:
218,282,109211,1,0,0:0:0:0:
232,285,109294,1,0,0:0:0:0:
247,287,109378,1,0,0:0:0:0:
260,290,109461,1,0,0:0:0:0:
274,293,109544,1,0,0:0:0:0:
298,295,109628,6,0,L|389:295,3,50.000000298023
396,263,109961,5,0,0:0:0:0:
415,228,110044,1,0,0:0:0:0:
419,187,110128,1,0,0:0:0:0:
417,147,110211,1,0,0:0:0:0:
396,112,110294,5,0,0:0:0:0:
271,181,110461,1,0,0:0:0:0:
207,97,110628,1,0,0:0:0:0:
177,301,110794,1,0,0:0:0:0:
299,201,110961,6,0,P|362:182|430:179,1,100.000000596046
435,181,111211,1,0,0:0:0:0:
473,192,111294,1,0,0:0:0:0:
368,70,111461,1,0,0:0:0:0:
277,177,111628,5,0,0:0:0:0:
132,60,111794,1,0,0:0:0:0:
132,60,111878,1,0,0:0:0:0:
132,60,111961,1,0,0:0:0:0:
108,183,112128,1,0,0:0:0:0:
108,183,112212,1,0,0:0:0:0:
108,183,112295,1,0,0:0:0:0:
87,306,112461,1,0,0:0:0:0:
87,306,112545,1,0,0:0:0:0:
87,306,112628,1,0,0:0:0:0:
189,261,112794,1,0,0:0:0:0:
189,261,112878,1,0,0:0:0:0:
189,261,112961,5,0,0:0:0:0:
307,321,113128,1,0,0:0:0:0:
397,213,113294,2,0,P|416:145|387:83,1,100.000000596046
212,193,113628,1,0,0:0:0:0:
311,149,113794,1,0,0:0:0:0:
219,101,113961,2,0,P|153:75|83:84,1,100.000000596046
102,193,114294,6,0,P|139:280|256:341,2,200.000001192092
46,267,115128,1,0,0:0:0:0:
15,170,115294,1,0,0:0:0:0:
86,97,115461,1,0,0:0:0:0:
195,135,115628,5,0,0:0:0:0:
268,200,115794,1,0,0:0:0:0:
290,106,115961,1,0,0:0:0:0:
217,48,116128,1,0,0:0:0:0:
174,226,116294,2,0,L|144:338,1,100.000000596046
318,270,116628,2,0,L|410:348,1,100.000000596046
404,186,116961,5,0,0:0:0:0:
392,137,117044,1,0,0:0:0:0:
380,87,117128,1,0,0:0:0:0:
308,181,117294,5,0,0:0:0:0:
285,200,117377,1,0,0:0:0:0:
261,219,117461,1,0,0:0:0:0:
177,146,117628,1,0,0:0:0:0:
202,48,117794,1,0,0:0:0:0:
105,22,117961,1,0,0:0:0:0:
79,119,118128,1,0,0:0:0:0:
81,223,118294,5,0,0:0:0:0:
98,253,118378,1,0,0:0:0:0:
126,273,118461,1,0,0:0:0:0:
159,280,118544,1,0,0:0:0:0:
194,277,118628,2,0,P|227:266|258:235,3,50.000000298023
268,301,118961,5,0,0:0:0:0:
309,329,119044,1,0,0:0:0:0:
355,347,119128,1,0,0:0:0:0:
403,358,119211,1,0,0:0:0:0:
452,360,119294,2,0,P|486:361|525:341,3,50.000000298023
446,258,119628,6,0,L|480:196,1,50.000000298023
462,80,119794,2,0,L|428:142,1,50.000000298023
337,220,119961,2,0,L|371:158,1,50.000000298023
353,42,120127,2,0,L|319:104,1,50.000000298023
208,134,120294,5,0,0:0:0:0:
196,150,120378,1,0,0:0:0:0:
187,168,120461,1,0,0:0:0:0:
181,187,120544,1,0,0:0:0:0:
176,206,120628,1,0,0:0:0:0:
174,225,120711,1,0,0:0:0:0:
174,244,120794,1,0,0:0:0:0:
175,264,120878,1,0,0:0:0:0:
178,283,120961,5,0,0:0:0:0:
374,137,122294,1,0,0:0:0:0:
125,87,123628,1,0,0:0:0:0:
157,243,124294,1,0,0:0:0:0:
188,130,124961,1,0,0:0:0:0:
188,130,125294,5,0,0:0:0:0:
188,130,125628,1,0,0:0:0:0:
309,240,125961,6,0,P|346:304|405:338,1,100.000000596046
404,231,126294,1,0,0:0:0:0:
347,148,126628,1,0,0:0:0:0:
443,141,126961,1,0,0:0:0:0:
234,160,127294,6,0,P|170:197|136:256,1,100.000000596046
245,249,127628,1,0,0:0:0:0:
166,316,127961,1,0,0:0:0:0:
259,347,128294,1,0,0:0:0:0:
154,216,128628,6,0,P|107:180|36:165,1,100.000000596046
215,140,128961,5,0,0:0:0:0:
356,91,129128,1,0,0:0:0:0:
461,126,129294,2,0,P|399:182|339:187,1,100.000000596046
319,278,129628,5,0,0:0:0:0:
215,140,129794,1,0,0:0:0:0:
225,322,129961,2,0,P|286:369|337:364,1,100.000000596046
384,135,130294,6,0,B|416:121|416:121|469:115,2,50.000000298023
128,135,130628,2,0,B|96:121|96:121|43:115,2,50.000000298023
256,183,130961,1,0,0:0:0:0:
256,207,131044,1,0,0:0:0:0:
256,232,131128,1,0,0:0:0:0:
256,256,131211,1,0,0:0:0:0:
256,280,131294,1,0,0:0:0:0:
257,305,131378,1,0,0:0:0:0:
257,329,131461,1,0,0:0:0:0:
258,353,131544,1,0,0:0:0:0:
256,379,131628,6,0,P|318:368|360:343,1,100.000000596046
449,209,131961,2,0,P|387:220|345:245,1,100.000000596046
210,209,132294,1,0,0:0:0:0:
288,63,132461,1,0,0:0:0:0:
210,209,132628,1,0,0:0:0:0:
143,88,132794,1,0,0:0:0:0:
69,272,132961,5,0,0:0:0:0:
158,234,133128,1,0,0:0:0:0:
159,248,133211,1,0,0:0:0:0:
160,262,133294,1,0,0:0:0:0:
254,246,133461,1,0,0:0:0:0:
256,270,133544,1,0,0:0:0:0:
258,295,133628,1,0,0:0:0:0:
351,266,133794,1,0,0:0:0:0:
353,301,133878,1,0,0:0:0:0:
357,335,133961,1,0,0:0:0:0:
467,377,134128,1,0,0:0:0:0:
462,332,134211,1,0,0:0:0:0:
457,287,134294,5,0,0:0:0:0:
400,157,134461,1,0,0:0:0:0:
256,120,134628,2,0,P|191:111|110:113,1,100.000000596046
381,31,134961,5,0,0:0:0:0:
260,124,135128,1,0,0:0:0:0:
209,263,135294,2,0,P|224:328|252:376,1,100.000000596046
323,197,135628,5,0,0:0:0:0:
346,171,135711,1,0,0:0:0:0:
376,153,135794,1,0,0:0:0:0:
409,143,135878,1,0,0:0:0:0:
443,138,135961,2,0,P|478:136|512:144,3,50.000000298023
493,173,136294,1,0,0:0:0:0:
363,249,136461,1,0,0:0:0:0:
500,308,136628,1,0,0:0:0:0:
363,249,136794,1,0,0:0:0:0:
373,144,136961,6,0,P|355:103|309:40,1,100.000000596046
267,204,137294,1,0,0:0:0:0:
461,221,137461,1,0,0:0:0:0:
295,283,137628,6,0,P|251:303|206:344,1,100.000000596046
366,351,137961,1,0,0:0:0:0:
109,325,138128,1,0,0:0:0:0:
76,177,138294,5,0,0:0:0:0:
76,177,138378,1,0,0:0:0:0:
76,177,138461,1,0,0:0:0:0:
181,130,138628,1,0,0:0:0:0:
181,130,138711,1,0,0:0:0:0:
181,130,138794,1,0,0:0:0:0:
275,172,138961,5,0,0:0:0:0:
188,222,139128,1,0,0:0:0:0:
349,239,139294,1,0,0:0:0:0:
209,320,139461,1,0,0:0:0:0:
309,331,139628,5,0,0:0:0:0:
324,343,139711,1,0,0:0:0:0:
343,339,139794,1,0,0:0:0:0:
357,352,139878,1,0,0:0:0:0:
374,348,139961,2,0,L|432:355,1,50.000000298023
433,255,140128,2,0,L|487:242,1,50.000000298023
314,236,140294,5,0,0:0:0:0:
278,229,140378,1,0,0:0:0:0:
248,246,140461,1,0,0:0:0:0:
212,243,140544,1,0,0:0:0:0:
184,265,140628,2,0,L|125:280,1,50.000000298023
144,179,140794,2,0,L|190:145,1,50.000000298023
300,85,140961,6,0,L|349:112,1,50.000000298023
332,262,141128,2,0,L|350:341,1,50.000000298023
270,154,141294,2,0,L|298:201,1,50.000000298023
209,323,141461,2,0,L|185:400,1,50.000000298023
88,184,141628,5,0,0:0:0:0:
67,138,141711,1,0,0:0:0:0:
71,88,141794,1,0,0:0:0:0:
95,44,141878,1,0,0:0:0:0:
132,10,141961,5,0,0:0:0:0:
168,43,142044,1,0,0:0:0:0:
206,75,142128,1,0,0:0:0:0:
246,103,142211,1,0,0:0:0:0:
288,129,142294,6,0,P|321:120|371:127,1,50.000000298023
462,231,142461,2,0,P|423:241|384:244,1,50.000000298023
250,308,142628,1,0,0:0:0:0:
290,337,142711,1,0,0:0:0:0:
336,355,142794,2,0,P|372:363|402:360,1,50.000000298023
298,193,142961,1,0,0:0:0:0:
251,174,143044,1,0,0:0:0:0:
200,169,143128,1,0,0:0:0:0:
156,193,143211,1,0,0:0:0:0:
177,147,143294,5,0,0:0:0:0:
211,110,143378,1,0,0:0:0:0:
250,79,143461,2,0,P|290:77|332:92,1,50.000000298023
121,18,143628,2,0,P|78:14|33:-10,1,50.000000298023
29,180,143794,2,0,P|59:149|107:130,1,50.000000298023
156,238,143961,5,0,0:0:0:0:
171,285,144044,1,0,0:0:0:0:
190,331,144128,1,0,0:0:0:0:
207,377,144211,2,0,P|258:348|313:337,1,100.000000596046
384,270,144461,1,0,0:0:0:0:
399,222,144544,1,0,0:0:0:0:
408,173,144627,5,0,0:0:0:0:
436,214,144711,1,0,0:0:0:0:
472,247,144794,2,0,P|495:268|546:286,1,50.000000298023
313,148,144961,6,0,P|301:165|290:194,1,50.000000298023
449,144,145128,2,0,P|473:139|492:123,1,50.000000298023
405,27,145294,5,0,0:0:0:0:
357,11,145378,1,0,0:0:0:0:
307,18,145461,1,0,0:0:0:0:
263,42,145544,2,0,P|203:92|180:138,1,100.000000596046
222,231,145794,6,0,P|252:249|287:253,1,50.000000298023
57,289,145961,2,0,P|34:311|-7:333,1,50.000000298023
99,117,146128,2,0,P|97:88|104:51,1,50.000000298023
199,335,146294,5,0,0:0:0:0:
241,361,146378,1,0,0:0:0:0:
289,371,146461,2,0,P|323:359|361:333,1,50.000000298023
288,199,146628,5,0,0:0:0:0:
299,150,146711,1,0,0:0:0:0:
321,105,146794,1,0,0:0:0:0:
365,80,146878,1,0,0:0:0:0:
363,129,146961,5,0,0:0:0:0:
404,156,147044,1,0,0:0:0:0:
452,169,147128,1,0,0:0:0:0:
501,168,147211,1,0,0:0:0:0:
487,215,147294,6,0,P|481:239|459:261,1,50.000000298023
371,367,147461,2,0,P|349:350|322:309,1,50.000000298023,0|0,0:3|0:3,0:3:0:0:
251,212,147628,6,0,P|272:185|314:168,1,50.000000298023
193,355,147794,1,0,0:0:0:0:
147,332,147878,1,0,0:0:0:0:
109,299,147961,1,0,0:0:0:0:
83,256,148044,2,0,P|57:197|58:152,1,100.000000596046
165,38,148294,5,0,0:0:0:0:
206,64,148378,1,0,0:0:0:0:
218,112,148461,1,0,0:0:0:0:
216,161,148544,1,0,0:0:0:0:
197,209,148628,2,0,P|173:191|163:167,1,50.000000298023
316,118,148794,5,0,0:0:0:0:
347,78,148878,2,0,P|393:60|443:55,1,100.000000596046
302,280,149128,5,0,0:0:0:0:
327,236,149211,1,0,0:0:0:0:
366,206,149294,1,0,0:0:0:0:
409,181,149378,2,0,P|481:161|533:172,1,100.000000596046
402,282,149628,5,0,0:0:0:0:
352,288,149711,1,0,0:0:0:0:
302,280,149794,2,0,P|257:265|231:245,1,50.000000298023
84,222,149961,5,0,0:0:0:0:
123,243,150044,1,0,0:0:0:0:
144,288,150128,2,0,P|152:328|142:356,1,50.000000298023
130,103,150294,6,0,P|166:90|211:107,1,50.000000298023
315,23,150461,2,0,P|329:43|339:66,1,50.000000298023
209,212,150628,5,0,0:0:0:0:
250,185,150711,2,0,P|286:172|331:189,1,50.000000298023
393,155,150878,1,0,0:0:0:0:
441,166,150961,2,0,P|455:186|465:209,1,50.000000298023
483,338,151128,5,0,0:0:0:0:
436,319,151211,1,0,0:0:0:0:
399,285,151294,1,0,0:0:0:0:
379,331,151378,1,0,0:0:0:0:
338,360,151461,2,0,P|304:374|268:378,1,50.000000298023
291,222,151628,5,0,0:0:0:0:
247,247,151711,1,0,0:0:0:0:
217,286,151794,1,0,0:0:0:0:
210,335,151878,1,0,0:0:0:0:
197,286,151961,5,0,0:0:0:0:
175,240,152045,1,0,0:0:0:0:
145,199,152128,1,0,0:0:0:0:
103,172,152211,1,0,0:0:0:0:
55,157,152294,6,0,P|66:106|93:85,1,50.000000298023
207,42,152461,2,0,P|222:91|210:123,1,50.000000298023
175,240,152628,2,0,P|210:201|243:196,1,50.000000298023
364,216,152795,2,0,P|353:267|326:288,1,50.000000298023
187,360,152961,6,0,P|162:369|134:383,2,50.000000298023
231,337,153211,1,0,0:0:0:0:
278,332,153294,1,0,0:0:0:0:
327,339,153378,1,0,0:0:0:0:
370,362,153461,2,0,P|405:382|453:396,1,50.000000298023
442,281,153628,5,0,0:0:0:0:
462,235,153711,1,0,0:0:0:0:
467,185,153794,1,0,0:0:0:0:
458,145,153878,2,0,P|445:117|417:82,1,50.000000298023
383,211,154044,1,0,0:0:0:0:
345,244,154128,2,0,P|317:263|273:268,1,50.000000298023
165,59,154294,5,0,0:0:0:0:
202,92,154378,1,0,0:0:0:0:
235,128,154461,2,0,P|260:160|256:206,1,50.000000298023
204,245,154628,5,0,0:0:0:0:
167,278,154711,1,0,0:0:0:0:
118,266,154794,1,0,0:0:0:0:
98,219,154878,2,0,P|122:159|157:146,1,100.000000596046
53,98,155128,5,0,0:0:0:0:
91,65,155211,1,0,0:0:0:0:
138,49,155294,1,0,0:0:0:0:
191,43,155378,1,0,0:0:0:0:
240,48,155461,2,0,P|229:77|231:116,1,50.000000298023
368,63,155627,6,0,P|392:55|445:52,1,50.000000298023
240,227,155794,2,0,P|207:232|166:217,1,50.000000298023
357,175,155961,1,0,0:0:0:0:
401,194,156044,1,0,0:0:0:0:
432,233,156128,1,0,0:0:0:0:
446,280,156211,2,0,P|383:301|323:344,1,100.000000596046
196,173,156461,6,0,P|229:178|253:188,1,50.000000298023
92,296,156628,2,0,P|58:290|34:280,1,50.000000298023
235,336,156794,2,0,P|229:369|219:393,1,50.000000298023
249,112,156961,5,0,0:0:0:0:
295,93,157044,1,0,0:0:0:0:
345,99,157128,1,0,0:0:0:0:
391,115,157211,1,0,0:0:0:0:
366,71,157294,5,0,0:0:0:0:
323,43,157378,1,0,0:0:0:0:
273,38,157461,1,0,0:0:0:0:
223,44,157544,1,0,0:0:0:0:
227,94,157628,5,0,0:0:0:0:
205,139,157711,1,0,0:0:0:0:
170,174,157794,1,0,0:0:0:0:
125,197,157878,1,0,0:0:0:0:
75,203,157961,6,0,P|105:213|132:229,1,50.000000298023
53,383,158128,2,0,P|42:348|51:316,1,50.000000298023
188,320,158294,5,0,0:0:0:0:
238,320,158378,1,0,0:0:0:0:
285,334,158461,2,0,P|308:349|325:365,1,50.000000298023
405,174,158628,5,0,0:0:0:0:
375,214,158711,2,0,P|354:244|347:269,1,50.000000298023
199,233,158878,5,0,0:0:0:0:
168,193,158961,1,0,0:0:0:0:
164,143,159044,1,0,0:0:0:0:
172,93,159128,2,0,P|180:69|214:34,1,50.000000298023
340,71,159294,2,0,P|307:81|255:81,1,50.000000298023
259,162,159461,5,0,0:0:0:0:
297,193,159544,2,0,P|335:237|343:282,1,100.000000596046
440,307,159794,5,0,0:0:0:0:
407,345,159878,1,0,0:0:0:0:
362,367,159961,1,0,0:0:0:0:
308,373,160044,2,0,P|244:370|202:355,1,100.000000596046
172,252,160294,5,0,0:0:0:0:
127,274,160378,1,0,0:0:0:0:
92,310,160461,2,0,P|78:348|76:386,1,50.000000298023
292,265,160628,5,0,0:0:0:0:
283,215,160711,1,0,0:0:0:0:
254,173,160794,2,0,P|236:150|215:143,1,50.000000298023
134,12,160961,6,0,P|123:37|120:68,1,50.000000298023
38,192,161128,2,0,P|65:197|86:196,1,50.000000298023
246,49,161294,5,0,0:0:0:0:
294,36,161378,2,0,P|339:17|349:-25,1,50.000000298023
426,73,161544,1,0,0:0:0:0:
422,123,161628,2,0,P|412:168|369:185,1,50.000000298023
249,312,161794,6,0,P|287:344|315:354,1,50.000000298023
497,277,161961,1,0,0:0:0:0:
454,250,162044,1,0,0:0:0:0:
405,236,162128,2,0,P|354:247|329:278,1,50.000000298023
151,124,162294,5,0,0:0:0:0:
183,163,162378,1,0,0:0:0:0:
225,190,162461,2,0,P|261:210|310:217,1,50.000000298023
418,158,162628,5,0,0:0:0:0:
445,200,162711,1,0,0:0:0:0:
454,250,162794,2,0,P|452:288|443:317,1,50.000000298023
321,321,162961,5,0,0:0:0:0:
294,278,163044,1,0,0:0:0:0:
245,266,163128,1,0,0:0:0:0:
212,222,163211,1,0,0:0:0:0:
164,207,163294,5,0,0:0:0:0:
200,172,163378,1,0,0:0:0:0:
242,146,163461,1,0,0:0:0:0:
290,133,163544,1,0,0:0:0:0:
340,137,163628,6,0,P|294:90|233:79,1,100.000000596046
433,156,163961,2,0,P|404:212|332:249,1,100.000000596046
368,72,164294,1,0,0:0:0:0:
503,184,164461,1,0,0:0:0:0:
438,316,164628,1,0,0:0:0:0:
355,249,164794,1,0,0:0:0:0:
213,289,164961,5,0,0:0:0:0:
125,187,165128,1,0,0:0:0:0:
85,187,165211,1,0,0:0:0:0:
45,187,165294,1,0,0:0:0:0:
163,71,165461,1,0,0:0:0:0:
192,70,165544,1,0,0:0:0:0:
222,70,165628,1,0,0:0:0:0:
291,235,165794,1,0,0:0:0:0:
270,235,165878,1,0,0:0:0:0:
250,235,165961,1,0,0:0:0:0:
342,126,166128,1,0,0:0:0:0:
381,126,166211,1,0,0:0:0:0:
420,125,166294,5,0,0:0:0:0:
480,248,166461,1,0,0:0:0:0:
345,239,166628,2,0,L|293:345,1,100.000000596046
88,291,166961,5,0,0:0:0:0:
215,223,167128,1,0,0:0:0:0:
102,140,167294,2,0,L|194:41,1,100.000000596046
303,139,167628,6,0,L|358:147,3,50.000000298023
371,111,167961,2,0,L|420:118,3,50.000000298023
425,158,168294,5,0,0:0:0:0:
209,266,168461,1,0,0:0:0:0:
318,214,168628,1,0,0:0:0:0:
101,318,168794,1,0,0:0:0:0:
168,128,168961,6,0,P|212:64|265:46,2,100.000000596046
123,213,169461,1,0,0:0:0:0:
256,173,169628,2,0,P|314:134|380:132,1,100.000000596046
426,255,169961,2,0,P|378:224|318:225,1,100.000000596046
228,306,170294,5,0,0:0:0:0:
140,153,170461,1,0,0:0:0:0:
108,274,170628,1,0,0:0:0:0:
261,185,170794,1,0,0:0:0:0:
151,248,170961,5,0,0:0:0:0:
198,77,171128,1,0,0:0:0:0:
89,140,171294,1,0,0:0:0:0:
261,185,171461,1,0,0:0:0:0:
304,95,171628,5,0,0:0:0:0:
325,82,171711,1,0,0:0:0:0:
348,73,171795,1,0,0:0:0:0:
372,70,171878,1,0,0:0:0:0:
396,69,171961,6,0,P|385:99|387:160,3,50.000000298023
404,150,172294,5,0,0:0:0:0:
413,188,172377,1,0,0:0:0:0:
410,227,172460,1,0,0:0:0:0:
398,265,172544,1,0,0:0:0:0:
380,301,172628,6,0,P|399:322|421:372,3,50.000000298023
365,274,172961,5,0,0:0:0:0:
353,257,173044,1,0,0:0:0:0:
338,243,173128,1,0,0:0:0:0:
322,231,173211,1,0,0:0:0:0:
304,220,173294,1,0,0:0:0:0:
286,210,173378,1,0,0:0:0:0:
267,201,173461,1,0,0:0:0:0:
248,193,173544,1,0,0:0:0:0:
228,186,173628,1,0,0:0:0:0:
208,180,173711,1,0,0:0:0:0:
188,176,173794,1,0,0:0:0:0:
168,173,173878,1,0,0:0:0:0:
148,171,173961,1,0,0:0:0:0:
128,170,174044,1,0,0:0:0:0:
107,170,174128,1,0,0:0:0:0:
87,171,174211,1,0,0:0:0:0:
67,175,174294,1,0,0:0:0:0:
