osu file format v14

[General]
AudioFilename: audio.mp3
AudioLeadIn: 0
PreviewTime: 182006
Countdown: 0
SampleSet: Normal
StackLeniency: 0.6
Mode: 0
LetterboxInBreaks: 0
WidescreenStoryboard: 0

[Editor]
Bookmarks: 26479
DistanceSpacing: 0.4
BeatDivisor: 4
GridSize: 4
TimelineZoom: 1

[Metadata]
Title:Bucuresti no Ningyoushi
TitleUnicode:ブクレシュティの人形師
Artist:Jun.A
ArtistUnicode:Jun.A
Creator:Ryaldin
Version:Lunatic
Source:東方妖々夢 ~ Perfect Cherry Blossom.
Tags:alice margatroid touhou toho dolls project maid th07 th7 dollmaker sound sepher electronic video game japanese zun dance instrumental Gensou Shiten 6 grimoire Shoichiro Sakamoto アリス・マーガトロイド 坂本 昌一郎
BeatmapID:3076563
BeatmapSetID:1501476

[Difficulty]
HPDrainRate:6
CircleSize:4
OverallDifficulty:8
ApproachRate:9
SliderMultiplier:1.6
SliderTickRate:2

[Events]
//Background and Video events
0,0,"bg.jpg",0,0
//Break Periods
//Storyboard Layer 0 (Background)
//Storyboard Layer 1 (Fail)
//Storyboard Layer 2 (Pass)
//Storyboard Layer 3 (Foreground)
//Storyboard Layer 4 (Overlay)
//Storyboard Sound Samples

[TimingPoints]
2105,394.736842105263,4,1,1,45,1,0
2105,-200,4,1,1,45,0,0
5262,-322.58064516129,4,1,1,45,0,0
8420,-200,4,1,1,45,0,0
11578,-322.58064516129,4,1,1,45,0,0
13552,-125,4,1,1,55,0,0
14736,-100,4,1,1,55,0,0
17795,-100,4,1,1,5,0,0
17894,-100,4,1,1,55,0,0
20953,-100,4,1,1,5,0,0
21052,-100,4,1,1,55,0,0
26578,-142.857142857143,4,1,1,55,0,0
27368,-90.909090909091,4,1,1,65,0,0
27664,-90.909090909091,4,1,1,5,0,0
27762,-90.909090909091,4,1,1,65,0,0
29243,-90.909090909091,4,1,1,5,0,0
29341,-90.909090909091,4,1,1,65,0,0
30822,-90.909090909091,4,1,1,5,0,0
30920,-90.909090909091,4,1,1,65,0,0
32401,-90.909090909091,4,1,1,5,0,0
32499,-90.909090909091,4,1,1,65,0,0
33979,-90.909090909091,4,1,1,5,0,0
34078,-90.909090909091,4,1,1,65,0,0
35558,-90.909090909091,4,1,1,5,0,0
35657,-90.909090909091,4,1,1,65,0,0
37137,-90.909090909091,4,1,1,5,0,0
37236,-90.909090909091,4,1,1,65,0,0
39210,-166.666666666667,4,1,1,65,0,0
39999,-80,4,1,1,75,0,0
51249,-133.333333333333,4,1,1,75,0,0
52236,-86.9565217391304,4,1,1,75,0,0
52631,-74.0740740740741,4,1,2,78,0,1
54506,-74.0740740740741,4,1,2,5,0,1
54604,-74.0740740740741,4,1,2,78,0,1
54901,-74.0740740740741,4,1,2,5,0,1
54999,-74.0740740740741,4,1,2,78,0,1
55295,-74.0740740740741,4,1,2,5,0,1
55394,-74.0740740740741,4,1,2,78,0,1
60526,-68.9655172413793,4,1,2,78,0,1
60822,-68.9655172413793,4,1,2,5,0,1
60920,-64.5161290322581,4,1,2,78,0,1
61216,-64.5161290322581,4,1,2,5,0,1
61315,-60.6060606060606,4,1,2,78,0,1
61611,-60.6060606060606,4,1,2,5,0,1
61710,-74.0740740740741,4,1,2,78,0,1
65262,-74.0740740740741,4,1,2,80,0,1
77894,-68.9655172413793,4,1,2,80,0,1
81052,-74.0740740740741,4,1,2,80,0,1
90526,-117.647058823529,4,1,2,82,0,1
93683,394.736842105263,4,1,1,60,1,0
93683,-117.647058823529,4,1,1,60,0,0
96742,-117.647058823529,4,1,1,5,0,0
96840,-117.647058823529,4,1,1,60,0,0
99999,-86.9565217391302,4,1,1,65,0,0
106215,-86.9565217391302,4,1,1,5,0,0
106315,-86.9565217391302,4,1,1,70,0,0
109373,-86.9565217391302,4,1,1,5,0,0
109472,-86.9565217391302,4,1,1,70,0,0
118947,-188.679245283019,4,1,1,50,0,0
125262,-172.413793103448,4,1,1,50,0,0
128420,-181.818181818182,4,1,1,50,0,0
129999,-117.647058823529,4,1,1,60,0,0
130394,-117.647058823529,4,1,1,40,0,0
130789,-117.647058823529,4,1,1,45,0,0
130986,-117.647058823529,4,1,1,50,0,0
131183,-117.647058823529,4,1,1,55,0,0
131578,-100,4,1,1,60,0,0
134636,-100,4,1,1,5,0,0
134735,-100,4,1,1,60,0,0
137794,-100,4,1,1,5,0,0
137893,-100,4,1,1,60,0,0
140952,-100,4,1,1,5,0,0
141051,-100,4,1,1,60,0,0
144210,-90.9090909090909,4,1,1,65,0,0
154373,-90.9090909090909,4,1,1,5,0,0
154472,-90.9090909090909,4,1,1,65,0,0
156841,-80,4,1,1,70,0,0
166610,-80,4,1,1,5,0,0
166709,-80,4,1,1,70,0,0
167400,-80,4,1,1,5,0,0
167498,-80,4,1,1,70,0,0
168091,-142.857142857143,4,1,1,75,0,0
169078,-90.9090909090909,4,1,1,75,0,0
169472,-74.0740740740741,4,1,2,85,0,1
171347,-74.0740740740741,4,1,2,5,0,1
171446,-74.0740740740741,4,1,2,85,0,1
171742,-74.0740740740741,4,1,2,5,0,1
171840,-74.0740740740741,4,1,2,85,0,1
177368,-68.9655172413793,4,1,2,85,0,1
177663,-68.9655172413793,4,1,2,5,0,1
177762,-64.5161290322581,4,1,2,85,0,1
178057,-64.5161290322581,4,1,2,5,0,1
178157,-60.6060606060606,4,1,2,85,0,1
178947,-74.0740740740741,4,1,2,85,0,1
182104,-74.0740740740741,4,1,2,80,0,1
206183,-105.263157894737,4,1,2,82,0,1
207368,-117.647058823529,4,1,2,80,0,1
210525,394.736842105263,4,1,1,60,1,0
210526,-117.647058823529,4,1,1,60,0,0
213584,-117.647058823529,4,1,1,5,0,0
213682,-117.647058823529,4,1,1,60,0,0
215360,-117.647058823529,4,1,1,5,0,0
215459,-117.647058823529,4,1,1,60,0,0
216840,-86.9565217391304,4,1,1,65,0,0
217235,-86.9565217391304,4,1,1,65,0,0
223057,-86.9565217391304,4,1,1,5,0,0
223156,-86.9565217391304,4,1,1,65,0,0
226215,-86.9565217391304,4,1,1,5,0,0
226314,-86.9565217391304,4,1,1,65,0,0
235789,-117.647058823529,4,1,1,60,0,0
248420,-105.263157894737,4,1,1,62,0,0
260065,-117.647058823529,4,1,1,60,0,0
264209,-117.647058823529,4,1,1,5,0,0

[Colours]
Combo1 : 75,151,184
Combo2 : 233,101,86
Combo3 : 255,123,60
Combo4 : 168,168,168

[HitObjects]
376,239,2105,6,0,P|256:40|135:239,1,560,8|0,2:1|2:1,2:1:0:0:
376,239,5262,2,0,P|257:135|134:246,1,347.199986225586,8|0,2:1|2:1,2:1:0:0:
220,323,8420,2,0,P|258:154|286:325,1,480,8|0,2:1|2:1,2:1:0:0:
292,322,11578,2,0,P|255:250|222:324,1,198.399992128907,8|0,2:1|2:1,2:1:0:0:
256,64,13552,6,0,L|256:96,3,32,0|0|0|0,1:1|1:1|1:1|1:1,1:1:0:0:
232,123,13947,2,0,L|232:155,3,32,0|0|0|0,1:1|1:1|1:1|1:1,1:1:0:0:
232,187,14341,1,0,1:1:0:0:
226,218,14440,1,0,1:1:0:0:
208,244,14539,1,0,1:1:0:0:
179,257,14637,1,0,1:1:0:0:
144,259,14736,5,12,2:3:0:0:
64,184,14933,1,0,2:1:0:0:
8,328,15131,2,0,B|44:327|44:327|48:331|48:331|52:327|52:327|104:328,1,80,8|0,2:1|2:1,2:1:0:0:
200,328,15526,1,6,2:3:0:0:
220,328,15624,1,0,2:3:0:0:
236,328,15723,1,0,2:3:0:0:
328,292,15920,2,0,P|340:247|310:200,1,80,8|0,2:1|2:1,2:1:0:0:
256,128,16315,5,6,2:3:0:0:
328,217,16512,1,0,2:1:0:0:
184,217,16710,2,0,L|100:217,1,80,8|0,2:1|2:1,2:1:0:0:
48,152,17104,2,0,L|0:152,2,40,6|0|0,2:3|2:1|2:1,2:1:0:0:
114,81,17499,2,0,P|178:57|231:102,1,120,8|0,2:1|2:1,2:1:0:0:
248,112,17894,5,6,2:3:0:0:
248,112,18091,1,0,2:1:0:0:
364,72,18289,2,0,L|364:160,1,80,8|0,2:1|2:1,2:1:0:0:
440,232,18683,1,6,2:3:0:0:
460,232,18781,1,0,2:1:0:0:
476,232,18880,1,0,2:1:0:0:
400,324,19078,2,0,P|360:340|320:312,1,80,8|0,2:1|2:1,2:1:0:0:
328,220,19473,5,6,2:3:0:0:
328,324,19670,1,0,2:1:0:0:
244,272,19868,2,0,L|136:272,1,80,8|0,2:1|2:1,2:1:0:0:
80,332,20262,1,6,2:3:0:0:
80,332,20361,1,0,2:1:0:0:
80,332,20460,1,0,2:1:0:0:
0,212,20657,2,0,B|48:212|48:212|56:216|56:216|56:208|56:208|64:212|64:212|112:212,1,120,8|0,2:1|2:1,2:1:0:0:
140,212,21052,5,6,2:3:0:0:
140,212,21249,1,0,2:1:0:0:
140,56,21447,2,0,P|180:40|220:72,1,80,8|0,2:1|2:1,2:1:0:0:
292,140,21841,1,6,2:3:0:0:
312,140,21939,1,0,2:1:0:0:
328,140,22038,1,0,2:1:0:0:
444,96,22236,2,0,L|444:196,1,80,8|0,2:1|2:1,2:1:0:0:
444,286,22631,5,6,2:3:0:0:
444,176,22828,1,0,2:1:0:0:
347,288,23026,2,0,B|315:288|315:288|311:284|311:284|311:292|311:292|307:288|307:288|251:288,1,80,8|0,2:1|2:1,2:1:0:0:
160,288,23420,1,6,2:3:0:0:
160,288,23519,1,0,2:1:0:0:
160,288,23618,1,0,2:1:0:0:
279,288,23815,2,0,P|304:235|278:183,1,120,8|0,2:1|2:1,2:1:0:0:
260,168,24210,5,6,2:3:0:0:
260,168,24407,1,0,2:1:0:0:
328,68,24604,2,0,L|424:68,1,80,8|0,2:1|2:1,2:1:0:0:
256,72,24999,2,0,L|256:12,2,40,6|0|0,2:3|2:1|2:1,2:1:0:0:
188,160,25394,2,0,P|148:176|108:144,1,80,8|0,2:1|2:1,2:1:0:0:
152,60,25789,5,6,2:3:0:0:
152,60,25986,1,0,2:1:0:0:
117,160,26183,2,0,L|17:160,1,80,10|0,2:1|1:1,2:1:0:0:
8,232,26479,1,2,1:1:0:0:
8,232,26578,2,0,L|8:280,3,27.9999991455078,2|0|0|0,1:1|1:1|1:1|1:1,1:1:0:0:
76,292,26973,2,0,L|76:340,3,27.9999991455078,2|0|0|0,1:1|1:1|1:1|1:1,1:1:0:0:
136,368,27368,6,0,P|200:381|264:367,1,132.00000402832,14|0,2:3|2:1,2:1:0:0:
292,352,27762,2,0,P|279:310|292:268,1,88.000002685547,8|0,2:1|2:1,2:1:0:0:
344,196,28157,1,6,2:3:0:0:
344,196,28256,1,0,2:1:0:0:
344,196,28354,1,0,2:1:0:0:
396,268,28552,2,0,P|408:309|395:350,1,88.000002685547,8|0,2:1|2:1,2:1:0:0:
280,308,28947,6,0,L|124:308,1,132.00000402832,6|0,2:3|2:1,2:1:0:0:
108,308,29341,2,0,B|92:264|92:264|112:212,1,88.000002685547,8|0,2:1|2:1,2:1:0:0:
40,148,29736,1,6,2:3:0:0:
20,148,29835,1,0,2:1:0:0:
0,148,29933,1,0,2:1:0:0:
112,60,30131,2,0,L|220:60,1,88.000002685547,8|0,2:1|2:1,2:1:0:0:
288,136,30526,6,0,P|360:112|418:150,1,132.00000402832,6|0,2:3|2:1,2:1:0:0:
428,164,30920,1,8,2:1:0:0:
428,164,31118,1,0,2:1:0:0:
344,260,31315,1,6,2:3:0:0:
328,260,31414,1,0,2:1:0:0:
312,260,31512,1,0,2:1:0:0:
407,333,31710,2,0,P|454:347|503:318,1,88.000002685547,8|0,2:1|2:1,2:1:0:0:
344,260,32104,6,0,P|257:241|209:274,1,132.00000402832,6|0,2:3|2:1,2:1:0:0:
196,284,32499,2,0,B|196:248|196:248|192:244|192:244|200:244|200:244|196:240|196:240|196:192,1,88.000002685547,8|0,2:1|2:1,2:1:0:0:
138,130,32894,2,0,P|101:112|52:141,1,88.000002685547,6|0,2:3|2:1,2:1:0:0:
196,207,33289,2,0,P|233:225|282:196,1,88.000002685547,8|0,2:1|2:1,2:1:0:0:
296,52,33683,6,0,B|240:52|240:52|236:48|236:48|236:56|236:56|232:52|232:52|156:52,1,132.00000402832,6|0,2:3|2:1,2:1:0:0:
139,52,34078,2,0,P|127:96|140:136,1,88.000002685547,8|0,2:1|2:1,2:1:0:0:
48,204,34473,1,6,2:3:0:0:
32,204,34572,1,0,2:1:0:0:
16,204,34670,1,0,2:1:0:0:
148,280,34868,2,0,B|184:280|184:280|188:276|188:276|188:284|188:284|192:280|192:280|244:280,1,88.000002685547,8|0,2:1|2:1,2:1:0:0:
337,322,35262,6,0,P|373:258|325:226,1,132.00000402832,6|0,2:3|2:1,2:1:0:0:
304,218,35657,2,0,B|304:185|304:185|300:181|300:181|308:181|308:181|304:177|304:177|304:141,1,88.000002685547,8|0,2:1|2:1,2:1:0:0:
304,24,36052,1,6,2:3:0:0:
304,40,36151,1,0,2:1:0:0:
304,56,36249,1,0,2:1:0:0:
216,140,36447,2,0,P|174:152|132:140,1,88.000002685547,8|0,2:1|2:1,2:1:0:0:
12,248,36841,6,0,P|84:224|142:262,1,132.00000402832,6|0,2:3|2:1,2:1:0:0:
148,268,37236,1,8,2:1:0:0:
148,268,37433,1,0,2:1:0:0:
240,344,37631,1,6,2:3:0:0:
256,344,37729,1,0,2:1:0:0:
272,344,37828,1,0,2:1:0:0:
428,348,38026,1,8,2:1:0:0:
428,348,38223,1,0,2:1:0:0:
272,264,38420,6,0,L|220:264,3,44.0000013427735,6|0|0|0,2:3|2:1|2:1|2:1,2:1:0:0:
228,192,38815,2,0,L|272:192,3,44.0000013427735,8|0|0|0,2:1|2:1|2:1|2:1,2:1:0:0:
297,192,39210,5,6,1:3:0:0:
320,191,39308,1,0,1:1:0:0:
343,184,39407,1,0,1:1:0:0:
364,172,39506,1,0,1:1:0:0:
381,155,39604,1,0,1:1:0:0:
394,135,39703,1,0,1:1:0:0:
402,112,39802,1,0,1:1:0:0:
404,89,39900,1,0,1:1:0:0:
403,69,39999,6,0,B|443:69|443:69|447:65|447:65|447:73|447:73|451:69|451:69|523:69,1,100,14|0,2:3|2:1,2:1:0:0:
320,144,40394,2,0,B|360:144|360:144|364:140|364:140|364:148|364:148|368:144|368:144|440:144,1,100,8|0,2:1|2:1,2:1:0:0:
480,184,40690,1,0,2:1:0:0:
480,184,40789,2,0,B|480:234|480:234|484:240|484:240|484:308,1,100,6|0,2:3|2:1,2:1:0:0:
396,340,41183,2,0,B|396:297|396:297|392:292|392:292|392:241,1,100,8|0,2:1|2:1,2:1:0:0:
272,167,41578,6,0,P|214:150|172:183,1,100,6|0,2:3|2:1,2:1:0:0:
89,269,41973,2,0,P|149:284|191:251,1,100,8|0,2:1|2:1,2:1:0:0:
182,168,42368,1,6,2:3:0:0:
182,148,42466,1,0,2:1:0:0:
182,128,42565,1,0,2:1:0:0:
184,24,42762,1,8,2:1:0:0:
182,128,42960,1,0,2:1:0:0:
292,76,43157,6,0,L|404:76,1,100,6|0,2:3|2:1,2:1:0:0:
492,156,43552,2,0,L|388:156,1,100,8|0,2:1|2:1,2:1:0:0:
340,228,43848,1,0,2:1:0:0:
340,228,43947,2,0,P|295:208|250:226,1,100,6|0,2:3|2:1,2:1:0:0:
251,327,44341,2,0,P|296:345|341:326,1,100,8|0,2:1|2:1,2:1:0:0:
456,268,44736,6,0,B|456:228|456:228|460:224|460:224|452:224|452:224|456:220|456:220|456:152,1,100,6|0,2:3|2:1,2:1:0:0:
364,52,45131,2,0,B|364:92|364:92|368:96|368:96|360:96|360:96|364:100|364:100|364:140,1,100,8|0,2:1|2:1,2:1:0:0:
274,95,45526,1,6,2:3:0:0:
449,96,45723,1,0,2:1:0:0:
465,96,45822,1,4,2:3:0:0:
481,96,45920,1,12,2:1:0:0:
364,216,46118,1,4,2:3:0:0:
185,95,46315,6,0,B|225:95|225:95|229:91|229:91|229:99|229:99|233:95|233:95|289:95,1,100,6|0,2:3|2:1,2:1:0:0:
172,192,46710,2,0,B|132:192|132:192|128:196|128:196|128:188|128:188|124:192|124:192|68:192,1,100,8|0,2:1|2:1,2:1:0:0:
8,196,47006,1,0,2:1:0:0:
8,196,47104,2,0,B|24:242|24:242|8:290,1,100,6|0,2:3|2:1,2:1:0:0:
100,360,47499,2,0,B|84:312|84:312|100:266,1,100,8|0,2:1|2:1,2:1:0:0:
272,167,47894,6,0,P|214:150|172:183,1,100,6|0,2:3|2:1,2:1:0:0:
272,276,48289,2,0,P|332:291|374:258,1,100,8|0,2:1|2:1,2:1:0:0:
428,164,48684,1,6,2:3:0:0:
428,144,48782,1,0,2:1:0:0:
428,124,48881,1,0,2:1:0:0:
488,272,49078,1,8,2:1:0:0:
362,273,49276,1,0,2:1:0:0:
323,144,49473,6,0,P|352:105|346:57,1,100,6|0,2:3|2:1,2:1:0:0:
164,57,49868,2,0,P|158:105|188:144,1,100,8|0,2:1|2:1,2:1:0:0:
324,264,50262,2,0,L|444:264,1,100,6|0,2:3|2:1,2:1:0:0:
192,263,50657,2,4,L|72:263,1,100,8|0,2:1|2:1,2:1:0:0:
256,88,51052,1,6,2:3:0:0:
338,209,51249,5,2,1:1:0:0:
337,237,51347,1,0,1:1:0:0:
324,264,51446,1,0,1:1:0:0:
304,286,51545,1,0,1:1:0:0:
276,298,51643,1,0,1:1:0:0:
246,299,51742,1,0,1:1:0:0:
218,289,51841,1,0,1:1:0:0:
195,270,51939,1,0,1:1:0:0:
182,245,52038,1,0,1:1:0:0:
177,215,52137,1,0,1:1:0:0:
182,185,52236,2,0,L|107:184,3,46.0000008773804,0|0|0|0,1:1|1:1|1:1|1:1,1:1:0:0:
64,116,52631,6,0,B|108:116|108:116|112:112|112:112|112:120|112:120|116:116|116:116|188:116,1,108.000000411987,12|0,2:3|2:1,2:1:0:0:
256,52,53026,1,10,2:1:0:0:
344,192,53223,1,0,2:1:0:0:
388,192,53322,1,0,2:1:0:0:
436,192,53420,1,4,2:3:0:0:
388,68,53618,1,0,2:1:0:0:
298,312,53815,1,10,2:1:0:0:
152,316,54012,5,0,2:1:0:0:
152,316,54111,1,0,2:1:0:0:
152,316,54210,2,0,B|151:248|151:248|147:244|147:244|154:244|154:244|151:240|151:240|151:148,1,162.000000617981,4|0,2:3|2:1,2:1:0:0:
71,242,54604,2,0,B|147:243|147:243|152:246|152:246|152:239|152:239|155:243|155:243|223:243,1,162.000000617981,10|0,2:1|2:1,2:1:0:0:
264,310,54999,2,0,P|304:238|248:166,1,162.000000617981,4|0,2:3|2:1,2:1:0:0:
243,167,55394,1,10,2:1:0:0:
153,49,55591,5,0,2:1:0:0:
153,49,55690,1,0,2:1:0:0:
153,49,55789,2,0,P|205:33|263:56,1,108.000000411987,4|0,2:3|2:1,2:1:0:0:
364,140,56183,1,10,2:1:0:0:
466,48,56381,1,0,2:1:0:0:
254,49,56578,5,4,2:3:0:0:
148,140,56776,1,0,2:1:0:0:
254,49,56973,1,10,2:1:0:0:
364,140,57171,1,0,2:1:0:0:
180,280,57368,6,0,L|36:280,1,108.000000411987,4|0,2:3|2:1,2:1:0:0:
332,280,57762,2,0,L|476:280,1,108.000000411987,10|0,2:1|2:1,2:1:0:0:
256,152,58157,1,4,2:3:0:0:
180,280,58354,1,0,2:1:0:0:
332,280,58552,1,10,2:1:0:0:
109,238,58749,5,0,2:1:0:0:
109,238,58848,1,0,2:1:0:0:
109,238,58947,2,0,L|-17:237,1,108.000000411987,4|0,2:3|2:1,2:1:0:0:
256,152,59341,1,10,2:1:0:0:
256,328,59539,1,0,2:1:0:0:
109,238,59736,5,4,2:3:0:0:
256,152,59933,1,0,2:1:0:0:
403,238,60131,1,10,2:1:0:0:
256,328,60328,1,0,2:1:0:0:
256,24,60526,6,0,B|256:96|256:96|260:104|260:104|252:104|252:104|256:112|256:112|256:216,1,174.000005310059,4|0,2:3|2:1,2:1:0:0:
256,188,60920,2,0,P|181:242|124:172,1,186.000001419067,10|0,2:1|2:1,2:1:0:0:
124,187,61315,2,0,B|124:246|124:246|128:250|128:250|120:250|120:250|124:254|124:254|124:302|124:302|128:306|128:306|120:306|120:306|124:310|124:310|124:386,1,198.000001888275,6|0,2:3|2:1,2:1:0:0:
124,362,61710,1,10,2:1:0:0:
312,280,61907,5,2,2:1:0:0:
336,280,62006,1,2,2:1:0:0:
356,280,62104,2,0,L|492:280,1,108.000000411987,4|0,2:3|2:1,2:1:0:0:
464,64,62499,1,10,2:1:0:0:
256,168,62697,5,2,2:1:0:0:
232,168,62796,1,2,2:1:0:0:
212,168,62894,2,0,L|76:168,1,108.000000411987,6|0,2:3|2:1,2:1:0:0:
356,280,63289,2,0,L|356:172,1,108.000000411987,10|0,2:1|2:1,2:1:0:0:
284,44,63683,5,4,2:3:0:0:
212,168,63881,1,0,2:1:0:0:
356,172,64078,1,10,2:1:0:0:
284,44,64276,1,0,2:1:0:0:
208,280,64473,6,0,L|292:281,3,54.0000002059937,6|2|2|2,1:3|1:1|1:1|1:1,1:1:0:0:
296,280,64868,1,0,1:1:0:0:
316,280,64966,1,0,1:1:0:0:
336,280,65065,1,0,1:1:0:0:
356,280,65164,1,0,1:1:0:0:
376,280,65262,6,0,P|433:255|448:208,1,108.000000411987,14|0,2:3|2:1,2:1:0:0:
440,88,65657,2,0,P|383:113|368:160,1,108.000000411987,10|0,2:1|2:1,2:1:0:0:
218,281,66052,2,0,P|168:214|245:91,1,216.000000823975,4|10,2:3|2:1,2:1:0:0:
75,299,66644,5,2,1:1:0:0:
75,299,66743,1,2,1:1:0:0:
75,299,66841,2,0,P|128:281|180:301,1,108.000000411987,4|0,2:3|2:1,2:1:0:0:
296,352,67236,1,10,1:1:0:0:
328,359,67334,1,2,1:1:0:0:
361,351,67433,1,2,1:1:0:0:
386,328,67532,1,2,1:1:0:0:
397,296,67630,1,4,1:3:0:0:
393,263,67729,1,0,1:1:0:0:
382,230,67828,1,0,1:1:0:0:
371,199,67926,1,0,1:1:0:0:
359,167,68025,1,10,1:1:0:0:
351,134,68124,1,0,1:1:0:0:
352,100,68222,1,0,1:1:0:0:
368,70,68321,1,0,1:1:0:0:
397,52,68420,6,0,P|463:51|496:84,1,108.000000411987,6|0,2:3|2:1,2:1:0:0:
359,167,68815,2,0,P|292:167|259:134,1,108.000000411987,10|0,2:1|2:1,2:1:0:0:
110,39,69210,2,8,P|174:88|91:180,1,216.000000823975,4|8,2:3|2:1,2:1:0:0:
0,110,69802,5,2,1:1:0:0:
0,110,69901,1,2,1:1:0:0:
0,110,69999,2,0,L|122:110,1,108.000000411987,6|0,2:3|2:1,2:1:0:0:
256,36,70394,1,10,1:1:0:0:
272,65,70492,1,2,1:1:0:0:
280,98,70591,1,2,1:1:0:0:
276,132,70690,1,2,1:1:0:0:
262,163,70788,1,4,1:3:0:0:
245,192,70887,1,0,1:1:0:0:
238,225,70986,1,0,1:1:0:0:
243,259,71084,1,0,1:1:0:0:
258,290,71183,1,10,1:1:0:0:
99,354,71381,5,2,1:1:0:0:
99,354,71479,1,2,1:1:0:0:
99,354,71578,2,0,P|158:330|194:393,1,108.000000411987,6|0,2:3|2:1,2:1:0:0:
347,289,71973,2,0,P|288:313|252:250,1,108.000000411987,10|0,2:1|2:1,2:1:0:0:
256,147,72368,2,8,P|327:79|398:147,1,216.000000823975,4|10,2:3|2:1,2:1:0:0:
211,257,72960,5,2,1:1:0:0:
184,258,73058,1,2,1:1:0:0:
156,259,73157,2,0,L|24:260,1,108.000000411987,4|0,2:3|2:1,2:1:0:0:
156,344,73552,1,10,1:1:0:0:
190,344,73650,1,2,1:1:0:0:
224,344,73749,1,2,1:1:0:0:
258,344,73848,1,2,1:1:0:0:
292,344,73947,1,4,1:3:0:0:
324,335,74045,1,0,1:1:0:0:
352,315,74144,1,0,1:1:0:0:
370,287,74243,1,0,1:1:0:0:
376,254,74341,1,8,1:1:0:0:
370,220,74440,1,0,1:1:0:0:
352,192,74539,1,0,1:1:0:0:
324,172,74637,1,0,1:1:0:0:
292,164,74736,6,0,P|229:175|217:226,1,108.000000411987,6|0,2:3|2:1,2:1:0:0:
218,341,75131,2,0,P|281:330|293:279,1,108.000000411987,10|0,2:1|2:1,2:1:0:0:
292,164,75526,2,0,P|215:205|307:247,1,216.000000823975,4|10,2:3|2:1,2:1:0:0:
408,81,76118,5,2,1:1:0:0:
408,81,76216,1,2,1:1:0:0:
408,81,76315,2,0,B|356:97|356:97|298:79,1,108.000000411987,6|0,2:3|2:1,2:1:0:0:
162,127,76710,1,10,1:1:0:0:
194,136,76808,1,2,1:1:0:0:
227,145,76907,1,2,1:1:0:0:
260,155,77006,1,2,1:1:0:0:
292,164,77104,1,4,1:3:0:0:
322,179,77202,1,0,1:1:0:0:
344,204,77301,1,0,1:1:0:0:
356,236,77400,1,0,1:1:0:0:
355,270,77498,1,8,1:1:0:0:
343,301,77597,1,0,1:1:0:0:
319,326,77696,1,0,1:1:0:0:
289,340,77794,1,0,1:1:0:0:
256,344,77894,6,0,B|209:345|209:345|205:341|205:341|205:349|205:349|201:345|201:345|124:345,1,116.000003540039,14|0,2:3|2:1,2:1:0:0:
36,228,78289,2,0,B|83:229|83:229|87:225|87:225|87:233|87:233|91:229|91:229|168:229,1,116.000003540039,10|0,2:1|2:1,2:1:0:0:
368,92,78683,2,0,B|260:91|260:91|256:88|256:88|256:96|256:96|252:92|252:92|128:92,1,232.000007080078,4|10,2:3|2:1,2:1:0:0:
335,198,79276,5,0,1:1:0:0:
335,198,79374,1,0,1:1:0:0:
335,198,79473,2,0,P|383:178|455:214,1,116.000003540039,4|0,2:3|2:1,2:1:0:0:
334,317,79868,1,10,1:1:0:0:
301,323,79966,1,2,1:1:0:0:
269,313,80065,1,2,1:1:0:0:
246,289,80164,1,2,1:1:0:0:
238,256,80262,1,4,1:3:0:0:
246,224,80361,1,0,1:1:0:0:
270,200,80460,1,0,1:1:0:0:
302,191,80558,1,0,1:1:0:0:
335,198,80657,1,8,1:1:0:0:
367,205,80755,1,0,1:1:0:0:
399,194,80854,1,0,1:1:0:0:
418,167,80953,1,0,1:1:0:0:
425,134,81052,6,0,L|423:19,1,108.000000411987,6|0,2:3|2:1,2:1:0:0:
284,136,81447,2,0,L|285:250,1,108.000000411987,10|0,2:1|2:1,2:1:0:0:
197,372,81841,2,0,P|264:322|387:399,1,216.000000823975,4|10,2:3|2:1,2:1:0:0:
471,298,82433,5,2,1:1:0:0:
471,298,82531,1,2,1:1:0:0:
471,298,82630,2,0,P|495:239|432:203,1,108.000000411987,6|0,2:3|2:1,2:1:0:0:
384,80,83026,1,10,1:1:0:0:
401,108,83124,1,2,1:1:0:0:
399,141,83223,1,2,1:1:0:0:
379,168,83322,1,2,1:1:0:0:
347,178,83420,1,4,1:3:0:0:
315,168,83519,1,0,1:1:0:0:
294,141,83618,1,0,1:1:0:0:
293,108,83716,1,0,1:1:0:0:
310,80,83815,1,10,1:1:0:0:
208,224,84012,5,2,1:1:0:0:
208,224,84111,1,2,1:1:0:0:
208,224,84210,2,0,L|72:224,1,108.000000411987,6|0,2:3|2:1,2:1:0:0:
304,224,84604,2,0,L|440:224,1,108.000000411987,10|0,2:1|2:1,2:1:0:0:
184,302,84999,2,0,P|255:369|326:302,1,216.000000823975,4|10,2:3|2:1,2:1:0:0:
256,108,85591,5,2,1:1:0:0:
256,108,85690,1,2,1:1:0:0:
256,108,85789,1,6,1:3:0:0:
256,297,85986,1,0,2:1:0:0:
109,226,86183,1,10,1:1:0:0:
120,193,86281,1,2,1:1:0:0:
137,165,86380,1,2,1:1:0:0:
161,141,86479,1,2,1:1:0:0:
190,123,86577,1,4,1:3:0:0:
222,111,86676,1,0,1:1:0:0:
256,108,86775,1,0,1:1:0:0:
290,112,86873,1,0,1:1:0:0:
321,123,86972,1,8,1:1:0:0:
350,142,87071,1,0,1:1:0:0:
374,166,87169,1,0,1:1:0:0:
391,195,87268,1,0,1:1:0:0:
402,227,87368,6,0,P|416:310|414:343,1,108.000000411987,6|0,2:3|2:1,2:1:0:0:
96,333,87762,2,0,P|97:279|109:227,1,108.000000411987,10|0,2:1|2:1,2:1:0:0:
344,91,88157,2,0,P|277:141|154:64,1,216.000000823975,4|10,2:3|2:1,2:1:0:0:
17,224,88749,5,2,1:1:0:0:
17,224,88847,1,2,1:1:0:0:
17,224,88946,2,0,P|76:200|112:263,1,108.000000411987,6|0,2:3|2:1,2:1:0:0:
232,365,89341,1,10,1:1:0:0:
215,335,89439,1,2,1:1:0:0:
207,302,89538,1,2,1:1:0:0:
211,268,89637,1,2,1:1:0:0:
225,237,89735,1,4,1:3:0:0:
242,208,89834,1,0,1:1:0:0:
249,175,89933,1,0,1:1:0:0:
244,141,90031,1,0,1:1:0:0:
229,110,90131,2,0,P|205:76|170:55,3,54.0000002059937,0|0|0|0,1:1|1:1|1:1|1:1,1:1:0:0:
126,70,90526,5,12,1:3:0:0:
92,77,90624,1,0,1:1:0:0:
65,96,90723,1,0,1:1:0:0:
46,124,90822,1,0,1:1:0:0:
39,157,90920,1,0,1:1:0:0:
46,190,91019,1,0,1:1:0:0:
64,219,91118,1,0,1:1:0:0:
92,238,91216,1,0,1:1:0:0:
125,245,91315,1,0,1:1:0:0:
158,242,91413,1,0,1:1:0:0:
190,231,91512,1,0,1:1:0:0:
222,220,91611,1,0,1:1:0:0:
256,215,91709,1,0,1:1:0:0:
290,220,91808,1,0,1:1:0:0:
322,230,91907,1,0,1:1:0:0:
355,239,92005,1,0,1:1:0:0:
388,242,92104,1,0,1:1:0:0:
424,238,92203,1,0,1:1:0:0:
452,219,92301,1,0,1:1:0:0:
470,190,92400,1,0,1:1:0:0:
477,157,92499,1,0,1:1:0:0:
470,124,92597,1,0,1:1:0:0:
451,96,92696,1,0,1:1:0:0:
424,77,92795,1,0,1:1:0:0:
389,69,92894,1,0,1:1:0:0:
356,70,92992,1,0,1:1:0:0:
323,78,93091,1,0,1:1:0:0:
294,97,93190,1,0,1:1:0:0:
273,123,93288,1,0,1:1:0:0:
249,147,93387,1,0,1:1:0:0:
219,163,93486,1,0,1:1:0:0:
186,168,93584,1,0,1:1:0:0:
152,164,93683,6,0,P|113:137|130:51,1,136.000002593994,8|0,2:1|2:1,2:1:0:0:
289,58,94276,2,0,P|306:120|259:165,1,136.000002593994,8|0,2:1|2:1,2:1:0:0:
152,164,94868,1,6,2:3:0:0:
188,336,95262,6,0,L|344:336,1,136.000002593994,8|0,2:1|2:1,2:1:0:0:
324,212,95854,2,0,L|168:212,1,136.000002593994,8|0,2:1|2:1,2:1:0:0:
408,258,96447,2,0,P|424:198|400:154,1,102.000001945496,2|0,2:1|2:1,2:1:0:0:
376,130,96841,2,0,B|436:130|436:130|440:126|440:126|440:134|440:134|444:130|444:130|516:130,1,136.000002593994,8|0,2:1|2:1,2:1:0:0:
341,48,97433,2,0,B|281:48|281:48|277:44|277:44|277:52|277:52|273:48|273:48|201:48,1,136.000002593994,8|0,2:1|2:1,2:1:0:0:
193,48,97927,1,0,2:1:0:0:
173,48,98026,1,6,2:3:0:0:
117,152,98223,6,0,P|181:184|234:145,1,136.000002593994,2|0,2:1|2:1,2:1:0:0:
173,48,98815,1,6,2:3:0:0:
117,152,99012,1,2,2:3:0:0:
230,152,99209,1,2,2:3:0:0:
296,248,99407,1,0,1:1:0:0:
313,248,99506,1,0,1:1:0:0:
330,248,99604,1,0,1:1:0:0:
346,248,99703,1,0,1:1:0:0:
362,248,99802,1,0,1:1:0:0:
378,248,99901,1,0,1:1:0:0:
394,248,99999,6,0,L|502:248,1,92.0000017547608,8|0,2:1|2:2,2:1:0:0:
492,352,100394,1,0,2:1:0:0:
492,352,100591,2,0,L|288:352,1,184.000003509522,8|0,2:1|2:1,2:1:0:0:
184,352,101183,1,6,2:3:0:0:
46,148,101578,6,0,P|53:193|47:238,1,92.0000017547608,8|0,2:1|2:1,2:1:0:0:
8,304,101973,1,0,2:1:0:0:
110,285,102170,2,0,P|129:190|100:86,1,184.000003509522,8|0,2:1|2:1,2:1:0:0:
98,85,102664,1,0,2:1:0:0:
85,65,102762,1,6,2:3:0:0:
188,37,102960,6,0,B|240:37|248:89|248:89|248:209,1,184.000003509522,8|0,2:1|2:1,2:1:0:0:
252,279,103552,1,4,2:3:0:0:
252,279,103749,2,0,B|252:331|304:339|304:339|424:339,1,184.000003509522,8|0,2:1|2:1,2:1:0:0:
423,338,104243,1,0,2:1:0:0:
445,338,104340,5,6,2:3:0:0:
512,196,104539,1,4,2:1:0:0:
512,196,104933,1,2,2:1:0:0:
368,195,105131,1,2,1:1:0:0:
356,196,105229,1,0,1:1:0:0:
344,196,105328,1,0,1:1:0:0:
332,196,105427,1,0,1:1:0:0:
320,196,105525,2,0,L|268:196,3,46.0000008773804,0|0|0|0,1:1|1:1|1:1|1:1,1:1:0:0:
220,256,105920,2,0,P|152:285|88:235,1,138.000002632141,2|0,2:1|2:1,1:1:0:0:
114,180,106315,6,0,P|132:125|197:197,1,184.000003509522,8|0,2:1|2:1,2:1:0:0:
306,280,106907,2,0,P|352:216|398:280,1,184.000003509522,8|0,2:1|2:1,2:1:0:0:
354,347,107499,1,4,2:3:0:0:
20,336,107894,6,0,B|108:336|108:336|108:344|108:344|196:344,1,184.000003509522,8|0,2:1|2:1,2:1:0:0:
196,228,108486,2,0,B|108:228|108:228|108:220|108:220|20:220,1,184.000003509522,8|0,2:1|2:1,2:1:0:0:
251,294,109078,2,0,P|275:220|243:158,1,138.000002632141,2|0,2:1|2:1,2:1:0:0:
228,144,109473,2,0,B|312:144|312:144|316:140|316:140|316:148|316:148|320:144|320:144|416:144,1,184.000003509522,8|0,2:1|2:1,2:1:0:0:
400,60,110065,2,0,B|319:60|319:60|315:64|315:64|315:56|315:56|311:60|311:60|227:60,1,184.000003509522,8|0,2:1|2:1,2:1:0:0:
72,60,110657,5,6,2:3:0:0:
236,68,110854,1,2,2:3:0:0:
236,68,110953,1,2,2:3:0:0:
236,68,111051,1,6,2:1:0:0:
112,144,111249,1,2,2:1:0:0:
232,220,111447,1,2,2:1:0:0:
360,144,111643,1,2,2:1:0:0:
380,144,111743,1,2,2:1:0:0:
400,144,111840,1,6,2:1:0:0:
160,144,112039,1,0,2:1:0:0:
136,144,112136,1,2,2:1:0:0:
112,144,112235,1,10,2:1:0:0:
200,308,112433,5,0,2:1:0:0:
200,308,112532,1,0,2:1:0:0:
200,308,112631,2,0,P|160:348|52:308,1,184.000003509522,8|0,2:1|2:1,2:1:0:0:
52,165,113223,2,0,P|92:125|200:165,1,184.000003509522,8|0,2:1|2:1,2:1:0:0:
200,308,113815,1,6,2:3:0:0:
199,163,114012,1,0,2:1:0:0:
299,312,114210,6,0,B|380:357|380:357|471:305,1,184.000003509522,8|0,2:1|2:1,2:1:0:0:
457,159,114802,2,0,B|376:114|376:114|285:166,1,184.000003509522,8|0,2:1|2:1,2:1:0:0:
279,174,115295,1,2,2:1:0:0:
261,188,115394,1,6,2:3:0:0:
74,264,115591,6,0,B|158:264|158:264|162:260|162:260|162:268|162:268|166:264|166:264|278:264,1,184.000003509522,8|0,2:1|2:1,2:1:0:0:
432,148,116183,1,6,2:3:0:0:
432,148,116381,2,0,B|348:148|348:148|344:144|344:144|344:152|344:152|340:148|340:148|228:148,1,184.000003509522,8|0,2:1|2:1,2:1:0:0:
148,48,116973,5,2,2:1:0:0:
35,149,117170,1,2,2:1:0:0:
35,149,117269,1,0,2:1:0:0:
35,149,117367,1,4,2:1:0:0:
256,148,117565,1,2,2:1:0:0:
148,48,117762,1,2,2:1:0:0:
111,217,117960,5,2,1:1:0:0:
150,206,118058,1,0,1:1:0:0:
192,212,118157,1,0,1:1:0:0:
221,240,118256,1,0,1:1:0:0:
233,279,118354,1,0,1:1:0:0:
254,314,118453,1,0,1:1:0:0:
287,338,118552,5,2,1:1:0:0:
324,340,118650,1,0,1:1:0:0:
362,324,118749,1,0,1:1:0:0:
385,290,118848,1,0,1:1:0:0:
392,253,118947,6,0,B|370:85|370:85|256:28|256:28|142:84|142:84|120:257,1,593.600000905762,8|0,2:1|2:1,2:1:0:0:
296,288,122104,2,4,P|347:134|221:291,1,593.600000905762,8|0,2:1|2:1,2:1:0:0:
35,56,125262,2,0,B|32:128|96:192|176:192|256:106|337:194|418:193|478:132|481:43,1,556.800016992188,8|0,2:1|2:1,2:1:0:0:
217,203,128420,2,0,P|187:265|285:197,1,352.000010742188,8|0,2:1|2:1,2:1:0:0:
256,140,130394,6,0,L|256:196,3,34.0000006484985,0|0|0|0,1:1|1:1|1:1|1:1,1:1:0:0:
296,198,130789,2,0,L|296:254,3,34.0000006484985,0|0|0|0,1:1|1:1|1:1|1:1,1:1:0:0:
320,256,131183,1,0,1:1:0:0:
344,256,131282,1,0,1:1:0:0:
368,256,131381,1,0,1:1:0:0:
392,256,131479,1,0,1:1:0:0:
424,256,131578,6,0,P|432:216|420:168,1,80,14|0,2:3|2:1,2:1:0:0:
336,128,131973,2,0,P|328:88|340:40,1,80,8|0,2:1|2:1,2:1:0:0:
449,92,132368,1,6,2:3:0:0:
449,92,132565,1,0,2:1:0:0:
336,128,132762,2,0,B|304:128|304:128|300:132|300:132|300:124|300:124|296:128|296:128|252:128,1,80,8|0,2:1|2:1,2:1:0:0:
186,57,133157,5,6,2:3:0:0:
108,128,133354,1,0,2:1:0:0:
112,240,133552,2,0,P|151:233|190:241,1,80,8|0,2:1|2:1,2:1:0:0:
224,268,133848,1,0,2:1:0:0:
224,268,133947,2,0,P|263:275|302:267,1,80,6|0,2:3|2:1,2:1:0:0:
412,312,134341,2,0,P|437:260|411:208,1,120,8|0,2:1|2:1,2:1:0:0:
411,208,134736,6,0,B|411:168|411:168|407:168|407:168|411:168|411:168|411:116,1,80,6|0,2:3|2:1,2:1:0:0:
316,48,135131,2,0,B|316:88|316:88|320:88|320:88|316:88|316:88|316:120,1,80,8|0,2:1|2:1,2:1:0:0:
316,228,135526,1,6,2:3:0:0:
316,120,135723,1,0,2:1:0:0:
220,172,135920,2,0,B|184:172|184:172|176:176|176:176|140:176,1,80,8|0,2:1|2:1,2:1:0:0:
56,60,136315,5,6,2:3:0:0:
56,60,136512,1,0,2:1:0:0:
140,160,136710,2,0,B|176:160|176:160|184:156|184:156|220:156,1,80,8|0,2:1|2:1,2:1:0:0:
256,156,137006,1,0,2:1:0:0:
256,156,137104,2,0,P|264:116|250:66,1,80,6|0,2:3|2:1,2:1:0:0:
340,120,137499,2,0,B|465:121,1,120,8|0,2:1|2:1,2:1:0:0:
489,121,137894,6,0,P|501:157|484:201,1,80,6|0,2:3|2:1,2:1:0:0:
389,244,138289,2,0,P|377:280|394:324,1,80,8|0,2:1|2:1,2:1:0:0:
497,322,138683,1,6,2:3:0:0:
497,322,138881,1,0,2:1:0:0:
389,318,139078,2,0,B|289:318,1,80,8|0,2:1|2:1,2:1:0:0:
224,248,139473,5,6,2:3:0:0:
148,316,139670,1,0,2:1:0:0:
68,248,139868,2,0,B|68:212|68:212|64:208|64:208|68:204|68:204|68:156,1,80,8|0,2:1|2:1,2:1:0:0:
92,144,140164,1,0,2:1:0:0:
92,144,140262,2,0,P|136:152|185:135,1,80,6|0,2:3|2:1,2:1:0:0:
253,47,140657,2,0,P|291:38|384:51,1,120,8|0,2:1|2:1,2:1:0:0:
394,57,141052,6,0,P|401:109|381:152,1,80,6|0,2:3|2:1,2:1:0:0:
298,195,141447,2,0,P|290:247|310:290,1,80,8|0,2:1|2:1,2:1:0:0:
409,272,141841,1,6,2:3:0:0:
298,272,142039,1,0,2:1:0:0:
478,233,142236,2,0,B|486:273|486:273|477:319,1,80,8|0,2:1|2:1,2:1:0:0:
360,340,142631,5,6,2:3:0:0:
360,204,142828,1,0,2:1:0:0:
244,276,143026,1,8,2:1:0:0:
244,276,143223,1,0,2:1:0:0:
404,276,143420,2,0,L|464:276,3,40,6|0|0|0,2:3|2:1|2:1|2:1,2:1:0:0:
456,296,143815,1,8,1:1:0:0:
451,319,143914,1,0,1:1:0:0:
438,339,144012,1,0,1:1:0:0:
417,351,144111,1,0,1:1:0:0:
391,357,144210,6,0,L|268:356,1,88.000002685547,14|0,2:3|2:1,2:1:0:0:
216,260,144604,2,0,L|93:259,1,88.000002685547,8|0,2:1|2:1,2:1:0:0:
48,256,144901,1,0,2:1:0:0:
48,256,144999,2,0,B|48:220|48:220|44:216|44:216|52:216|52:216|48:212|48:212|48:144,1,88.000002685547,6|0,2:3|2:1,2:1:0:0:
144,40,145394,2,0,B|144:76|144:76|148:80|148:80|140:80|140:80|144:84|144:84|144:152,1,88.000002685547,8|0,2:1|2:1,2:1:0:0:
264,196,145789,6,0,P|307:208|348:196,1,88.000002685547,6|0,2:3|2:1,2:1:0:0:
304,68,146183,1,8,2:1:0:0:
444,156,146381,1,0,2:1:0:0:
444,156,146479,1,0,2:1:0:0:
444,156,146578,2,0,B|452:200|452:200|440:260,1,88.000002685547,6|0,2:3|2:1,2:1:0:0:
416,284,146874,1,0,2:1:0:0:
376,312,146973,2,0,B|332:320|332:320|289:311,1,88.000002685547,8|0,2:1|2:1,2:1:0:0:
176,192,147368,6,0,B|176:296,1,88.000002685547,6|0,2:3|2:1,2:1:0:0:
132,108,147762,2,0,B|176:98|176:98|240:112,1,88.000002685547,8|0,2:1|2:1,2:1:0:0:
296,128,148058,1,0,2:1:0:0:
296,128,148157,2,0,P|308:85|296:44,1,88.000002685547,6|0,2:3|2:1,2:1:0:0:
396,176,148552,2,0,P|384:217|396:259,1,88.000002685547,8|0,2:1|2:1,2:1:0:0:
288,216,148947,6,0,L|184:216,1,88.000002685547,6|0,2:3|2:1,2:1:0:0:
100,84,149341,1,8,2:1:0:0:
12,180,149539,1,0,2:1:0:0:
12,180,149637,1,0,2:1:0:0:
12,180,149736,2,0,P|1:222|13:263,1,88.000002685547,6|0,2:3|2:1,2:1:0:0:
56,288,150032,1,0,2:1:0:0:
100,264,150131,2,0,P|112:222|101:180,1,88.000002685547,8|0,2:1|2:1,2:1:0:0:
64,48,150526,6,0,B|100:48|100:48|104:44|104:44|104:52|104:52|108:48|108:48|176:48,1,88.000002685547,6|0,2:3|2:1,2:1:0:0:
312,48,150920,2,0,B|279:48|279:48|275:52|275:52|275:44|275:44|271:48|271:48|235:48,1,88.000002685547,8|0,2:1|2:1,2:1:0:0:
184,120,151216,1,0,2:1:0:0:
184,120,151315,2,0,P|171:162|182:204,1,88.000002685547,6|0,2:3|2:1,2:1:0:0:
68,292,151710,2,0,P|78:249|65:207,1,88.000002685547,8|0,2:1|2:1,2:1:0:0:
184,120,152104,6,0,B|220:120|220:120|224:116|224:116|224:124|224:124|228:120|228:120|296:120,1,88.000002685547,6|0,2:3|2:1,2:1:0:0:
372,28,152499,1,8,2:1:0:0:
476,124,152697,1,0,2:1:0:0:
476,124,152795,1,0,2:1:0:0:
476,124,152894,2,0,P|487:165|476:207,1,88.000002685547,6|0,2:3|2:1,2:1:0:0:
368,208,153190,1,0,2:1:0:0:
368,208,153289,2,0,P|355:166|367:124,1,88.000002685547,8|0,2:1|2:1,2:1:0:0:
408,35,153585,5,0,2:1:0:0:
408,35,153683,2,0,L|284:35,1,88.000002685547,6|0,2:3|2:1,2:1:0:0:
198,102,154078,2,0,P|130:74|75:114,1,132.00000402832,8|0,2:1|2:1,2:1:0:0:
103,191,154473,2,0,B|139:191|139:191|143:187|143:187|143:195|143:195|147:191|147:191|215:191,1,88.000002685547,6|0,2:3|2:1,2:1:0:0:
293,268,154868,2,0,B|257:268|257:268|253:264|253:264|253:272|253:272|249:268|249:268|181:268,1,88.000002685547,8|0,2:1|2:1,2:1:0:0:
348,88,155262,5,6,1:3:0:0:
332,118,155360,1,0,1:1:0:0:
327,152,155459,1,0,1:1:0:0:
334,184,155558,1,0,1:1:0:0:
352,213,155656,1,10,1:1:0:0:
366,244,155755,1,0,1:1:0:0:
371,277,155854,1,0,1:1:0:0:
365,310,155952,1,0,1:1:0:0:
349,340,156052,2,0,L|300:340,3,44.0000013427735,6|0|0|0,1:3|1:1|1:1|1:1,1:1:0:0:
275,367,156447,2,0,L|223:367,3,44.0000013427735,8|0|0|0,1:1|1:1|1:1|1:1,1:1:0:0:
160,368,156841,6,0,B|120:368|120:368|116:372|116:372|116:364|116:364|112:368|112:368|40:368,1,100,14|0,2:3|2:1,2:1:0:0:
68,243,157236,2,0,B|108:243|108:243|112:239|112:239|112:247|112:247|116:243|116:243|156:243,1,100,8|0,2:1|2:1,2:1:0:0:
233,294,157532,1,0,2:1:0:0:
233,294,157631,2,0,B|233:244|233:244|237:238|237:238|237:170,1,100,6|0,2:3|2:1,2:1:0:0:
117,66,158025,2,0,B|117:109|117:109|113:114|113:114|113:165,1,100,8|0,2:1|2:1,2:1:0:0:
234,64,158420,6,0,P|278:83|323:65,1,100,6|0,2:3|2:1,2:1:0:0:
480,136,158815,2,0,P|434:119|388:136,1,100,8|0,2:1|2:1,2:1:0:0:
340,252,159210,1,6,2:3:0:0:
364,252,159308,1,0,2:1:0:0:
388,252,159407,1,0,2:1:0:0:
488,252,159604,1,8,2:1:0:0:
388,252,159802,1,0,2:1:0:0:
388,348,159999,6,0,L|276:348,1,100,6|0,2:3|2:1,2:1:0:0:
231,265,160394,2,0,L|161:265,1,100,8|0,2:1|2:1,2:1:0:0:
47,265,160690,1,0,2:1:0:0:
47,265,160789,2,0,P|27:220|45:175,1,100,6|0,2:3|2:1,2:1:0:0:
131,265,161183,2,0,P|148:310|128:354,1,100,8|0,2:1|2:1,2:1:0:0:
308,263,161578,6,0,B|308:223|308:223|312:219|312:219|304:219|304:219|308:215|308:215|308:147,1,100,6|0,2:3|2:1,2:1:0:0:
199,43,161973,2,0,B|199:83|199:83|203:87|203:87|195:87|195:87|199:91|199:91|199:131,1,100,8|0,2:1|2:1,2:1:0:0:
112,88,162368,1,6,2:3:0:0:
284,88,162565,1,0,2:1:0:0:
300,88,162664,1,4,2:3:0:0:
316,88,162762,1,12,2:1:0:0:
113,88,162960,1,0,2:1:0:0:
290,203,163157,6,0,B|338:203|338:203|342:207|342:207|402:207,1,100,6|0,2:3|2:1,2:1:0:0:
218,289,163552,2,0,B|171:289|171:289|167:285|167:285|119:285,1,100,8|0,2:1|2:1,2:1:0:0:
30,193,163848,1,0,2:1:0:0:
30,193,163946,2,0,B|46:239|46:239|30:287,1,100,6|0,2:3|2:1,2:1:0:0:
119,379,164341,2,0,B|103:331|103:331|119:285,1,100,8|0,2:1|2:1,2:1:0:0:
265,111,164736,6,0,P|207:94|165:127,1,100,6|0,2:3|2:1,2:1:0:0:
271,275,165131,2,0,P|331:290|373:257,1,100,8|0,2:1|2:1,2:1:0:0:
428,164,165526,1,6,2:3:0:0:
428,144,165624,1,0,2:1:0:0:
428,124,165723,1,0,2:1:0:0:
428,272,165920,1,8,2:1:0:0:
428,124,166118,1,0,2:1:0:0:
180,208,166315,6,0,P|150:263|198:343,1,150,6|0,2:3|2:1,2:1:0:0:
339,272,166710,2,0,B|379:272|379:272|383:276|383:276|383:268|383:268|387:272|387:272|447:272,1,100,8|0,2:1|2:1,2:1:0:0:
321,72,167104,2,0,P|259:40|179:88,1,150,6|0,2:3|2:1,2:1:0:0:
257,216,167499,2,0,B|256:258|256:258|252:262|252:262|260:262|260:262|256:266|256:266|256:326,1,100,8|0,2:1|2:1,2:1:0:0:
428,221,167894,1,6,2:3:0:0:
168,296,168091,5,0,1:1:0:0:
140,295,168189,1,0,1:1:0:0:
113,282,168288,1,0,1:1:0:0:
91,262,168387,1,0,1:1:0:0:
79,234,168485,1,0,1:1:0:0:
78,204,168584,1,0,1:1:0:0:
88,176,168683,1,0,1:1:0:0:
107,153,168781,1,0,1:1:0:0:
132,140,168880,1,0,1:1:0:0:
162,135,168979,1,0,1:1:0:0:
192,140,169078,2,0,L|192:63,3,44.0000013427735,0|0|0|0,1:1|1:1|1:1|1:1,1:1:0:0:
246,325,169473,6,0,P|176:340|126:280,1,108.000000411987,12|0,2:3|2:1,2:1:0:0:
192,140,169868,1,10,2:1:0:0:
288,244,170065,1,0,2:1:0:0:
328,244,170164,1,0,2:1:0:0:
372,244,170262,1,4,2:3:0:0:
374,40,170460,1,0,2:1:0:0:
192,140,170657,1,10,2:1:0:0:
372,244,170854,1,0,2:1:0:0:
192,140,171052,6,0,B|124:140|124:140|120:144|120:144|120:137|120:137|116:140|116:140|24:140,1,162.000000617981,4|0,2:3|2:1,2:1:0:0:
192,50,171447,2,0,B|259:49|259:49|263:45|263:45|263:52|263:52|267:49|267:49|359:49,1,162.000000617981,10|0,2:1|2:1,2:1:0:0:
450,6,171841,2,0,P|467:77|420:121,1,108.000000411987,6|0,2:3|2:1,2:1:0:0:
372,156,172137,1,0,2:1:0:0:
344,156,172236,1,10,2:1:0:0:
232,52,172433,5,0,2:1:0:0:
232,52,172532,1,0,2:1:0:0:
232,52,172631,2,0,L|83:52,1,108.000000411987,4|0,2:3|2:1,2:1:0:0:
15,54,173026,1,10,2:1:0:0:
232,52,173223,1,0,2:1:0:0:
60,160,173420,5,4,2:3:0:0:
60,296,173618,1,0,2:1:0:0:
192,296,173815,1,10,2:1:0:0:
192,160,174011,1,0,2:1:0:0:
336,228,174210,6,0,L|444:228,1,108.000000411987,4|0,2:3|2:1,2:1:0:0:
192,296,174605,1,10,2:1:0:0:
164,296,174702,1,0,2:1:0:0:
140,296,174802,1,0,2:1:0:0:
336,228,174999,1,4,2:3:0:0:
192,152,175197,1,0,2:1:0:0:
192,296,175394,1,10,2:1:0:0:
420,284,175591,5,2,2:1:0:0:
420,284,175690,1,2,2:1:0:0:
420,284,175789,2,0,P|434:233|420:181,1,108.000000411987,4|0,2:3|2:1,2:1:0:0:
298,43,176183,2,0,P|283:95|297:147,1,108.000000411987,10|0,2:1|2:1,2:1:0:0:
221,282,176578,2,0,B|171:305|171:305|105:270,1,108.000000411987,4|0,2:3|2:1,2:1:0:0:
61,137,176973,2,0,B|110:113|110:113|176:148,1,108.000000411987,10|0,2:1|2:1,2:1:0:0:
336,219,177368,6,0,P|298:164|374:58,1,174.000005310059,4|0,2:3|2:1,2:1:0:0:
435,154,177762,2,0,P|475:231|424:317,1,186.000001419067,10|0,2:1|2:1,2:1:0:0:
297,314,178157,2,0,B|237:314|237:314|233:318|233:318|233:310|233:310|229:314|229:314|153:314,1,132.00000125885,6|0,2:3|2:1,2:1:0:0:
80,316,178453,1,2,2:1:0:0:
56,316,178552,1,10,2:1:0:0:
128,112,178749,5,2,2:1:0:0:
128,112,178848,1,2,2:1:0:0:
128,112,178947,2,0,L|128:236,1,108.000000411987,6|0,2:3|2:1,2:1:0:0:
228,164,179341,1,10,2:1:0:0:
32,164,179539,1,0,2:1:0:0:
228,164,179736,2,0,L|349:165,1,108.000000411987,6|0,2:3|2:1,2:1:0:0:
444,56,180131,2,0,L|323:55,1,108.000000411987,10|0,2:1|2:1,2:1:0:0:
228,164,180526,5,6,2:3:0:0:
336,55,180723,1,0,2:1:0:0:
444,164,180920,1,10,2:1:0:0:
336,271,181117,1,0,2:1:0:0:
143,169,181315,1,6,1:3:0:0:
154,124,181413,1,2,1:1:0:0:
195,104,181512,1,2,1:1:0:0:
237,123,181611,1,2,1:1:0:0:
250,167,181710,1,4,1:3:0:0:
269,216,181808,1,0,1:1:0:0:
316,236,181907,1,0,1:1:0:0:
366,216,182006,1,0,1:1:0:0:
384,167,182104,6,0,B|384:120|384:120|388:116|388:116|380:116|380:116|384:112|384:112|384:50,1,108.000000411987,14|0,2:3|2:1,2:1:0:0:
484,292,182499,2,0,B|484:250|484:250|488:246|488:246|480:246|480:246|484:242|484:242|484:195,1,108.000000411987,10|0,2:1|2:1,2:1:0:0:
258,248,182894,2,0,P|321:319|383:246,1,216.000000823975,6|10,2:3|2:1,2:1:0:0:
256,152,183486,5,0,1:1:0:0:
256,152,183585,1,0,1:1:0:0:
256,152,183683,2,0,L|136:152,1,108.000000411987,6|0,2:3|2:1,2:1:0:0:
100,60,184078,1,10,1:1:0:0:
138,60,184176,1,2,1:1:0:0:
176,60,184275,1,2,1:1:0:0:
214,60,184374,1,2,1:1:0:0:
252,60,184473,1,4,1:3:0:0:
289,63,184571,1,0,1:1:0:0:
322,82,184670,1,0,1:1:0:0:
344,112,184769,1,0,1:1:0:0:
352,149,184867,1,10,1:1:0:0:
345,186,184966,1,0,1:1:0:0:
322,216,185065,1,0,1:1:0:0:
290,235,185163,1,0,1:1:0:0:
252,239,185262,6,0,L|144:239,1,108.000000411987,6|0,2:3|2:1,2:1:0:0:
252,348,185657,2,0,L|360:348,1,108.000000411987,10|0,2:1|2:1,2:1:0:0:
491,174,186052,2,0,P|395:222|303:170,1,216.000000823975,6|10,2:3|2:1,2:1:0:0:
149,44,186644,5,0,1:1:0:0:
149,44,186743,1,0,1:1:0:0:
149,44,186841,2,0,P|209:28|257:50,1,108.000000411987,6|0,2:3|2:1,2:1:0:0:
248,187,187236,1,10,1:1:0:0:
235,222,187335,1,2,1:1:0:0:
211,251,187433,1,2,1:1:0:0:
178,270,187532,1,2,1:1:0:0:
141,276,187631,1,4,1:3:0:0:
103,270,187729,1,0,1:1:0:0:
71,250,187828,1,0,1:1:0:0:
47,221,187927,1,0,1:1:0:0:
34,185,188025,1,10,2:1:0:0:
205,44,188223,5,2,1:1:0:0:
229,44,188322,1,2,1:1:0:0:
249,44,188420,2,0,B|297:44|297:44|301:40|301:40|301:48|301:48|305:44|305:44|369:44,1,108.000000411987,6|0,2:3|2:1,2:1:0:0:
200,148,188815,2,0,B|152:148|152:148|148:144|148:144|148:152|148:152|144:148|144:148|80:148,1,108.000000411987,10|0,2:1|2:1,2:1:0:0:
300,268,189210,2,0,B|400:268|400:268|404:264|404:264|404:272|404:272|408:268|408:268|528:268,1,216.000000823975,6|10,2:3|2:1,2:1:0:0:
256,348,189802,5,2,1:1:0:0:
280,348,189901,1,2,1:1:0:0:
300,348,189999,2,0,P|330:303|284:266,1,108.000000411987,6|0,2:3|2:1,2:1:0:0:
102,266,190394,1,10,1:1:0:0:
66,256,190492,1,2,1:1:0:0:
50,223,190591,1,2,1:1:0:0:
64,189,190690,1,2,1:1:0:0:
99,178,190789,1,4,1:3:0:0:
137,177,190887,1,0,1:1:0:0:
175,177,190986,1,0,1:1:0:0:
213,177,191085,1,0,1:1:0:0:
251,177,191182,1,10,1:1:0:0:
286,167,191282,1,0,1:1:0:0:
302,134,191381,1,0,1:1:0:0:
288,100,191480,1,0,1:1:0:0:
253,89,191578,6,0,P|224:56|263:4,1,108.000000411987,6|0,2:3|2:1,2:1:0:0:
384,87,191973,2,0,P|413:120|374:172,1,108.000000411987,10|0,2:1|2:1,2:1:0:0:
221,295,192368,2,0,P|275:234|374:299,1,216.000000823975,6|10,2:3|2:1,2:1:0:0:
484,348,192960,5,2,1:1:0:0:
484,348,193058,1,2,1:1:0:0:
484,348,193157,2,0,B|484:300|484:300|488:296|488:296|480:296|480:296|484:292|484:292|484:228,1,108.000000411987,6|0,2:3|2:1,2:1:0:0:
400,132,193552,1,10,1:1:0:0:
374,104,193650,1,2,1:1:0:0:
338,93,193749,1,2,1:1:0:0:
302,103,193848,1,2,1:1:0:0:
276,130,193947,1,4,1:3:0:0:
250,157,194045,1,0,1:1:0:0:
213,166,194144,1,0,1:1:0:0:
177,156,194243,1,0,1:1:0:0:
152,128,194341,1,10,1:1:0:0:
156,88,194440,1,0,1:1:0:0:
182,61,194538,1,0,1:1:0:0:
219,54,194637,1,0,1:1:0:0:
256,68,194736,6,0,P|302:52|378:88,1,108.000000411987,14|0,2:3|2:1,1:1:0:0:
213,166,195131,2,0,P|166:150|90:186,1,108.000000411987,10|0,2:1|2:1,2:1:0:0:
256,288,195526,2,0,P|316:320|468:272,1,216.000000823975,6|10,2:3|2:1,2:1:0:0:
356,129,196118,5,2,1:1:0:0:
356,129,196216,1,2,1:1:0:0:
356,129,196315,2,0,B|356:169|356:169|352:173|352:173|360:173|360:173|356:177|356:177|356:225,1,108.000000411987,6|0,2:3|2:1,2:1:0:0:
168,176,196710,1,10,1:1:0:0:
206,176,196808,1,2,1:1:0:0:
244,176,196907,1,2,1:1:0:0:
282,176,197006,1,2,1:1:0:0:
316,176,197104,1,4,1:3:0:0:
349,160,197202,1,0,1:1:0:0:
363,126,197301,1,0,1:1:0:0:
350,91,197400,1,0,1:1:0:0:
317,75,197498,1,10,1:1:0:0:
280,76,197598,1,0,1:1:0:0:
242,76,197697,1,0,1:1:0:0:
204,76,197794,1,0,1:1:0:0:
166,76,197894,6,0,P|146:136|170:176,1,108.000000411987,6|0,2:3|2:1,2:1:0:0:
338,172,198289,2,0,P|359:124|338:76,1,108.000000411987,10|0,2:1|2:1,2:1:0:0:
157,266,198683,2,0,P|257:234|363:268,1,216.000000823975,6|10,2:3|2:1,2:1:0:0:
488,148,199276,5,2,1:1:0:0:
488,148,199374,1,2,1:1:0:0:
488,148,199473,2,0,L|368:148,1,108.000000411987,6|0,2:3|2:1,2:1:0:0:
248,88,199868,1,10,1:1:0:0:
210,88,199966,1,2,1:1:0:0:
172,88,200065,1,2,1:1:0:0:
134,88,200164,1,2,1:1:0:0:
96,88,200262,1,4,1:3:0:0:
59,98,200360,1,0,1:1:0:0:
29,120,200459,1,0,1:1:0:0:
9,152,200558,1,0,1:1:0:0:
2,189,200656,1,10,1:1:0:0:
8,226,200755,1,0,1:1:0:0:
28,258,200854,1,0,1:1:0:0:
59,281,200952,1,0,1:1:0:0:
95,291,201052,6,0,B|135:291|135:291|139:295|139:295|139:287|139:287|143:291|143:291|191:291,1,108.000000411987,6|0,2:3|2:1,2:1:0:0:
260,128,201447,2,0,B|300:128|300:128|304:132|304:132|304:124|304:124|308:128|308:128|356:128,1,108.000000411987,10|0,2:1|2:1,2:1:0:0:
180,212,201841,2,0,B|280:212|280:212|284:208|284:208|284:216|284:216|288:212|288:212|408:212,1,216.000000823975,6|10,2:3|2:1,2:1:0:0:
496,260,202433,5,2,1:1:0:0:
496,260,202532,1,2,1:1:0:0:
496,259,202631,2,0,P|517:210|496:162,1,108.000000411987,6|0,2:3|2:1,2:1:0:0:
319,70,203026,1,10,1:1:0:0:
328,106,203124,1,2,1:1:0:0:
318,142,203223,1,2,1:1:0:0:
291,168,203322,1,2,1:1:0:0:
254,178,203420,1,4,1:3:0:0:
218,168,203519,1,0,1:1:0:0:
192,141,203618,1,0,1:1:0:0:
182,105,203716,1,0,1:1:0:0:
192,68,203815,1,8,1:1:0:0:
104,212,204012,5,2,1:1:0:0:
104,212,204111,1,2,1:1:0:0:
104,212,204210,2,0,P|44:200|-4:212,1,108.000000411987,6|0,1:3|2:1,2:1:0:0:
105,336,204604,2,0,P|165:348|213:336,1,108.000000411987,10|0,2:1|2:1,2:1:0:0:
396,208,204999,2,0,P|305:144|259:236,1,216.000000823975,6|10,2:3|2:1,2:1:0:0:
476,344,205591,5,2,1:1:0:0:
476,344,205690,1,2,1:1:0:0:
476,344,205789,2,0,L|476:236,1,108.000000411987,6|0,2:3|2:1,2:1:0:0:
378,169,206183,1,10,1:1:0:0:
340,169,206281,1,2,1:1:0:0:
302,169,206380,1,2,1:1:0:0:
264,169,206479,1,2,1:1:0:0:
226,169,206577,1,4,1:3:0:0:
188,169,206676,1,0,1:1:0:0:
150,169,206775,1,0,1:1:0:0:
112,169,206873,1,0,1:1:0:0:
74,169,206973,2,0,L|6:169,3,37.9999989852906,10|2|2|2,2:1|2:1|2:1|2:1,2:1:0:0:
35,241,207368,5,10,1:3:0:0:
35,274,207466,1,0,1:1:0:0:
49,305,207565,1,0,1:1:0:0:
76,326,207664,1,0,1:1:0:0:
108,333,207762,1,0,1:1:0:0:
141,326,207861,1,0,1:1:0:0:
168,306,207960,1,0,1:1:0:0:
183,276,208058,1,0,1:1:0:0:
184,242,208157,1,0,1:1:0:0:
184,208,208255,1,0,1:1:0:0:
198,177,208354,1,0,1:1:0:0:
225,156,208453,1,0,1:1:0:0:
257,149,208551,1,0,1:1:0:0:
290,156,208650,1,0,1:1:0:0:
317,176,208749,1,0,1:1:0:0:
332,206,208847,1,0,1:1:0:0:
333,240,208947,1,0,1:1:0:0:
333,273,209045,1,0,1:1:0:0:
347,304,209144,1,0,1:1:0:0:
374,325,209243,1,0,1:1:0:0:
406,332,209341,1,0,1:1:0:0:
439,325,209440,1,0,1:1:0:0:
466,305,209539,1,0,1:1:0:0:
481,275,209637,1,0,1:1:0:0:
482,241,209736,1,0,1:1:0:0:
482,207,209834,1,0,1:1:0:0:
482,173,209933,1,0,1:1:0:0:
482,139,210032,1,0,1:1:0:0:
482,105,210131,1,0,1:1:0:0:
481,71,210229,1,0,1:1:0:0:
467,40,210328,1,0,1:1:0:0:
440,19,210427,1,0,1:1:0:0:
406,16,210526,6,0,L|262:16,1,136.000002593994,8|0,2:1|2:1,2:1:0:0:
204,93,211118,2,0,L|60:93,1,136.000002593994,8|0,2:1|2:1,2:1:0:0:
136,172,211709,1,4,2:3:0:0:
298,176,212103,6,0,P|366:160|449:187,1,136.000002593994,8|0,2:1|2:1,2:1:0:0:
298,265,212697,2,0,P|230:281|147:254,1,136.000002593994,8|0,2:1|2:1,2:1:0:0:
72,308,213288,2,0,P|88:248|64:204,1,102.000001945496,2|0,2:1|2:1,2:1:0:0:
48,185,213682,6,0,B|108:185|108:185|112:181|112:181|112:189|112:189|116:185|116:185|188:185,1,136.000002593994,8|0,2:1|2:1,2:1:0:0:
244,64,214275,2,0,B|304:64|304:64|308:60|308:60|308:68|308:68|312:64|312:64|384:64,1,136.000002593994,8|0,2:1|2:1,2:1:0:0:
392,64,214768,1,2,2:1:0:0:
412,64,214867,1,2,2:1:0:0:
360,160,215064,6,8,B|252:160,1,102.000001945496,10|8,2:1|2:1,2:1:0:0:
224,162,215459,1,2,2:3:0:0:
224,162,215656,1,0,2:1:0:0:
224,32,215853,1,2,2:1:0:0:
224,162,216051,1,6,2:1:0:0:
52,98,216248,1,2,1:1:0:0:
60,98,216347,1,0,1:1:0:0:
67,98,216447,1,2,1:2:0:0:
75,98,216544,1,0,1:1:0:0:
83,98,216643,1,0,1:1:0:0:
91,98,216742,1,0,1:1:0:0:
99,98,216840,6,0,L|199:98,1,92.0000017547608,8|0,2:1|2:1,2:1:0:0:
195,224,217236,1,0,2:1:0:0:
195,224,217433,2,0,L|-9:224,1,184.000003509522,8|0,2:1|2:1,2:1:0:0:
12,311,218025,1,4,2:3:0:0:
234,315,218420,6,0,B|282:315|282:315|282:307|282:307|342:307,1,92.0000017547608,8|0,2:1|2:1,2:1:0:0:
460,244,218815,1,0,2:1:0:0:
460,244,219012,2,0,B|366:245|366:245|366:237|366:237|284:237,1,184.000003509522,8|0,2:1|2:1,2:1:0:0:
263,239,219506,1,2,2:1:0:0:
239,239,219604,1,4,2:3:0:0:
108,172,219802,6,0,B|203:172|203:172|255:164|255:112,1,184.000003509522,8|0,2:1|2:1,2:1:0:0:
256,32,220394,1,8,2:1:0:0:
255,112,220591,2,0,B|255:164|307:172|307:172|427:172,1,184.000003509522,8|0,2:1|2:1,2:1:0:0:
428,172,221085,1,2,2:1:0:0:
450,172,221183,1,4,2:3:0:0:
372,44,221381,5,6,2:1:0:0:
372,44,221775,1,2,2:1:0:0:
372,228,221973,1,2,1:1:0:0:
360,228,222072,1,0,1:1:0:0:
348,228,222170,1,0,1:1:0:0:
336,228,222269,1,0,1:1:0:0:
324,228,222368,2,0,L|272:228,3,46.0000008773804,0|0|0|0,1:1|1:1|1:1|1:1,1:1:0:0:
248,228,222762,2,0,P|219:160|269:96,1,138.000002632141,2|0,2:1|2:1,2:1:0:0:
276,84,223157,6,0,B|192:84|192:84|188:80|188:80|188:88|188:88|184:84|184:84|88:84,1,184.000003509522,10|0,2:1|2:1,2:1:0:0:
104,192,223749,2,0,B|188:192|188:192|192:188|192:188|192:196|192:196|196:192|196:192|292:192,1,184.000003509522,8|0,2:1|2:1,2:1:0:0:
276,84,224341,1,4,2:3:0:0:
437,259,224736,6,0,B|437:171|437:171|429:171|429:171|429:63,1,184.000003509522,10|0,2:1|2:1,2:1:0:0:
357,259,225328,2,0,B|357:171|357:171|349:171|349:171|349:63,1,184.000003509522,10|0,2:1|2:1,2:1:0:0:
111,83,225920,2,0,P|87:146|112:209,1,138.000002632141,2|0,2:1|2:1,2:1:0:0:
177,145,226315,2,0,B|261:145|261:145|265:141|265:141|265:149|265:149|269:145|269:145|365:145,1,184.000003509522,10|0,2:1|2:1,2:1:0:0:
428,36,226907,2,0,B|347:36|347:36|343:40|343:40|343:32|343:32|339:36|339:36|255:36,1,184.000003509522,8|0,2:1|2:1,2:1:0:0:
152,36,227499,5,6,2:3:0:0:
80,148,227696,1,2,2:1:0:0:
80,148,227795,1,2,2:1:0:0:
80,148,227893,1,6,2:1:0:0:
152,36,228091,1,2,2:1:0:0:
220,148,228289,1,2,2:1:0:0:
120,268,228486,1,2,2:1:0:0:
100,268,228585,1,2,2:1:0:0:
80,268,228682,1,6,2:1:0:0:
148,148,228881,1,2,2:1:0:0:
292,148,229078,1,2,2:1:0:0:
376,79,229275,5,0,2:1:0:0:
376,79,229374,1,0,2:1:0:0:
376,79,229473,2,0,P|416:119|371:226,1,184.000003509522,12|0,2:1|2:1,2:1:0:0:
148,150,230065,2,0,P|188:110|296:150,1,184.000003509522,8|0,2:1|2:1,2:1:0:0:
222,308,230657,1,4,2:3:0:0:
222,184,230854,1,0,2:1:0:0:
308,328,231052,6,0,B|500:328,1,184.000003509522,8|0,2:1|2:1,2:1:0:0:
308,252,231644,2,0,B|116:252,1,184.000003509522,8|0,2:1|2:1,2:1:0:0:
40,168,232236,1,2,2:1:0:0:
128,332,232433,6,0,B|212:332|212:332|216:328|216:328|216:336|216:336|220:332|220:332|332:332,1,184.000003509522,8|0,2:1|2:1,2:1:0:0:
384,244,233025,1,6,2:3:0:0:
300,168,233223,2,0,B|216:168|216:168|212:164|212:164|212:172|212:172|208:168|208:168|96:168,1,184.000003509522,8|0,2:1|2:1,2:1:0:0:
212,80,233815,5,6,2:1:0:0:
378,169,234012,2,0,B|442:169,2,46.0000008773804,2|0|4,1:1|1:1|1:1,1:1:0:0:
322,290,234407,1,2,2:1:0:0:
322,290,234604,1,6,2:1:0:0:
136,288,234802,1,2,1:1:0:0:
120,288,234900,1,0,1:1:0:0:
106,288,234999,2,0,L|31:288,3,46.0000008773804,0|0|0|0,1:1|1:1|1:1|1:1,1:1:0:0:
113,198,235394,5,2,1:1:0:0:
145,199,235492,1,2,1:1:0:0:
175,213,235591,1,2,1:1:0:0:
194,241,235690,1,2,1:1:0:0:
200,278,235789,2,0,P|218:334|299:354,1,136.000002593994,8|0,2:1|2:1,2:1:0:0:
350,289,236381,2,0,P|332:233|251:213,1,136.000002593994,8|0,2:1|2:1,2:1:0:0:
276,283,236973,1,4,2:3:0:0:
136,76,237368,6,0,L|304:76,1,136.000002593994,8|0,2:1|2:1,2:1:0:0:
373,186,237960,2,0,P|408:131|374:76,1,136.000002593994,8|0,2:1|2:1,2:1:0:0:
272,76,238552,2,0,L|271:157,1,68.0000012969971,2|0,2:1|2:1,2:1:0:0:
196,216,238947,6,0,B|136:216|136:216|136:208|136:208|136:216|136:216|52:216,1,136.000002593994,8|0,2:1|2:1,2:1:0:0:
76,288,239539,2,0,B|136:288|136:288|136:296|136:296|136:288|136:288|220:288,1,136.000002593994,8|0,2:1|2:1,2:1:0:0:
220,288,240032,1,0,2:1:0:0:
240,288,240131,1,2,2:1:0:0:
300,156,240328,1,2,2:1:0:0:
300,156,240723,1,2,2:1:0:0:
368,288,240920,1,6,2:1:0:0:
432,156,241118,1,2,2:1:0:0:
368,288,241315,1,2,2:1:0:0:
292,115,241512,5,0,1:1:0:0:
270,115,241611,1,0,1:1:0:0:
249,116,241710,1,0,1:1:0:0:
225,116,241808,1,0,1:1:0:0:
201,116,241907,1,0,1:1:0:0:
177,116,242006,1,0,1:1:0:0:
156,116,242104,2,0,B|96:116|96:116|96:108|96:108|96:116|96:116|12:116,1,136.000002593994,12|0,2:1|2:1,1:1:0:0:
36,200,242697,2,0,B|96:200|96:200|96:208|96:208|96:200|96:200|156:200,1,136.000002593994,8|0,2:1|2:1,2:1:0:0:
332,200,243289,1,4,2:3:0:0:
251,79,243683,6,0,P|219:135|258:195,1,136.000002593994,8|0,2:1|2:1,2:1:0:0:
156,322,244276,2,0,P|188:265|156:209,1,136.000002593994,8|0,2:1|2:1,2:1:0:0:
134,195,244769,1,2,2:1:0:0:
113,186,244868,1,4,2:3:0:0:
218,266,245065,6,0,L|362:266,1,136.000002593994,8|0,2:1|2:1,2:1:0:0:
440,336,245657,1,0,2:1:0:0:
488,192,245854,2,0,L|344:192,1,136.000002593994,8|0,2:1|2:1,2:1:0:0:
328,192,246348,1,2,2:1:0:0:
304,192,246447,1,4,2:3:0:0:
488,192,246644,1,4,2:1:0:0:
488,192,247039,5,2,2:1:0:0:
400,80,247236,1,2,1:1:0:0:
376,80,247335,1,0,1:1:0:0:
352,80,247433,1,0,1:1:0:0:
328,80,247532,1,0,1:1:0:0:
304,80,247631,2,0,L|256:80,3,34.0000006484985,0|0|0|0,1:1|1:1|1:1|1:1,1:1:0:0:
240,80,248025,1,2,2:1:0:0:
28,188,248223,5,2,1:1:0:0:
28,188,248322,1,2,1:1:0:0:
28,188,248420,2,0,P|84:228|148:176,1,151.999995941162,8|0,1:1|2:1,1:1:0:0:
280,112,249012,2,0,P|224:72|160:124,1,151.999995941162,8|0,2:1|2:1,2:1:0:0:
224,236,249604,1,4,2:3:0:0:
280,112,249802,1,0,2:1:0:0:
344,240,249999,6,0,B|344:308|344:308|348:312|348:312|340:312|340:312|344:316|344:316|344:392,1,151.999995941162,8|0,2:1|2:1,2:1:0:0:
444,264,250591,2,0,B|444:199|444:199|448:195|448:195|440:195|440:195|444:191|444:191|444:123,1,151.999995941162,8|0,2:1|2:1,2:1:0:0:
444,96,251085,1,2,2:1:0:0:
444,72,251183,1,4,2:3:0:0:
344,16,251381,1,0,2:1:0:0:
244,72,251578,2,0,P|188:112|122:63,1,151.999995941162,8|0,2:1|2:1,2:1:0:0:
7,147,252170,2,0,P|63:107|129:156,1,151.999995941162,8|0,2:1|2:1,2:1:0:0:
128,280,252762,5,4,2:3:0:0:
258,214,252960,1,2,2:1:0:0:
258,214,253058,1,2,2:1:0:0:
258,214,253157,1,6,2:1:0:0:
125,146,253354,1,2,2:1:0:0:
0,212,253552,1,2,2:1:0:0:
128,280,253749,1,2,2:1:0:0:
258,214,253947,1,2,2:1:0:0:
128,280,254144,1,2,2:1:0:0:
108,281,254243,1,2,2:1:0:0:
88,281,254341,1,2,2:1:0:0:
364,281,254539,5,0,2:1:0:0:
392,281,254637,1,2,2:1:0:0:
422,280,254736,2,0,P|446:256|401:146,1,151.999995941162,12|0,2:1|2:1,2:1:0:0:
285,154,255328,2,0,P|261:130|306:20,1,151.999995941162,8|0,2:1|2:1,2:1:0:0:
408,27,255920,1,4,2:3:0:0:
220,240,256315,6,0,L|64:240,1,151.999995941162,8|0,2:1|2:1,2:1:0:0:
220,316,256907,2,0,L|376:316,1,151.999995941162,8|0,2:1|2:1,2:1:0:0:
400,316,257400,1,2,2:1:0:0:
420,316,257498,1,4,2:3:0:0:
416,170,257697,6,0,B|348:170|348:170|344:174|344:174|344:166|344:166|340:170|340:170|264:170,1,151.999995941162,8|0,2:1|2:1,2:1:0:0:
204,88,258289,1,4,2:3:0:0:
204,88,258486,2,0,B|136:88|136:88|132:92|132:92|132:84|132:84|128:88|128:88|52:88,1,151.999995941162,8|0,2:1|2:1,2:1:0:0:
135,196,259077,5,4,2:3:0:0:
204,88,259274,1,2,2:1:0:0:
228,88,259373,1,0,2:1:0:0:
252,88,259472,1,2,2:1:0:0:
320,148,259669,1,2,2:1:0:0:
384,88,259867,1,6,2:1:0:0:
455,167,260065,5,2,1:1:0:0:
456,200,260163,1,0,1:1:0:0:
456,232,260261,1,2,1:1:0:0:
441,261,260360,1,0,1:1:0:0:
410,273,260459,1,2,1:1:0:0:
379,261,260557,1,0,1:1:0:0:
364,232,260656,2,0,L|364:180,3,34.0000006484985,0|0|0|0,1:1|1:1|1:1|1:1,1:1:0:0:
364,125,261051,1,6,2:1:0:0:
256,192,261149,12,0,264209,2:1:0:0:
