osu file format v14

[General]
AudioFilename: Jun feat. Schanita - TRUE LOVE.mp3
AudioLeadIn: 3000
PreviewTime: 52891
Countdown: 0
SampleSet: Soft
StackLeniency: 0.7
Mode: 0
LetterboxInBreaks: 1
WidescreenStoryboard: 0

[Editor]
Bookmarks: 18982
DistanceSpacing: 1.2
BeatDivisor: 4
GridSize: 4
TimelineZoom: 1

[Metadata]
Title:TRUE LOVE
TitleUnicode:TRUE LOVE
Artist:Jun feat. Schanita
ArtistUnicode:Jun feat. Schanita
Creator:Neptune
Version:TRUE JUMPS
Source:Dance Dance Revolution
Tags:
BeatmapID:1311919
BeatmapSetID:622273

[Difficulty]
HPDrainRate:8
CircleSize:4
OverallDifficulty:8
ApproachRate:9
SliderMultiplier:1.9
SliderTickRate:2

[Events]
//Background and Video events
0,0,"BG.png",0,0
//Break Periods
2,63144,70643
//Storyboard Layer 0 (Background)
//Storyboard Layer 1 (Fail)
//Storyboard Layer 2 (Pass)
//Storyboard Layer 3 (Foreground)
//Storyboard Sound Samples

[TimingPoints]
392,319.148936170213,4,2,1,70,1,0
392,-142.857142857143,4,2,2,70,0,0
551,-142.857142857143,4,2,1,70,0,0
2945,-142.857142857143,4,2,2,70,0,0
3104,-142.857142857143,4,2,1,70,0,0
5498,-142.857142857143,4,2,2,70,0,0
5657,-142.857142857143,4,2,1,70,0,0
10604,-100,4,2,1,70,0,1
18264,-100,4,2,2,70,0,1
18423,-100,4,2,1,70,0,1
19540,-100,4,2,2,70,0,0
19700,-100,4,2,1,70,0,0
52732,-100,4,2,1,70,0,1
62945,-100,4,2,2,20,0,0
63104,-100,4,2,1,10,0,0
73796,-142.857142857143,4,2,1,70,0,0
76349,-142.857142857143,4,2,2,70,0,0
76509,-142.857142857143,4,2,1,70,0,0
77626,-142.857142857143,4,2,2,70,0,0
77785,-142.857142857143,4,2,1,70,0,0
83689,-142.857142857143,4,2,2,70,0,0
84009,-100,4,2,1,70,0,1
94221,-100,4,2,2,20,0,0
94381,-100,4,2,1,10,0,0

[Colours]
Combo1 : 255,255,255
Combo2 : 103,214,222
Combo3 : 185,255,255

[HitObjects]
96,184,392,6,0,P|72:248|64:320,1,132.999995941162
264,180,870,1,0,0:0:0:0:
404,44,1030,2,0,P|428:108|436:180,1,132.999995941162
440,264,1509,1,0,0:0:0:0:
348,196,1668,1,0,0:0:0:0:
320,88,1828,1,0,0:0:0:0:
228,32,1987,1,0,0:0:0:0:
124,88,2147,1,0,0:0:0:0:
104,196,2306,1,0,0:0:0:0:
56,88,2466,6,0,L|200:104,1,132.999995941162
104,196,2945,2,0,B|64:236|84:240|100:264|72:340,1,132.999995941162
256,308,3423,1,0,0:0:0:0:
384,188,3583,1,0,0:0:0:0:
256,64,3743,1,0,0:0:0:0:
120,188,3902,1,0,0:0:0:0:
400,308,4062,5,0,0:0:0:0:
144,352,4222,1,0,0:0:0:0:
84,84,4381,1,0,0:0:0:0:
340,36,4541,1,0,0:0:0:0:
252,200,4700,1,0,0:0:0:0:
40,224,4860,5,0,0:0:0:0:
120,300,5020,1,0,0:0:0:0:
164,308,5100,1,0,0:0:0:0:
208,304,5180,1,0,0:0:0:0:
168,192,5338,1,0,0:0:0:0:
80,72,5498,6,0,B|104:48|104:48|120:84|120:84|196:84,1,132.999995941162
252,196,5977,1,0,0:0:0:0:
424,312,6136,2,0,B|400:288|400:288|384:324|384:324|308:324,1,132.999995941162
208,320,6615,1,0,0:0:0:0:
128,208,6774,1,0,0:0:0:0:
116,248,6854,1,0,0:0:0:0:
88,288,6934,1,0,0:0:0:0:
28,180,7094,2,0,P|32:108|52:80,1,99.7499969558717
88,84,7413,5,0,0:0:0:0:
200,208,7572,1,0,0:0:0:0:
332,88,7732,1,0,0:0:0:0:
400,320,7892,1,0,0:0:0:0:
400,208,8051,2,0,B|308:196|300:312|216:280,1,199.499993911743
200,164,8689,2,0,P|148:176|116:192,1,66.4999979705811
256,48,9009,5,0,0:0:0:0:
256,196,9168,1,0,0:0:0:0:
36,328,9328,5,0,0:0:0:0:
64,84,9567,1,0,0:0:0:0:
404,140,9806,5,0,0:0:0:0:
428,280,9965,1,0,0:0:0:0:
248,192,10285,5,0,0:0:0:0:
252,56,10604,5,0,0:0:0:0:
136,120,10764,1,0,0:0:0:0:
112,156,10844,1,0,0:0:0:0:
100,204,10924,1,0,0:0:0:0:
168,324,11083,2,0,P|244:280|264:276,1,95
432,96,11402,2,0,L|432:200,1,95
92,112,11721,5,0,0:0:0:0:
96,280,11881,1,0,0:0:0:0:
232,144,12040,1,0,0:0:0:0:
264,176,12120,1,0,0:0:0:0:
276,216,12199,1,0,0:0:0:0:
360,320,12360,1,0,0:0:0:0:
392,288,12440,1,0,0:0:0:0:
432,276,12519,1,0,0:0:0:0:
408,152,12679,5,0,0:0:0:0:
256,304,12838,1,0,0:0:0:0:
140,160,12998,2,0,P|64:212|56:244,1,95
200,60,13317,1,0,0:0:0:0:
244,68,13397,1,0,0:0:0:0:
288,56,13477,1,0,0:0:0:0:
56,148,13636,1,0,0:0:0:0:
176,288,13796,1,0,0:0:0:0:
340,292,13955,1,0,0:0:0:0:
432,152,14115,1,0,0:0:0:0:
108,60,14274,5,0,0:0:0:0:
92,100,14354,1,0,0:0:0:0:
108,140,14434,1,0,0:0:0:0:
148,156,14514,1,0,0:0:0:0:
180,184,14594,1,0,0:0:0:0:
184,232,14673,1,0,0:0:0:0:
148,260,14753,1,0,0:0:0:0:
152,304,14833,1,0,0:0:0:0:
192,332,14913,1,0,0:0:0:0:
464,72,15072,5,0,0:0:0:0:
424,56,15152,1,0,0:0:0:0:
384,72,15232,1,0,0:0:0:0:
368,112,15312,1,0,0:0:0:0:
340,144,15392,1,0,0:0:0:0:
292,148,15471,1,0,0:0:0:0:
264,112,15551,1,0,0:0:0:0:
220,100,15631,1,0,0:0:0:0:
184,128,15711,1,0,0:0:0:0:
144,264,15870,6,0,P|212:288|248:292,1,95
444,292,16189,1,0,0:0:0:0:
472,132,16349,1,0,0:0:0:0:
332,60,16509,2,0,L|152:132,1,190
56,312,16987,6,0,P|160:308|168:316,1,95
224,176,17306,2,0,P|220:72|228:64,1,95,0|0,0:0|0:0,0:0:0:0:
380,128,17626,1,0,0:0:0:0:
376,284,17785,2,0,P|280:348|196:336,1,190
144,132,18264,5,0,0:0:0:0:
268,52,18423,1,0,0:0:0:0:
312,76,18503,1,0,0:0:0:0:
328,120,18583,1,0,0:0:0:0:
316,256,18743,1,0,0:0:0:0:
112,272,18902,1,0,0:0:0:0:
188,108,19062,1,0,0:0:0:0:
368,292,19221,5,0,0:0:0:0:
80,328,19381,1,0,0:0:0:0:
176,48,19540,1,0,0:0:0:0:
360,60,19700,2,0,P|416:76|452:120,1,95
152,324,20019,2,0,P|96:308|60:264,1,95
464,224,20338,2,0,P|448:280|404:316,1,95
68,112,20657,2,0,P|84:56|128:20,1,95
256,92,20977,5,0,0:0:0:0:
188,200,21136,1,0,0:0:0:0:
320,200,21296,1,0,0:0:0:0:
248,328,21455,5,0,0:0:0:0:
296,320,21534,1,0,0:0:0:0:
332,304,21614,1,0,0:0:0:0:
384,316,21694,1,0,0:0:0:0:
416,288,21774,1,0,0:0:0:0:
400,240,21854,1,0,0:0:0:0:
388,192,21933,1,0,0:0:0:0:
416,156,22013,1,0,0:0:0:0:
416,104,22094,1,0,0:0:0:0:
304,44,22253,5,0,0:0:0:0:
48,108,22412,1,0,0:0:0:0:
32,280,22572,2,0,P|72:204|160:268,1,190
228,324,23051,1,0,0:0:0:0:
272,308,23131,1,0,0:0:0:0:
304,280,23211,1,0,0:0:0:0:
104,48,23370,5,0,0:0:0:0:
284,176,23530,1,0,0:0:0:0:
100,328,23689,1,0,0:0:0:0:
364,336,23849,2,0,B|412:304|412:304|360:288|360:288|320:256|320:256|340:200,1,190
392,140,24328,5,0,0:0:0:0:
140,140,24487,1,0,0:0:0:0:
156,248,24647,1,0,0:0:0:0:
316,64,24806,1,0,0:0:0:0:
248,300,24966,1,0,0:0:0:0:
232,28,25126,1,0,0:0:0:0:
256,184,25285,1,0,0:0:0:0:
252,96,25444,5,0,0:0:0:0:
156,196,25604,1,0,0:0:0:0:
256,292,25764,1,0,0:0:0:0:
360,184,25923,1,0,0:0:0:0:
448,184,26083,5,0,0:0:0:0:
256,364,26242,1,0,0:0:0:0:
72,196,26402,1,0,0:0:0:0:
252,40,26562,1,0,0:0:0:0:
252,76,26642,1,0,0:0:0:0:
252,112,26721,1,0,0:0:0:0:
172,184,26881,5,0,0:0:0:0:
120,348,27040,1,0,0:0:0:0:
172,184,27200,1,0,0:0:0:0:
120,348,27360,1,0,0:0:0:0:
316,324,27519,1,0,0:0:0:0:
480,172,27679,2,0,P|388:144|328:232,1,190
236,68,28157,5,0,0:0:0:0:
128,224,28317,1,0,0:0:0:0:
48,72,28477,1,0,0:0:0:0:
336,232,28636,1,0,0:0:0:0:
384,48,28796,2,0,L|420:152,2,95
240,56,29274,1,0,0:0:0:0:
196,76,29354,1,0,0:0:0:0:
168,112,29434,1,0,0:0:0:0:
160,216,29594,5,0,0:0:0:0:
288,144,29753,1,0,0:0:0:0:
424,216,29913,1,0,0:0:0:0:
332,300,30072,5,0,0:0:0:0:
216,160,30232,1,0,0:0:0:0:
116,300,30392,1,0,0:0:0:0:
144,160,30551,5,0,0:0:0:0:
308,188,30711,1,0,0:0:0:0:
232,60,30870,1,0,0:0:0:0:
48,168,31030,5,0,0:0:0:0:
264,64,31189,1,0,0:0:0:0:
52,292,31349,1,0,0:0:0:0:
308,348,31508,1,0,0:0:0:0:
404,224,31667,5,0,0:0:0:0:
392,192,31747,1,0,0:0:0:0:
376,164,31827,1,0,0:0:0:0:
360,136,31907,1,0,0:0:0:0:
340,112,31987,5,0,0:0:0:0:
316,88,32067,1,0,0:0:0:0:
288,72,32147,1,0,0:0:0:0:
264,52,32227,1,0,0:0:0:0:
232,40,32306,5,0,0:0:0:0:
156,116,32466,2,0,L|92:216,1,95
200,368,32785,1,0,0:0:0:0:
276,284,32945,2,0,L|336:196,1,95
404,80,33264,2,0,P|364:52|316:48,1,95
136,52,33583,5,0,0:0:0:0:
112,88,33663,1,0,0:0:0:0:
100,132,33743,1,0,0:0:0:0:
264,188,33902,1,0,0:0:0:0:
100,252,34062,1,0,0:0:0:0:
100,296,34142,1,0,0:0:0:0:
124,332,34221,1,0,0:0:0:0:
360,144,34381,2,0,B|364:216|436:224|436:224|448:180|456:280,1,190
292,308,34860,5,0,0:0:0:0:
68,216,35020,1,0,0:0:0:0:
324,136,35180,1,0,0:0:0:0:
168,348,35339,1,0,0:0:0:0:
168,88,35499,1,0,0:0:0:0:
324,64,35657,5,0,0:0:0:0:
324,64,35737,1,0,0:0:0:0:
324,64,35817,1,0,0:0:0:0:
64,148,35977,1,0,0:0:0:0:
372,272,36136,1,0,0:0:0:0:
196,228,36296,1,0,0:0:0:0:
44,336,36455,1,0,0:0:0:0:
44,116,36615,1,0,0:0:0:0:
168,56,36774,5,0,0:0:0:0:
208,56,36854,1,0,0:0:0:0:
248,72,36934,1,0,0:0:0:0:
312,240,37094,2,0,L|312:128,2,95
168,312,37572,2,0,P|232:316|280:352,1,95
396,280,37892,2,0,L|452:232,1,47.5
460,208,38051,2,0,P|412:140|288:140,1,190
152,64,38530,5,0,0:0:0:0:
48,220,38689,1,0,0:0:0:0:
48,220,38769,1,0,0:0:0:0:
48,220,38849,1,0,0:0:0:0:
256,216,39009,1,0,0:0:0:0:
384,72,39168,5,0,0:0:0:0:
472,224,39328,1,0,0:0:0:0:
472,224,39408,1,0,0:0:0:0:
472,224,39488,1,0,0:0:0:0:
344,356,39647,1,0,0:0:0:0:
152,356,39806,1,0,0:0:0:0:
256,192,39966,12,0,40923,0:0:0:0:
252,48,41243,5,8,0:0:0:0:
260,320,41721,1,8,0:0:0:0:
260,320,42040,1,12,0:0:0:0:
56,112,42519,6,0,L|56:236,1,95
348,184,42838,2,0,L|428:256,1,95
252,36,43157,6,0,L|364:32,1,95
148,320,43477,2,0,L|244:360,1,95
264,196,43796,5,0,0:0:0:0:
264,196,43955,1,0,0:0:0:0:
264,312,44115,1,0,0:0:0:0:
208,92,44274,2,0,P|316:96|392:176,1,190
52,56,44753,5,0,0:0:0:0:
68,96,44833,1,0,0:0:0:0:
108,108,44913,1,0,0:0:0:0:
148,92,44993,5,0,0:0:0:0:
180,112,45072,1,0,0:0:0:0:
184,160,45152,1,0,0:0:0:0:
164,196,45232,5,0,0:0:0:0:
164,236,45312,1,0,0:0:0:0:
200,260,45392,1,0,0:0:0:0:
244,248,45471,1,0,0:0:0:0:
288,232,45551,6,0,L|336:260,2,47.5
88,220,45870,1,0,0:0:0:0:
296,144,46030,1,0,0:0:0:0:
92,340,46189,1,0,0:0:0:0:
296,36,46349,1,0,0:0:0:0:
412,116,46509,1,0,0:0:0:0:
420,256,46668,1,0,0:0:0:0:
295,344,46828,1,0,0:0:0:0:
156,256,46987,6,0,P|232:220|276:224,1,95
184,176,47306,2,0,L|88:164,1,95
192,57,47626,5,0,0:0:0:0:
251,59,47706,1,0,0:0:0:0:
191,57,47786,1,0,0:0:0:0:
251,58,47865,1,0,0:0:0:0:
308,57,47945,2,0,P|372:57|408:81,1,95
227,337,48264,5,4,0:0:0:0:
253,300,48343,1,4,0:0:0:0:
292,277,48423,1,4,0:0:0:0:
340,271,48503,1,4,0:0:0:0:
384,260,48583,2,4,P|424:232|452:176,1,95
132,328,48902,5,0,0:0:0:0:
124,196,49062,1,0,0:0:0:0:
256,112,49221,1,0,0:0:0:0:
256,248,49381,1,0,0:0:0:0:
336,72,49540,5,0,0:0:0:0:
436,152,49699,1,0,0:0:0:0:
336,72,49859,1,0,0:0:0:0:
436,152,50018,1,0,0:0:0:0:
236,176,50179,2,0,P|172:152|128:152,1,95
172,268,50498,2,0,B|176:324|176:324|224:296|224:296|304:340,1,190
400,256,50976,5,0,0:0:0:0:
384,216,51056,1,0,0:0:0:0:
360,180,51135,1,0,0:0:0:0:
288,88,51296,1,0,0:0:0:0:
136,84,51455,5,0,0:0:0:0:
76,220,51695,1,0,0:0:0:0:
256,336,51934,5,0,0:0:0:0:
252,48,52094,1,0,0:0:0:0:
444,184,52413,5,0,0:0:0:0:
104,196,52572,1,0,0:0:0:0:
256,192,52732,1,0,0:0:0:0:
252,92,52892,6,0,P|184:60|124:56,1,95
72,156,53211,1,0,0:0:0:0:
72,156,53291,1,0,0:0:0:0:
72,156,53370,1,0,0:0:0:0:
348,240,53530,6,0,B|392:292|392:292|448:292,1,95
233,280,53849,1,0,0:0:0:0:
200,256,53929,1,0,0:0:0:0:
156,244,54009,1,0,0:0:0:0:
176,104,54168,6,0,L|264:28,2,95
176,236,54647,5,0,0:0:0:0:
132,276,54806,1,0,0:0:0:0:
92,236,54966,1,0,0:0:0:0:
136,200,55125,1,0,0:0:0:0:
248,236,55285,5,0,0:0:0:0:
140,132,55445,1,0,0:0:0:0:
24,228,55604,1,0,0:0:0:0:
120,336,55764,1,0,0:0:0:0:
36,336,55924,5,0,0:0:0:0:
37,103,56083,1,0,0:0:0:0:
297,103,56243,1,0,0:0:0:0:
300,336,56402,1,0,0:0:0:0:
357,195,56562,5,0,0:0:0:0:
315,224,56642,1,0,0:0:0:0:
276,190,56722,1,0,0:0:0:0:
235,221,56801,1,0,0:0:0:0:
196,189,56881,1,0,0:0:0:0:
157,224,56961,1,0,0:0:0:0:
122,186,57041,1,0,0:0:0:0:
75,35,57200,5,0,0:0:0:0:
285,338,57360,1,0,0:0:0:0:
386,83,57519,1,0,0:0:0:0:
52,274,57679,1,0,0:0:0:0:
412,336,57839,1,0,0:0:0:0:
344,216,57998,5,0,0:0:0:0:
472,124,58157,2,0,P|480:60|456:40,1,95
248,72,58477,1,0,0:0:0:0:
108,148,58636,2,0,L|12:192,1,95
256,208,58955,5,0,0:0:0:0:
256,348,59115,2,0,B|204:348|204:348|184:300,1,95
252,72,59434,1,0,0:0:0:0:
32,180,59594,2,0,B|68:148|68:148|116:128,1,95
252,180,59913,5,0,0:0:0:0:
216,228,60073,1,0,0:0:0:0:
276,228,60232,1,0,0:0:0:0:
252,72,60392,1,0,0:0:0:0:
112,316,60551,1,0,0:0:0:0:
388,316,60711,1,0,0:0:0:0:
360,188,60870,5,0,0:0:0:0:
252,72,61030,1,0,0:0:0:0:
144,192,61189,1,0,0:0:0:0:
256,312,61349,1,0,0:0:0:0:
252,32,61509,5,0,0:0:0:0:
72,160,61668,1,0,0:0:0:0:
264,156,61828,2,0,L|380:156,1,95
336,312,62147,2,0,B|300:276|300:276|188:320|188:320|96:276|60:356|80:80,1,475
252,200,71243,5,0,0:0:0:0:
252,200,71562,5,0,0:0:0:0:
252,192,71881,5,0,0:0:0:0:
256,192,72200,12,0,73477,0:0:0:0:
60,176,73796,6,0,P|188:80|276:116,1,265.999991882324
276,220,74594,1,0,0:0:0:0:
436,232,74753,2,0,B|380:224|380:224|324:312,1,132.999995941162
436,332,75232,1,0,0:0:0:0:
436,332,75392,1,0,0:0:0:0:
432,76,75551,1,0,0:0:0:0:
432,76,75711,1,0,0:0:0:0:
308,72,75870,2,0,B|240:72|240:72|152:96,1,132.999995941162
64,80,76349,5,0,0:0:0:0:
64,176,76509,1,0,0:0:0:0:
152,16,76668,1,0,0:0:0:0:
144,240,76828,1,0,0:0:0:0:
152,128,76987,2,0,P|196:128|196:128,1,33.2499989852906
224,128,77067,2,0,P|272:128|328:176,1,99.7499969558717
316,236,77466,5,0,0:0:0:0:
444,236,77625,1,0,0:0:0:0:
444,92,77785,1,0,0:0:0:0:
316,92,77944,1,0,0:0:0:0:
316,236,78104,1,0,0:0:0:0:
168,316,78264,5,0,0:0:0:0:
56,252,78423,1,0,0:0:0:0:
56,212,78502,1,0,0:0:0:0:
56,168,78583,1,0,0:0:0:0:
168,72,78743,1,0,0:0:0:0:
148,164,78902,6,0,L|180:236,1,66.4999979705811,0|0,0:0|0:0,0:0:0:0:
316,56,79221,2,0,L|380:80,1,66.4999979705811
408,252,79540,2,0,L|408:328,1,66.4999979705811
276,316,79860,2,0,L|212:340,1,66.4999979705811
128,252,80179,1,0,0:0:0:0:
128,160,80338,1,0,0:0:0:0:
220,104,80498,1,0,0:0:0:0:
308,164,80658,5,0,0:0:0:0:
416,192,80817,1,0,0:0:0:0:
464,96,80977,1,0,0:0:0:0:
388,20,81137,1,0,0:0:0:0:
288,68,81296,1,0,0:0:0:0:
260,172,81455,5,0,0:0:0:0:
300,312,81615,1,0,0:0:0:0:
188,228,81774,1,0,0:0:0:0:
328,228,81934,1,0,0:0:0:0:
220,312,82094,1,0,0:0:0:0:
112,224,82253,5,0,0:0:0:0:
256,100,82413,1,0,0:0:0:0:
408,224,82573,1,0,0:0:0:0:
456,48,82732,5,0,0:0:0:0:
64,348,82971,1,0,0:0:0:0:
264,192,83211,5,0,0:0:0:0:
264,192,83370,1,0,0:0:0:0:
264,320,83689,1,0,0:0:0:0:
72,72,83849,5,0,0:0:0:0:
100,88,83928,1,0,0:0:0:0:
132,96,84009,2,0,P|180:84|232:100,1,95
176,200,84328,1,0,0:0:0:0:
56,248,84487,2,0,L|56:344,1,95
468,156,84806,5,0,0:0:0:0:
440,172,84885,1,0,0:0:0:0:
408,180,84966,2,0,P|360:168|308:184,1,95
256,56,85285,1,0,0:0:0:0:
88,68,85445,5,0,0:0:0:0:
40,200,85605,1,0,0:0:0:0:
136,336,85765,5,0,0:0:0:0:
184,196,85924,1,0,0:0:0:0:
352,48,86084,5,0,0:0:0:0:
272,264,86243,1,0,0:0:0:0:
392,360,86403,5,0,0:0:0:0:
468,48,86562,1,0,0:0:0:0:
292,36,86721,6,0,L|188:112,1,95
256,196,87040,1,0,0:0:0:0:
256,196,87120,1,0,0:0:0:0:
256,196,87200,1,0,0:0:0:0:
152,196,87360,1,0,0:0:0:0:
152,100,87519,5,0,0:0:0:0:
56,196,87679,1,0,0:0:0:0:
144,296,87838,1,0,0:0:0:0:
56,196,87998,1,0,0:0:0:0:
472,192,88157,1,0,0:0:0:0:
56,196,88317,1,0,0:0:0:0:
256,40,88477,1,0,0:0:0:0:
256,340,88636,1,0,0:0:0:0:
256,40,88796,1,0,0:0:0:0:
256,128,88955,5,0,0:0:0:0:
256,160,89035,1,0,0:0:0:0:
256,192,89115,1,0,0:0:0:0:
256,228,89194,1,0,0:0:0:0:
256,260,89274,1,0,0:0:0:0:
256,296,89354,1,0,0:0:0:0:
288,300,89434,6,0,L|396:360,1,95
76,296,89754,1,0,0:0:0:0:
380,72,89913,2,0,L|480:48,1,95
160,96,90232,1,0,0:0:0:0:
204,200,90392,5,0,0:0:0:0:
292,200,90552,1,0,0:0:0:0:
112,200,90711,1,0,0:0:0:0:
384,200,90871,1,0,0:0:0:0:
24,200,91030,1,0,0:0:0:0:
476,200,91189,5,0,0:0:0:0:
112,200,91349,1,0,0:0:0:0:
384,200,91509,1,0,0:0:0:0:
204,200,91668,1,0,0:0:0:0:
292,200,91828,1,0,0:0:0:0:
216,336,91987,6,0,L|324:336,1,95
324,44,92306,2,0,L|256:112,1,95
416,124,92626,1,0,0:0:0:0:
132,68,92785,6,0,L|68:84,1,47.5
192,136,92944,2,0,L|244:168,1,47.5
96,224,93104,2,0,L|124:288,1,47.5
260,276,93263,6,0,L|316:232,1,47.5
424,240,93423,2,0,L|464:272,1,47.5
364,136,93583,2,0,L|364:20,1,95
256,188,94221,5,0,0:0:0:0:
