osu file format v14

[General]
AudioFilename: audio.mp3
AudioLeadIn: 0
PreviewTime: 5406
Countdown: 1
SampleSet: None
StackLeniency: 0.7
Mode: 0
LetterboxInBreaks: 0
WidescreenStoryboard: 0

[Editor]
DistanceSpacing: 1
BeatDivisor: 4
GridSize: 32
TimelineZoom: 1

[Metadata]
Title:Lolipop
TitleUnicode:Lolipop
Artist:Jun Yamaguchi
ArtistUnicode:Jun Yamaguchi
Creator:Yogurtt
Version:lolis
Source:
Tags:kizuna ai
BeatmapID:1636712
BeatmapSetID:779420

[Difficulty]
HPDrainRate:3
CircleSize:3
OverallDifficulty:10
ApproachRate:9.7
SliderMultiplier:3.59999990463257
SliderTickRate:1

[Events]
//Background and Video events
0,0,"thumb-1920-861275.png",0,0
//Break Periods
//Storyboard Layer 0 (Background)
//Storyboard Layer 1 (Fail)
//Storyboard Layer 2 (Pass)
//Storyboard Layer 3 (Foreground)
//Storyboard Sound Samples

[TimingPoints]
32,346.820809248555,4,2,33,80,1,0
378,346.820809248555,4,2,33,80,1,0
2285,-285.714285714284,4,2,33,80,0,0
3152,-100,4,2,33,80,0,0
5060,-285.714285714284,4,2,33,80,0,0
5927,-100,4,2,33,80,0,0
7834,-285.714285714284,4,2,33,80,0,0
8354,-100,4,2,33,80,0,0

[HitObjects]
119,58,32,5,8,0:0:0:0:
119,58,118,1,8,0:0:0:0:
119,58,205,1,8,0:0:0:0:
119,58,292,1,8,0:0:0:0:
119,58,378,6,0,P|229:119|102:81,1,359.999990463257,6|8,0:0|0:0,0:0:0:0:
198,39,813,1,0,0:0:0:0:
198,39,900,2,0,P|240:99|239:148,1,89.9999976158142
57,280,1073,2,0,L|434:235,1,359.999990463257,2|8,0:0|0:0,0:0:0:0:
407,230,1507,1,0,0:0:0:0:
400,223,1593,2,0,B|445:199|452:144|452:144|458:252|555:270,1,269.999992847443,2|0,0:0|0:0,0:0:0:0:
451,145,1940,2,0,L|333:119,1,89.9999976158142,8|0,0:0|0:0,0:0:0:0:
249,233,2112,2,0,L|162:253,1,89.9999976158143,8|0,0:0|0:0,0:0:0:0:
150,20,2285,6,0,L|37:-7,1,94.499994612694,10|0,0:0|0:0,0:0:0:0:
195,87,2632,6,0,L|199:115,1,15.7499991021157,8|0,0:0|0:0,0:0:0:0:
279,106,2808,6,0,L|283:134,1,15.7499991021157,8|0,0:0|0:0,0:0:0:0:
363,125,2981,6,0,L|366:153,1,15.7499991021157,8|0,0:0|0:0,0:0:0:0:
495,346,3152,6,0,P|421:389|249:230,1,359.999990463257,6|8,0:0|0:0,0:0:0:0:
335,270,3586,1,0,0:0:0:0:
335,270,3672,2,0,P|364:303|408:303,1,89.9999976158143
124,19,3846,2,0,L|171:390,1,359.999990463257,2|8,0:0|0:0,0:0:0:0:
226,59,4279,1,0,0:0:0:0:
226,59,4366,2,0,L|264:362,1,269.999992847443,2|0,0:0|0:0,0:0:0:0:
476,15,4713,2,0,L|367:-4,1,89.9999976158143,8|0,0:0|0:0,0:0:0:0:
363,125,4886,2,0,L|254:106,1,89.9999976158143,8|0,0:0|0:0,0:0:0:0:
250,235,5060,6,0,L|141:216,1,94.499994612694,8|0,0:0|0:0,0:0:0:0:
161,219,5406,1,0,0:0:0:0:
51,11,5580,1,8,0:0:0:0:
50,18,5667,1,8,0:0:0:0:
49,25,5753,1,8,0:0:0:0:
48,32,5840,1,8,0:0:0:0:
48,40,5927,6,0,B|103:56|139:111|139:111|227:101|227:101|285:165|390:129,1,359.999990463257,6|8,0:0|0:0,0:0:0:0:
161,219,6360,1,0,0:0:0:0:
150,219,6447,2,0,L|31:229,1,89.9999976158143
245,354,6620,2,0,B|397:395|432:258|432:258|389:211|301:235,1,359.999990463257,2|8,0:0|0:0,0:0:0:0:
13,116,7054,1,0,0:0:0:0:
13,116,7141,2,0,P|105:62|258:168,1,269.999992847443,2|0,0:0|0:0,0:0:0:0:
133,384,7487,2,0,L|116:276,1,89.9999976158143,8|0,0:0|0:0,0:0:0:0:
366,352,7661,2,0,L|383:244,1,89.9999976158143,8|0,0:0|0:0,0:0:0:0:
241,127,7834,6,0,L|257:234,1,94.499994612694,8|0,0:0|0:0,0:0:0:0:
254,220,8181,2,0,L|313:205,1,31.4999982042313,8|0,0:0|0:0,0:0:0:0:
70,33,8354,1,8,0:0:0:0:
65,141,8441,1,8,0:0:0:0:
166,180,8528,1,8,0:0:0:0:
234,96,8614,1,8,0:0:0:0:
175,6,8701,5,12,0:0:0:0:
55,278,8875,1,0,0:0:0:0:
396,349,9048,1,10,0:3:0:0:
396,342,9135,1,8,0:3:0:0:
396,334,9221,2,0,L|294:347,1,89.9999976158143,8|0,0:3|0:3,0:3:0:0:
166,187,9395,1,2,0:0:0:0:
166,180,9482,1,0,0:0:0:0:
166,173,9568,1,0,0:0:0:0:
502,362,9742,5,10,0:0:0:0:
10,22,9915,1,4,0:0:0:0:
