osu file format v14

[General]
AudioFilename: audio.mp3
AudioLeadIn: 0
PreviewTime: 62619
Countdown: 0
SampleSet: None
StackLeniency: 0.8
Mode: 0
LetterboxInBreaks: 0
WidescreenStoryboard: 0

[Editor]
DistanceSpacing: 1.5
BeatDivisor: 8
GridSize: 4
TimelineZoom: 1

[Metadata]
Title:Watashi no Koe
TitleUnicode:Watashi no Koe
Artist:Jun Naruse (CV: Minase Inori)
ArtistUnicode:Jun Naruse (CV: Minase Inori)
Creator:Silent Rock
Version:Watashi no Koe
Source:Kokoro ga Sakebitagatterunda
Tags:Inori Minase, Yoshimasa Hosoya, Rie Takahashi, Takanori Ohama, Junichi Yanagita, Hiromichi Tezuka, Ryuichi Kijima, Masumi Tazawa, Ryoko Maekawa, Seiichiro Yamashita, Yuna Yoshino, and Marie Miyake
BeatmapID:1460428
BeatmapSetID:690002

[Difficulty]
HPDrainRate:5
CircleSize:4.5
OverallDifficulty:6
ApproachRate:8
SliderMultiplier:1.4
SliderTickRate:1

[Events]
//Background and Video events
0,0,"Talk BG.jpg",0,0
//Break Periods
//Storyboard Layer 0 (Background)
//Storyboard Layer 1 (Fail)
//Storyboard Layer 2 (Pass)
//Storyboard Layer 3 (Foreground)
//Storyboard Sound Samples

[TimingPoints]
455.923233682634,576.923076923077,3,2,1,60,1,0
62763,-100,3,2,1,60,0,1
88725,-100,3,2,1,60,0,0
91465,-100,3,2,1,80,0,0
91609,-100,3,2,1,70,0,0
91826,-100,3,2,1,60,0,0
94999,-100,3,2,1,80,0,0
95143,-100,3,2,1,70,0,0
95287,-100,3,2,1,60,0,0
116345,-100,3,2,1,65,0,0
116922,-100,3,2,1,70,0,0
117499,-100,3,2,1,75,0,0
118076,-80,3,2,1,80,0,1
121537,-80,3,2,2,80,0,1
121970,-80,3,2,1,80,0,1
124999,-80,3,2,2,80,0,1
125431,-80,3,2,1,80,0,1
128460,-80,3,2,2,80,0,1
128893,-80,3,2,1,80,0,1
135383,-80,3,2,2,80,0,1
135816,-80,3,2,1,80,0,1
138845,-80,3,2,2,80,0,1
139278,-80,3,2,1,80,0,1
144045,-80,3,2,1,80,0,0
147427,-100,3,2,1,80,0,0

[Colours]
Combo1 : 227,63,45
Combo2 : 0,255,168
Combo3 : 244,250,37
Combo4 : 0,191,255

[HitObjects]
184,100,455,6,0,P|256:80|340:112,1,140,0|2,0:0|0:0,0:0:0:0:
256,224,1609,1,0,0:0:0:0:
136,292,2186,6,0,P|104:236|112:164,1,140
248,200,3340,1,0,0:0:0:0:
388,208,3917,6,0,P|384:288|336:344,1,140,0|2,0:0|0:0,0:0:0:0:
236,252,5071,1,0,0:0:0:0:
156,136,5648,6,0,P|224:104|296:116,1,140
256,248,6802,1,0,0:0:0:0:
140,324,7379,6,0,P|192:360|288:368,1,140,0|2,0:0|0:0,0:0:0:0:
266,371,8244,2,0,P|308:360|352:328,1,70,0|8,0:0|0:0,0:0:0:0:
244,236,9109,1,0,0:0:0:0:
372,180,9686,1,0,0:0:0:0:
252,108,10263,1,0,0:0:0:0:
120,152,10840,6,0,P|188:200|216:264,1,140,0|2,0:0|0:0,0:0:0:0:
184,312,11705,2,0,P|148:316|112:340,1,70,0|8,0:0|0:0,0:0:0:0:
4,256,12571,1,0,0:0:0:0:
104,156,13148,1,0,0:0:0:0:
160,284,13725,1,0,0:0:0:0:
272,200,14302,6,0,P|352:160|412:160,1,140,0|2,0:0|0:0,0:0:0:0:
401,158,15167,2,0,P|444:176|476:208,1,70,0|8,0:0|0:0,0:0:0:0:
404,320,16032,1,0,0:0:0:0:
284,244,16609,1,0,0:0:0:0:
360,124,17186,1,0,0:0:0:0:
224,84,17763,2,0,P|212:136|256:224,1,140,0|2,0:0|0:0,0:0:0:0:
312,232,18629,6,0,P|312:268|284:308,1,70,0|8,0:0|0:0,0:0:0:0:
160,264,19494,1,0,0:0:0:0:
244,152,20071,1,0,0:0:0:0:
120,88,20648,1,0,0:0:0:0:
52,208,21225,6,0,P|124:248|196:228,1,140,0|2,0:0|0:0,0:0:0:0:
177,238,22090,2,0,P|220:208|232:184,1,70,0|8,0:0|0:0,0:0:0:0:
272,60,22955,1,0,0:0:0:0:
276,60,23532,1,0,0:0:0:0:
280,60,24109,1,0,0:0:0:0:
420,40,24686,6,0,P|412:96|440:184,1,140,0|2,0:0|0:0,0:0:0:0:
460,240,25552,2,0,P|436:264|396:280,1,70,0|8,0:0|0:0,0:0:0:0:
264,280,26417,1,0,0:0:0:0:
148,200,26994,1,0,0:0:0:0:
260,112,27571,1,0,0:0:0:0:
212,244,28148,6,0,P|144:264|80:324,1,140,0|2,0:0|0:0,0:0:0:0:
20,308,29013,2,0,P|8:276|16:224,1,70,0|8,0:0|0:0,0:0:0:0:
48,104,29879,1,0,0:0:0:0:
128,220,30455,1,0,0:0:0:0:
164,84,31032,1,0,0:0:0:0:
256,188,31609,2,0,P|196:240|192:320,1,140,0|2,0:0|0:0,0:0:0:0:
240,340,32475,1,0,0:0:0:0:
308,320,32763,2,0,B|328:312|348:312|348:312|368:332|368:332|388:324|404:332|420:348|432:328|432:328|440:300,1,140,8|4,0:0|0:0,0:0:0:0:
432,326,34494,5,0,0:0:0:0:
492,200,35070,2,0,P|436:156|364:168,1,140,0|2,0:0|0:0,0:0:0:0:
292,232,35935,1,0,0:0:0:0:
292,232,36224,2,0,P|352:268|424:260,1,140,8|0,0:0|0:0,0:0:0:0:
376,56,37378,1,0,0:0:0:0:
312,140,37667,1,0,0:0:0:0:
256,52,37955,1,0,0:0:0:0:
196,140,38244,1,0,0:0:0:0:
136,56,38531,6,0,P|84:72|-4:56,1,140,0|2,0:0|0:0,0:0:0:0:
92,8,39397,1,0,0:0:0:0:
140,100,39685,2,0,B|156:144|116:192|144:244,1,140,8|0,0:0|0:0,0:0:0:0:
348,264,40839,1,0,0:0:0:0:
260,320,41129,1,0,0:0:0:0:
240,220,41416,1,0,0:0:0:0:
328,160,41705,1,0,0:0:0:0:
424,204,41994,2,0,P|480:252|496:324,1,140,0|2,0:0|0:0,0:0:0:0:
408,368,42859,1,0,0:0:0:0:
332,296,43148,2,0,L|332:156,1,140,8|0,0:0|0:0,0:0:0:0:
332,156,44302,5,0,0:0:0:0:
252,224,44590,1,0,0:0:0:0:
344,272,44879,1,0,0:0:0:0:
256,328,45167,1,0,0:0:0:0:
344,384,45455,2,0,P|424:388|488:356,1,140,0|2,0:0|0:0,0:0:0:0:
504,264,46320,1,0,0:0:0:0:
504,264,46609,2,0,P|428:260|364:292,1,140,8|0,0:0|0:0,0:0:0:0:
180,372,47763,5,0,0:0:0:0:
180,372,47907,1,0,0:0:0:0:
180,372,48052,1,0,0:0:0:0:
284,348,48340,1,0,0:0:0:0:
212,272,48629,1,0,0:0:0:0:
288,200,48917,2,0,P|292:180|216:88,1,140,0|2,0:0|0:0,0:0:0:0:
152,160,49782,1,0,0:0:0:0:
164,264,50071,2,0,P|208:320|288:332,1,140,8|0,0:0|0:0,0:0:0:0:
428,196,51225,5,0,0:0:0:0:
352,120,51513,1,0,0:0:0:0:
328,220,51802,1,0,0:0:0:0:
404,148,52090,1,0,0:0:0:0:
304,112,52379,2,0,P|232:128|180:184,1,140,0|2,0:0|0:0,0:0:0:0:
184,280,53244,1,0,0:0:0:0:
284,312,53533,2,0,P|293:259|252:176,1,140,8|0,0:0|0:0,0:0:0:0:
258,182,54687,5,0,0:0:0:0:
208,272,54975,1,0,0:0:0:0:
108,236,55264,1,0,0:0:0:0:
132,132,55552,1,0,0:0:0:0:
232,160,55840,2,0,B|292:140|320:184|392:172,1,140,0|2,0:0|0:0,0:0:0:0:
412,272,56705,1,0,0:0:0:0:
328,336,56994,2,0,B|272:360|228:312|172:340,1,140,8|0,0:0|0:0,0:0:0:0:
190,333,58148,5,0,0:0:0:0:
100,280,58436,1,0,0:0:0:0:
184,220,58725,1,0,0:0:0:0:
96,164,59013,1,0,0:0:0:0:
168,88,59302,2,0,P|232:68|304:88,1,140,0|2,0:0|0:0,0:0:0:0:
348,180,60167,1,0,0:0:0:0:
348,180,60456,2,0,P|288:200|208:176,1,140,8|4,0:0|0:0,0:0:0:0:
56,44,61610,5,0,0:0:0:0:
12,72,61754,1,0,0:0:0:0:
40,116,61898,1,0,0:0:0:0:
8,216,62186,1,0,0:0:0:0:
48,312,62475,1,0,0:0:0:0:
136,264,62763,2,0,P|172:244|208:264,1,70
284,312,63340,5,2,0:0:0:0:
340,224,63629,1,0,0:0:0:0:
264,152,63917,2,0,B|204:144|200:172|164:164|144:100,1,140
236,52,64782,1,0,0:0:0:0:
332,100,65071,1,0,0:0:0:0:
280,188,65359,1,0,0:0:0:0:
320,220,65504,1,0,0:0:0:0:
292,264,65648,1,0,0:0:0:0:
188,284,65936,1,0,0:0:0:0:
104,220,66225,6,0,P|124:180|128:140,1,70
36,108,66802,1,2,0:0:0:0:
124,48,67091,1,0,0:0:0:0:
216,100,67379,2,0,B|256:128|248:184|320:196,1,140,8|0,0:0|0:0,0:0:0:0:
412,160,68244,1,0,0:0:0:0:
320,108,68533,1,0,0:0:0:0:
252,188,68821,1,0,0:0:0:0:
296,216,68965,1,0,0:0:0:0:
292,268,69110,1,0,0:0:0:0:
380,324,69398,1,0,0:0:0:0:
420,228,69686,6,0,P|421:189|436:148,1,70
416,56,70263,1,2,0:0:0:0:
324,112,70552,1,0,0:0:0:0:
340,216,70840,2,0,P|328:292|264:328,1,140,8|0,0:0|0:0,0:0:0:0:
184,280,71705,1,0,0:0:0:0:
256,204,71994,1,0,0:0:0:0:
156,168,72282,1,0,0:0:0:0:
108,184,72427,1,0,0:0:0:0:
76,140,72571,1,0,0:0:0:0:
152,68,72859,1,0,0:0:0:0:
232,140,73148,6,0,P|244:176|236:224,1,70
156,268,73725,1,2,0:0:0:0:
80,196,74014,1,0,0:0:0:0:
4,268,74302,2,0,P|24:328|112:356,1,140,8|0,0:0|0:0,0:0:0:0:
196,344,75167,1,0,0:0:0:0:
140,256,75456,1,0,0:0:0:0:
224,196,75744,1,0,0:0:0:0:
180,228,75889,1,0,0:0:0:0:
140,256,76033,1,0,0:0:0:0:
88,164,76321,1,0,0:0:0:0:
156,84,76609,6,0,P|184:88|240:128,1,70
212,212,77186,1,2,0:0:0:0:
316,188,77475,1,0,0:0:0:0:
316,292,77763,2,0,P|376:296|440:240,1,140,8|0,0:0|0:0,0:0:0:0:
460,144,78628,1,0,0:0:0:0:
388,68,78917,1,0,0:0:0:0:
312,140,79205,1,0,0:0:0:0:
316,192,79350,1,0,0:0:0:0:
268,216,79494,1,0,0:0:0:0:
180,272,79782,1,0,0:0:0:0:
256,348,80071,6,0,P|280:320|288:272,1,70
276,184,80648,1,2,0:0:0:0:
184,232,80937,1,0,0:0:0:0:
152,132,81225,2,0,P|176:92|264:64,1,140,8|0,0:0|0:0,0:0:0:0:
344,132,82090,1,0,0:0:0:0:
292,224,82379,1,0,0:0:0:0:
192,248,82667,1,0,0:0:0:0:
140,256,82812,1,0,0:0:0:0:
136,308,82956,1,0,0:0:0:0:
84,216,83244,1,0,0:0:0:0:
164,148,83532,6,0,P|208:172|224:204,1,70
232,292,84109,1,2,0:0:0:0:
336,268,84398,1,0,0:0:0:0:
332,164,84686,2,0,P|276:132|228:72,1,140,8|0,0:0|0:0,0:0:0:0:
324,28,85551,1,0,0:0:0:0:
304,132,85840,1,0,0:0:0:0:
380,204,86128,1,0,0:0:0:0:
420,236,86273,1,0,0:0:0:0:
396,280,86417,1,0,0:0:0:0:
292,276,86705,1,0,0:0:0:0:
200,328,86994,6,0,P|172:320|144:284,1,70
120,188,87571,1,2,0:0:0:0:
160,92,87859,1,0,0:0:0:0:
256,48,88148,1,0,0:0:0:0:
360,60,88436,1,8,0:0:0:0:
436,132,88725,1,4,0:0:0:0:
436,132,89879,6,0,P|448:172|444:220,1,70
308,180,90455,1,0,0:0:0:0:
348,312,90744,1,0,0:0:0:0:
348,312,90888,1,0,0:0:0:0:
348,312,91032,1,2,0:0:0:0:
208,300,91321,5,0,0:0:0:0:
180,164,91609,1,8,0:0:0:0:
252,164,91754,1,8,0:0:0:0:
312,196,91898,1,0,0:0:0:0:
336,260,92042,1,0,0:0:0:0:
320,328,92186,1,0,0:0:0:0:
180,308,92475,1,0,0:0:0:0:
288,220,92763,5,0,0:0:0:0:
288,220,92907,1,0,0:0:0:0:
288,220,93052,1,0,0:0:0:0:
156,180,93340,1,0,0:0:0:0:
260,84,93629,2,0,P|240:44|204:28,1,70,0|4,0:0|0:0,0:0:0:0:
84,72,94206,1,0,0:0:0:0:
84,72,94350,1,0,0:0:0:0:
84,72,94494,1,2,0:0:0:0:
208,136,94783,1,0,0:0:0:0:
92,212,95071,5,8,0:0:0:0:
120,276,95216,1,8,0:0:0:0:
180,312,95360,1,0,0:0:0:0:
248,304,95504,1,0,0:0:0:0:
300,256,95648,1,0,0:0:0:0:
360,128,95937,5,0,0:0:0:0:
220,128,96225,1,0,0:0:0:0:
220,128,96369,1,0,0:0:0:0:
220,128,96514,1,0,0:0:0:0:
304,240,96802,1,0,0:0:0:0:
168,264,97090,2,0,P|140:264|100:240,1,70,0|4,0:0|0:0,0:0:0:0:
80,104,97667,1,0,0:0:0:0:
80,104,97811,1,0,0:0:0:0:
80,104,97955,1,2,0:0:0:0:
200,176,98244,1,0,0:0:0:0:
256,48,98532,5,8,0:0:0:0:
325,37,98677,1,8,0:0:0:0:
387,69,98821,1,0,0:0:0:0:
416,131,98965,1,0,0:0:0:0:
403,201,99109,1,0,0:0:0:0:
272,248,99398,5,0,0:0:0:0:
320,116,99686,1,0,0:0:0:0:
320,116,99830,1,0,0:0:0:0:
320,116,99975,1,0,0:0:0:0:
428,204,100263,1,0,0:0:0:0:
360,324,100551,2,0,P|332:324|292:300,1,70,0|4,0:0|0:0,0:0:0:0:
336,168,101129,1,0,0:0:0:0:
336,168,101273,1,0,0:0:0:0:
336,168,101417,1,2,0:0:0:0:
220,88,101706,1,0,0:0:0:0:
88,132,101994,5,8,0:0:0:0:
57,194,102139,1,8,0:0:0:0:
69,264,102283,1,0,0:0:0:0:
120,310,102427,1,0,0:0:0:0:
190,318,102571,1,0,0:0:0:0:
296,224,102860,5,0,0:0:0:0:
172,164,103148,1,0,0:0:0:0:
172,164,103292,1,0,0:0:0:0:
172,164,103437,1,0,0:0:0:0:
304,240,103725,1,0,0:0:0:0:
364,116,104013,2,0,P|348:92|344:48,1,70,0|4,0:0|0:0,0:0:0:0:
480,16,104590,1,0,0:0:0:0:
480,16,104734,1,0,0:0:0:0:
480,16,104878,1,2,0:0:0:0:
492,156,105167,1,0,0:0:0:0:
404,264,105455,5,8,0:0:0:0:
337,286,105600,1,8,0:0:0:0:
270,265,105744,1,0,0:0:0:0:
231,209,105888,1,0,0:0:0:0:
232,138,106032,1,0,0:0:0:0:
364,188,106321,5,0,0:0:0:0:
260,280,106609,1,0,0:0:0:0:
260,280,106753,1,0,0:0:0:0:
260,280,106898,1,0,0:0:0:0:
144,200,107186,1,0,0:0:0:0:
252,112,107474,2,0,P|248:84|224:52,1,70,0|4,0:0|0:0,0:0:0:0:
84,68,108052,1,0,0:0:0:0:
84,68,108196,1,0,0:0:0:0:
84,68,108340,1,2,0:0:0:0:
176,172,108629,1,0,0:0:0:0:
72,268,108917,5,8,0:0:0:0:
100,332,109062,1,8,0:0:0:0:
160,368,109206,1,0,0:0:0:0:
228,360,109350,1,0,0:0:0:0:
280,312,109494,1,0,0:0:0:0:
160,240,109783,5,0,0:0:0:0:
280,168,110071,1,0,0:0:0:0:
280,168,110215,1,0,0:0:0:0:
280,168,110360,1,0,0:0:0:0:
156,104,110648,1,0,0:0:0:0:
112,236,110936,2,0,P|156:236|180:212,1,70,0|4,0:0|0:0,0:0:0:0:
112,96,111513,1,0,0:0:0:0:
112,96,111657,1,0,0:0:0:0:
112,96,111801,1,2,0:0:0:0:
240,36,112090,1,0,0:0:0:0:
380,52,112378,5,8,0:0:0:0:
444,78,112523,1,8,0:0:0:0:
481,138,112667,1,0,0:0:0:0:
474,206,112811,1,0,0:0:0:0:
427,259,112955,1,0,0:0:0:0:
344,148,113244,5,0,0:0:0:0:
252,252,113532,1,0,0:0:0:0:
252,252,113676,1,0,0:0:0:0:
252,252,113821,1,0,0:0:0:0:
144,164,114109,1,0,0:0:0:0:
256,80,114397,2,0,P|284:108|296:148,1,70,0|4,0:0|0:0,0:0:0:0:
280,276,114975,1,0,0:0:0:0:
280,276,115119,1,0,0:0:0:0:
280,276,115263,1,2,0:0:0:0:
140,256,115552,1,0,0:0:0:0:
76,132,115840,5,8,0:0:0:0:
104,68,115985,1,8,0:0:0:0:
164,32,116129,1,0,0:0:0:0:
232,40,116273,1,0,0:0:0:0:
208,124,116417,5,8,0:0:0:0:
224,200,116561,1,8,0:0:0:0:
292,240,116706,1,0,0:0:0:0:
368,224,116850,1,0,0:0:0:0:
352,128,116994,5,8,0:0:0:0:
268,116,117138,1,8,0:0:0:0:
200,164,117282,1,0,0:0:0:0:
192,248,117427,1,0,0:0:0:0:
260,320,117571,5,8,0:0:0:0:
312,244,117715,1,8,0:0:0:0:
304,152,117859,1,0,0:0:0:0:
236,92,118004,1,8,0:0:0:0:
136,72,118148,6,0,P|84:80|48:108,1,87.5,4|0,0:0|0:0,0:0:0:0:
16,152,118580,1,0,0:0:0:0:
16,216,118725,1,2,0:0:0:0:
108,312,119013,2,0,P|164:328|204:312,1,87.5,8|0,0:0|0:0,0:0:0:0:
248,292,119446,1,0,0:0:0:0:
272,232,119590,1,0,0:0:0:0:
252,168,119734,1,0,0:0:0:0:
192,136,119879,6,0,P|144:120|120:80,1,87.5
232,16,120455,1,0,0:0:0:0:
232,16,120600,1,0,0:0:0:0:
232,16,120744,1,0,0:0:0:0:
320,112,121032,2,0,P|296:152|300:208,1,87.5,4|0,0:0|0:0,0:0:0:0:
332,248,121465,1,0,0:0:0:0:
392,220,121609,6,8,P|356:188|304:188,1,87.5
252,196,122042,1,0,0:0:0:0:
200,236,122186,1,0,0:0:0:0:
144,356,122475,2,0,P|100:348|68:304,1,87.5,8|0,0:0|0:0,0:0:0:0:
56,256,122907,1,0,0:0:0:0:
104,208,123052,1,0,0:0:0:0:
84,144,123196,1,0,0:0:0:0:
124,92,123340,6,0,P|164:60|212:60,1,87.5
328,80,123917,1,0,0:0:0:0:
352,140,124061,1,0,0:0:0:0:
304,184,124205,1,0,0:0:0:0:
184,128,124494,2,0,P|168:184|184:224,1,87.5,4|0,0:0|0:0,0:0:0:0:
220,260,124927,1,0,0:0:0:0:
284,268,125071,6,8,P|316:232|368:220,1,87.5
420,220,125504,1,0,0:0:0:0:
480,248,125649,1,2,0:0:0:0:
420,364,125937,2,0,P|392:332|336:328,1,87.5,8|0,0:0|0:0,0:0:0:0:
288,340,126369,1,0,0:0:0:0:
224,360,126514,1,0,0:0:0:0:
164,336,126657,1,0,0:0:0:0:
132,276,126803,6,0,P|120:232|132:184,1,87.5
208,88,127379,1,0,0:0:0:0:
208,88,127524,1,0,0:0:0:0:
208,88,127668,1,0,0:0:0:0:
300,180,127955,2,0,P|276:216|232:236,1,87.5,4|0,0:0|0:0,0:0:0:0:
172,240,128388,1,0,0:0:0:0:
136,296,128532,6,8,P|88:316|44:292,1,87.5
32,244,128965,1,0,0:0:0:0:
76,196,129109,2,0,P|96:160|96:108,1,87.5,2|8,0:0|0:0,0:0:0:0:
192,208,129686,2,0,P|176:264|184:312,1,87.5
216,344,130119,1,0,0:0:0:0:
272,376,130263,5,8,0:0:0:0:
272,312,130407,1,8,0:0:0:0:
292,248,130552,1,0,0:0:0:0:
340,204,130696,1,0,0:0:0:0:
376,284,130840,5,8,0:0:0:0:
304,304,130984,1,8,0:0:0:0:
240,264,131129,1,0,0:0:0:0:
224,192,131273,1,0,0:0:0:0:
316,216,131417,5,8,0:0:0:0:
296,136,131561,1,8,0:0:0:0:
220,108,131705,1,0,0:0:0:0:
140,136,131850,1,8,0:0:0:0:
88,200,131994,6,0,P|76:260|96:292,1,87.5
128,332,132427,1,0,0:0:0:0:
192,328,132571,1,2,0:0:0:0:
276,228,132860,2,0,P|248:180|204:168,1,87.5,8|0,0:0|0:0,0:0:0:0:
156,172,133292,1,0,0:0:0:0:
124,112,133437,1,0,0:0:0:0:
172,68,133580,1,0,0:0:0:0:
236,84,133726,6,0,P|248:116|288:148,1,87.5
412,192,134302,1,0,0:0:0:0:
412,192,134447,1,0,0:0:0:0:
412,192,134591,1,0,0:0:0:0:
368,316,134878,2,0,P|324:308|292:264,1,87.5,4|0,0:0|0:0,0:0:0:0:
296,212,135311,1,0,0:0:0:0:
276,148,135455,6,8,P|264:116|216:92,1,87.5
152,92,135888,1,0,0:0:0:0:
96,128,136033,1,2,0:0:0:0:
152,248,136321,2,0,P|192:212|196:168,1,87.5,8|0,0:0|0:0,0:0:0:0:
176,120,136753,1,0,0:0:0:0:
216,68,136898,1,0,0:0:0:0:
280,68,137041,1,0,0:0:0:0:
336,104,137187,6,0,P|352:152|340:188,1,87.5
212,188,137763,1,0,0:0:0:0:
208,252,137908,1,0,0:0:0:0:
264,284,138052,1,0,0:0:0:0:
384,236,138339,2,0,P|372:200|320:188,1,87.5,4|0,0:0|0:0,0:0:0:0:
272,224,138772,1,0,0:0:0:0:
208,244,138917,6,8,P|176:232|164:172,1,87.5
200,132,139350,1,0,0:0:0:0:
160,80,139495,1,2,0:0:0:0:
52,152,139783,2,0,P|80:184|80:232,1,87.5,8|0,0:0|0:0,0:0:0:0:
52,284,140215,1,0,0:0:0:0:
76,344,140360,1,0,0:0:0:0:
136,364,140503,1,0,0:0:0:0:
196,340,140649,6,0,P|224:300|264:288,1,87.5
388,312,141225,1,0,0:0:0:0:
388,312,141370,1,0,0:0:0:0:
388,312,141514,1,0,0:0:0:0:
360,184,141801,2,0,P|336:220|288:232,1,87.5,4|0,0:0|0:0,0:0:0:0:
232,212,142234,1,0,0:0:0:0:
172,188,142379,6,0,P|128:204|108:252,1,87.5
120,304,142812,1,0,0:0:0:0:
180,328,142957,1,2,0:0:0:0:
304,284,143245,2,0,P|276:252|220:248,1,87.5,8|0,0:0|0:0,0:0:0:0:
168,256,143677,1,0,0:0:0:0:
104,244,143822,1,0,0:0:0:0:
84,180,143965,1,0,0:0:0:0:
128,132,144111,6,0,P|136:96|116:44,1,87.5
72,172,144686,2,0,P|36:192|16:240,1,87.5
144,192,145263,2,0,P|168:220|216:236,1,87.5
336,184,145840,6,0,P|308:148|264:132,1,87.5,4|0,0:0|0:0,0:0:0:0:
184,148,146417,1,2,0:0:0:0:
228,224,146705,1,0,0:0:0:0:
144,208,146994,1,0,0:0:0:0:
180,288,147282,1,0,0:0:0:0:
268,308,147571,6,0,P|308:308|340:288,1,70
380,216,148148,2,0,P|368:176|336:152,1,70
256,160,148725,2,0,P|232:188|228:228,1,70
196,304,149302,6,0,P|164:308|120:288,1,70,4|0,0:0|0:0,0:0:0:0:
72,224,149879,1,2,0:0:0:0:
164,224,150167,1,0,0:0:0:0:
116,144,150455,1,0,0:0:0:0:
208,152,150744,1,0,0:0:0:0:
236,240,151032,2,0,P|252:268|296:284,1,70
372,256,151609,2,0,P|348:224|308:216,1,70
236,240,152186,2,0,P|252:268|296:284,1,70
352,224,152763,6,0,P|336:192|344:160,1,70,4|0,0:0|0:0,0:0:0:0:
456,100,153340,1,2,0:0:0:0:
444,232,153629,1,0,0:0:0:0:
312,308,153917,1,0,0:0:0:0:
144,268,154205,1,0,0:0:0:0:
84,80,154494,2,0,L|88:60,2,17.5,0|0|4,0:0|0:0|0:0,0:0:0:0:
