osu file format v14

[General]
AudioFilename: Toaru Kaizoku Ou no Kimagure.mp3
AudioLeadIn: 0
PreviewTime: 37537
Countdown: 0
SampleSet: Soft
StackLeniency: 0.3
Mode: 0
LetterboxInBreaks: 0
WidescreenStoryboard: 0

[Editor]
DistanceSpacing: 1.7
BeatDivisor: 4
GridSize: 4
TimelineZoom: 1.600005

[Metadata]
Title:Toaru Kaizoku Ou no Kimagure
TitleUnicode:とある海賊王の気まぐれ
Artist:Jun Maeda x yanaginagi
ArtistUnicode:麻枝 准×やなぎなぎ
Creator:Yohanes
Version:Relentless
Source:
Tags:終わりの惑星の Love Song Owari no Hoshi no Flaming June marathon The Whimps of a Pirate King yaldo_27
BeatmapID:1011658
BeatmapSetID:473441

[Difficulty]
HPDrainRate:6.5
CircleSize:4.2
OverallDifficulty:8.5
ApproachRate:9
SliderMultiplier:1.8
SliderTickRate:1

[Events]
//Background and Video events
0,0,"WP.jpg",0,0
//Break Periods
2,259287,260162
//Storyboard Layer 0 (Background)
//Storyboard Layer 1 (Fail)
//Storyboard Layer 2 (Pass)
//Storyboard Layer 3 (Foreground)
//Storyboard Sound Samples

[TimingPoints]
288,333.333333333333,4,2,1,55,1,0
37621,-100,4,2,1,65,0,1
69621,-100,4,2,1,55,0,0
101621,-100,4,2,1,65,0,1
125621,-100,4,2,1,65,0,0
162954,-100,4,2,1,65,0,1
173621,-142.857142857143,4,2,1,55,0,0
174621,-100,4,2,1,5,0,0
174787,-133.333333333333,4,2,1,40,0,0
184954,-66.6666666666667,4,2,1,55,0,0
185621,-100,4,2,1,55,0,0
201621,-142.857142857143,4,2,1,55,0,0
202121,-100,4,2,1,55,0,0
202954,-100,4,2,1,65,0,1
258954,-100,4,2,1,5,0,0
261212,566.037735849057,4,2,1,40,1,0
261212,-100,4,2,1,40,0,0
295237,517.241379310345,4,2,1,40,1,0
295237,-100,4,2,1,40,0,0
295754,-100,4,2,1,30,0,0
298340,-100,4,2,1,15,0,0
299051,-100,4,2,1,30,0,0
300409,-100,4,2,1,25,0,0
301443,-100,4,2,1,20,0,0
302478,-100,4,2,1,15,0,0
303512,-100,4,2,1,10,0,0
304547,-100,4,2,1,5,0,0

[Colours]
Combo1 : 255,94,55
Combo2 : 173,255,95
Combo3 : 17,254,176
Combo4 : 255,88,100

[HitObjects]
236,44,288,6,0,L|252:152,1,90,2|0,0:0|0:0,0:0:0:0:
344,188,621,2,0,P|360:128|332:76,1,90,12|0,0:0|0:0,0:0:0:0:
165,201,954,1,2,0:0:0:0:
266,236,1121,1,2,0:0:0:0:
249,133,1287,1,8,0:0:0:0:
165,201,1454,1,0,0:0:0:0:
27,105,1621,5,2,0:0:0:0:
48,222,1788,1,2,0:0:0:0:
144,84,1954,1,8,0:0:0:0:
266,236,2121,2,0,P|361:239|429:187,1,180,6|2,0:0|0:0,0:0:0:0:
165,201,2621,2,0,P|159:247|176:296,1,90,8|0,0:0|0:0,0:0:0:0:
352,102,2954,5,2,0:0:0:0:
249,133,3121,1,2,0:0:0:0:
273,28,3287,1,8,0:0:0:0:
426,190,3454,2,0,P|457:124|417:-7,1,180,4|2,0:0|0:0,0:0:0:0:
249,133,3954,2,0,L|364:132,1,90,8|0,0:0|0:0,0:0:0:0:
480,265,4287,5,2,0:0:0:0:
342,220,4454,1,2,0:0:0:0:
428,338,4621,1,8,0:0:0:0:
426,190,4787,1,4,0:0:0:0:
342,310,4954,1,8,0:3:0:0:
249,239,5121,5,8,0:0:0:0:
219,233,5204,1,8,0:0:0:0:
189,233,5287,1,8,0:0:0:0:
160,239,5370,1,8,0:0:0:0:
132,251,5454,1,8,0:0:0:0:
108,268,5537,1,8,0:0:0:0:
87,290,5621,6,0,L|61:194,1,90,2|0,0:0|0:0,0:0:0:0:
147,72,5954,2,0,L|172:167,1,90,12|0,0:0|0:0,0:0:0:0:
424,188,6287,1,2,0:0:0:0:
250,188,6454,1,2,0:0:0:0:
511,188,6621,1,8,0:0:0:0:
337,188,6788,1,2,0:0:0:0:
468,112,6954,5,2,0:0:0:0:
468,263,7121,1,2,0:0:0:0:
337,188,7287,1,8,0:0:0:0:
468,112,7454,2,0,P|480:72|458:15,1,90,4|0,0:0|0:0,0:0:0:0:
235,149,7787,1,2,0:0:0:0:
313,65,7954,2,0,P|357:59|401:67,1,90,8|0,0:0|0:0,0:0:0:0:
468,263,8287,5,2,0:0:0:0:
424,188,8454,1,2,0:0:0:0:
511,188,8621,1,8,0:0:0:0:
392,304,8787,2,0,P|328:308|280:288,1,90,4|0,0:0|0:0,0:0:0:0:
152,204,9121,1,2,0:0:0:0:
235,149,9287,2,0,P|251:209|235:257,1,90,8|0,0:0|0:0,0:0:0:0:
172,301,9621,5,2,0:0:0:0:
0,265,9787,2,0,L|89:284,1,90,2|8,0:0|0:0,0:0:0:0:
16,184,10121,2,0,P|8:140|40:72,1,90,4|8,0:0|0:0,0:0:0:0:
235,149,10454,1,2,0:0:0:0:
160,59,10621,5,8,0:0:0:0:
137,84,10704,1,8,0:0:0:0:
123,114,10787,1,8,0:0:0:0:
118,147,10871,1,8,0:0:0:0:
122,180,10954,2,0,L|152:272,1,90,4|0,0:0|0:0,0:0:0:0:
320,161,11287,6,0,P|280:144|235:148,1,90,8|0,0:0|0:0,0:0:0:0:
264,236,11621,1,2,0:0:0:0:
423,176,11787,1,2,0:0:0:0:
264,236,11954,1,8,0:0:0:0:
292,68,12121,1,0,0:0:0:0:
366,274,12287,5,2,0:0:0:0:
234,148,12454,1,0,0:0:0:0:
423,102,12621,2,0,P|435:149|426:188,1,90,8|0,0:0|0:0,0:0:0:0:
366,274,12954,5,2,0:0:0:0:
292,68,13121,1,2,0:0:0:0:
366,274,13287,1,8,0:0:0:0:
292,68,13454,1,0,0:0:0:0:
172,248,13621,6,0,P|115:245|74:211,1,90,2|2,0:0|0:0,0:0:0:0:
48,104,13954,1,8,0:0:0:0:
172,248,14121,2,0,L|196:152,1,90,2|0,0:0|0:0,0:0:0:0:
292,68,14454,1,2,0:0:0:0:
204,28,14621,5,8,0:0:0:0:
371,10,14787,1,2,0:0:0:0:
302,165,14954,2,0,P|216:168|128:112,1,180,2|8,0:0|0:0,0:0:0:0:
292,68,15454,2,0,P|355:82|383:117,1,90,2|8,0:0|0:0,0:0:0:0:
408,240,15787,1,4,0:0:0:0:
476,72,15954,1,8,0:0:0:0:
483,104,16037,1,8,0:0:0:0:
491,136,16120,1,10,0:3:0:0:
499,170,16204,1,8,0:0:0:0:
507,204,16287,6,0,L|496:300,1,90,6|0,0:0|0:0,0:0:0:0:
319,293,16621,2,0,L|309:204,1,90,8|0,0:0|0:0,0:0:0:0:
137,75,16954,1,2,0:0:0:0:
227,199,17121,1,2,0:0:0:0:
227,46,17287,1,8,0:0:0:0:
137,169,17454,1,2,0:0:0:0:
282,122,17621,6,0,L|384:112,1,90,2|0,0:0|0:0,0:0:0:0:
496,216,17954,1,8,0:0:0:0:
405,188,18121,1,0,0:0:0:0:
474,123,18288,1,2,0:0:0:0:
429,272,18454,1,2,0:0:0:0:
474,123,18621,1,8,0:0:0:0:
328,36,18787,1,2,0:0:0:0:
204,192,18954,6,0,B|132:112|184:12,1,180,2|8,0:0|0:0,0:0:0:0:
369,123,19454,2,0,P|325:132|281:121,1,90,2|0,0:0|0:0,0:0:0:0:
328,36,19787,1,2,0:0:0:0:
448,168,19954,2,0,P|459:110|433:60,1,90,8|0,0:0|0:0,0:0:0:0:
296,212,20287,5,2,0:0:0:0:
420,260,20454,2,0,L|510:250,1,90,2|8,0:0|0:0,0:0:0:0:
424,368,20787,2,0,L|334:358,1,90,2|8,0:0|0:0,0:0:0:0:
157,335,21121,1,4,0:0:0:0:
256,268,21287,1,8,0:0:0:0:
268,236,21370,1,8,0:0:0:0:
272,203,21453,1,10,0:3:0:0:
267,170,21536,1,8,0:0:0:0:
254,139,21621,6,0,B|204:120|204:120|140:132|56:108,1,180,6|8,0:0|0:0,0:0:0:0:
296,24,22121,2,0,P|368:104|363:191,1,180,2|2,0:0|0:0,0:0:0:0:
488,156,22621,2,0,B|501:213|461:256|461:256,1,90,8|0,0:0|0:0,0:0:0:0:
273,307,22954,6,0,P|237:226|253:139,1,180,2|8,0:0|0:0,0:0:0:0:
442,317,23454,2,0,P|354:337|272:306,1,180,2|2,0:0|0:0,0:0:0:0:
137,75,23954,1,8,0:0:0:0:
137,75,24287,6,0,P|148:132|128:176,1,90,2|0,0:0|0:0,0:0:0:0:
240,284,24621,2,0,P|185:265|157:225,1,90,8|0,0:0|0:0,0:0:0:0:
7,268,24954,2,0,P|50:229|98:225,1,90,2|2,0:0|0:0,0:0:0:0:
244,187,25287,2,0,L|350:187,1,90,8|0,0:0|0:0,0:0:0:0:
276,13,25621,6,0,P|268:69|292:117,1,90,2|0,0:0|0:0,0:0:0:0:
424,228,25954,2,0,P|432:172|408:124,1,90,8|0,0:0|0:0,0:0:0:0:
244,187,26287,1,8,0:0:0:0:
366,52,26454,1,2,0:0:0:0:
244,187,26621,1,8,0:0:0:0:
211,196,26704,1,8,0:0:0:0:
178,198,26787,1,10,0:3:0:0:
144,193,26870,1,8,0:0:0:0:
113,180,26954,6,0,P|80:100|100:0,1,180,6|8,0:0|0:0,0:0:0:0:
280,100,27454,2,0,P|295:187|261:269,1,180,2|2,0:0|0:0,0:0:0:0:
132,337,27954,2,0,P|184:357|237:354,1,90,8|0,0:0|0:0,0:0:0:0:
211,196,28287,6,0,B|120:192|120:192|34:215,1,180,2|8,0:0|0:0,0:0:0:0:
176,80,28787,2,0,P|264:68|352:96,1,180,2|2,0:0|0:0,0:0:0:0:
504,242,29287,1,8,0:0:0:0:
504,242,29621,6,0,L|488:124,1,90,2|0,0:0|0:0,0:0:0:0:
384,216,29954,2,0,L|400:334,1,90,8|0,0:0|0:0,0:0:0:0:
288,368,30287,2,0,L|272:250,1,90,2|0,0:0|0:0,0:0:0:0:
279,90,30621,2,0,L|292:180,1,90,8|0,0:0|0:0,0:0:0:0:
195,143,30954,6,0,P|179:79|199:35,1,90,8|0,0:3|0:0,0:0:0:0:
363,37,31287,2,0,P|379:101|359:145,1,90,8|0,0:0|0:0,0:0:0:0:
279,90,31621,1,8,0:0:0:0:
412,269,31787,1,2,0:0:0:0:
191,294,31954,1,8,0:0:0:0:
191,294,32037,1,8,0:0:0:0:
191,294,32121,1,8,0:0:0:0:
212,180,32287,5,6,0:0:0:0:
292,348,32454,1,2,0:0:0:0:
292,348,32621,2,0,P|304:272|284:232,1,90,8|0,0:0|0:0,0:0:0:0:
220,36,32954,1,2,0:0:0:0:
220,36,33121,1,2,0:0:0:0:
220,36,33288,2,0,P|208:112|228:152,1,90,8|0,0:0|0:0,0:0:0:0:
412,156,33621,5,2,0:0:0:0:
412,156,33788,1,2,0:0:0:0:
412,156,33955,2,0,P|336:144|296:164,1,90,8|0,0:0|0:0,0:0:0:0:
100,228,34287,1,2,0:0:0:0:
100,228,34454,1,2,0:0:0:0:
100,228,34621,2,0,P|176:240|216:220,1,90,8|0,0:0|0:0,0:0:0:0:
304,64,34954,5,4,0:0:0:0:
256,192,35037,12,4,36287,0:0:0:0:
256,136,36454,5,2,0:0:0:0:
303,268,36621,1,8,0:0:0:0:
189,189,36787,1,2,0:0:0:0:
327,186,36954,1,8,0:0:0:0:
217,269,37121,1,8,0:0:0:0:
185,282,37204,1,8,0:0:0:0:
152,288,37287,1,8,0:0:0:0:
118,290,37371,1,8,0:0:0:0:
85,287,37454,1,8,0:0:0:0:
53,276,37537,1,8,0:0:0:0:
23,262,37621,6,0,P|4:216|12:160,1,90,6|0,0:0|0:0,0:0:0:0:
100,52,37954,1,8,0:0:0:0:
189,189,38121,2,0,P|132:200|89:185,1,90,2|0,0:0|0:0,0:0:0:0:
226,63,38454,1,2,0:0:0:0:
350,114,38621,1,8,0:0:0:0:
264,152,38787,5,0,0:0:0:0:
313,26,38954,1,2,0:0:0:0:
428,162,39121,2,0,P|439:120|426:77,1,90,2|8,0:0|0:0,0:0:0:0:
264,152,39454,5,0,0:0:0:0:
498,43,39621,2,0,B|536:140|488:216,1,180,2|8,0:0|0:0,0:0:0:0:
326,260,40121,1,8,0:0:0:0:
326,260,40204,1,8,0:0:0:0:
326,260,40287,2,0,L|426:260,1,90,6|0,0:0|0:0,0:0:0:0:
313,25,40621,5,8,0:0:0:0:
197,167,40787,1,2,0:0:0:0:
223,12,40954,1,2,0:0:0:0:
289,182,41120,1,2,0:0:0:0:
166,81,41287,1,8,0:0:0:0:
350,114,41454,2,0,P|412:108|456:72,1,90,2|0,0:0|0:0,0:0:0:0:
313,25,41787,5,2,0:0:0:0:
416,192,41954,2,0,L|400:292,1,90,8|4,0:0|0:0,0:0:0:0:
350,114,42287,1,2,0:0:0:0:
484,272,42454,1,2,0:0:0:0:
280,309,42621,1,8,0:0:0:0:
416,192,42788,1,8,0:0:0:0:
416,192,42871,1,8,0:0:0:0:
416,192,42954,6,0,L|524:172,1,90,4|2,0:0|0:0,0:0:0:0:
350,114,43287,2,0,P|274:118|192:200,1,180,12|2,0:0|0:0,0:0:0:0:
288,214,43787,1,2,0:0:0:0:
105,150,43954,2,0,P|99:194|114:236,1,90,8|0,0:0|0:0,0:0:0:0:
280,308,44287,5,2,0:0:0:0:
198,184,44454,1,2,0:0:0:0:
64,296,44621,2,0,P|24:212|36:108,1,180,12|2,0:0|0:0,0:0:0:0:
96,40,45121,2,0,P|138:31|196:40,1,90,2|8,0:0|0:0,0:0:0:0:
350,114,45454,1,8,0:0:0:0:
350,114,45537,1,8,0:0:0:0:
350,114,45621,6,0,P|308:123|250:114,1,90,2|2,0:0|0:0,0:0:0:0:
432,168,45954,2,0,P|448:108|428:60,1,90,8|0,0:0|0:0,0:0:0:0:
301,32,46287,1,8,0:0:0:0:
197,183,46454,1,2,0:0:0:0:
301,32,46621,1,8,0:0:0:0:
349,208,46787,1,2,0:0:0:0:
349,208,46871,1,2,0:0:0:0:
349,208,46954,1,12,0:0:0:0:
245,359,47121,5,2,0:0:0:0:
197,183,47287,1,8,0:0:0:0:
344,316,47454,2,0,P|413:319|465:291,1,90,4|8,0:0|0:0,0:0:0:0:
496,224,47787,1,2,0:0:0:0:
350,114,47954,1,8,0:0:0:0:
496,224,48121,1,8,0:0:0:0:
496,224,48204,1,8,0:0:0:0:
496,224,48287,6,0,P|512:168|492:116,1,90,4|0,0:0|0:0,0:0:0:0:
446,29,48621,1,8,0:0:0:0:
264,152,48787,2,0,P|172:156|76:96,1,180,2|2,0:0|0:0,0:0:0:0:
275,59,49287,1,8,0:0:0:0:
168,228,49454,6,0,B|120:224|80:196|80:196,1,90,2|0,0:0|0:0,0:0:0:0:
185,59,49787,2,0,L|285:59,1,90,2|8,0:0|0:0,0:0:0:0:
460,128,50121,1,2,0:0:0:0:
363,9,50287,6,0,P|357:53|371:95,1,90,2|0,0:0|0:0,0:0:0:0:
446,29,50621,1,8,0:0:0:0:
385,194,50787,1,8,0:0:0:0:
385,194,50871,1,8,0:0:0:0:
385,194,50954,5,4,0:0:0:0:
371,95,51121,1,2,0:0:0:0:
385,194,51287,1,8,0:0:0:0:
482,218,51454,1,2,0:0:0:0:
385,194,51621,1,0,0:0:0:0:
460,128,51787,5,2,0:0:0:0:
407,284,51954,1,8,0:0:0:0:
298,160,52121,2,0,P|232:152|188:168,1,90,2|0,0:0|0:0,0:0:0:0:
128,208,52454,5,2,0:0:0:0:
251,313,52621,2,0,P|264:271|256:228,1,90,8|4,0:0|0:0,0:0:0:0:
76,64,52954,1,8,0:0:0:0:
128,208,53121,1,2,0:0:0:0:
272,156,53287,1,8,0:0:0:0:
220,12,53454,1,8,0:0:0:0:
220,12,53537,1,8,0:0:0:0:
220,12,53621,5,2,0:0:0:0:
128,208,53787,1,2,0:0:0:0:
300,64,53954,2,0,P|404:48|484:76,1,180,12|2,0:0|0:0,0:0:0:0:
512,224,54454,1,2,0:0:0:0:
343,128,54621,2,0,P|387:121|430:131,1,90,8|0,0:0|0:0,0:0:0:0:
384,224,54954,5,2,0:0:0:0:
172,108,55121,1,2,0:0:0:0:
251,318,55287,2,0,P|292:240|271:155,1,180,12|2,0:0|0:0,0:0:0:0:
64,120,55787,1,2,0:0:0:0:
128,208,55954,1,8,0:0:0:0:
172,108,56121,1,8,0:0:0:0:
172,108,56204,1,8,0:0:0:0:
172,108,56287,6,0,P|180:52|145:1,1,90,2|2,0:0|0:0,0:0:0:0:
19,219,56621,1,8,0:0:0:0:
128,208,56787,1,2,0:0:0:0:
64,120,56954,1,2,0:0:0:0:
128,208,57121,1,2,0:0:0:0:
237,198,57288,1,8,0:0:0:0:
167,22,57454,6,0,P|135:22|107:34,2,45,2|8|4,0:0|0:0|0:0,0:0:0:0:
256,120,57787,1,2,0:0:0:0:
256,120,57871,1,2,0:0:0:0:
256,120,57954,2,0,L|364:112,1,90,8|4,0:0|0:0,0:0:0:0:
508,184,58287,5,2,0:0:0:0:
441,15,58454,1,8,0:0:0:0:
441,15,58537,1,8,0:0:0:0:
441,15,58621,1,8,0:0:0:0:
325,212,58787,1,8,0:0:0:0:
325,212,58871,1,8,0:0:0:0:
325,212,58954,6,0,L|205:192,1,90,6|0,0:0|0:0,0:0:0:0:
376,332,59287,2,0,P|408:272|396:228,1,90,8|0,0:0|0:0,0:0:0:0:
372,128,59621,1,2,0:0:0:0:
278,296,59787,1,2,0:0:0:0:
372,128,59954,1,8,0:0:0:0:
278,296,60121,1,2,0:0:0:0:
348,224,60287,6,0,P|377:281|368:340,1,90,2|0,0:0|0:0,0:0:0:0:
208,368,60621,2,0,P|179:311|188:252,1,90,8|0,0:0|0:0,0:0:0:0:
278,296,60954,1,2,0:0:0:0:
114,213,61121,1,2,0:0:0:0:
278,296,61287,1,8,0:0:0:0:
192,64,61454,1,8,0:0:0:0:
192,64,61537,1,8,0:0:0:0:
192,64,61621,6,0,P|192:128|220:176,1,90,6|0,0:0|0:0,0:0:0:0:
383,257,61954,2,0,P|345:206|294:183,1,90,8|0,0:0|0:0,0:0:0:0:
114,213,62287,2,0,P|175:233|229:221,1,90,2|0,0:0|0:0,0:0:0:0:
357,91,62621,2,0,P|297:111|260:152,1,90,8|0,0:0|0:0,0:0:0:0:
232,333,62954,2,0,P|270:281|275:226,1,90,2|0,0:0|0:0,0:0:0:0:
192,64,63287,5,8,0:0:0:0:
199,230,63454,1,6,0:0:0:0:
367,223,63621,1,2,0:0:0:0:
358,56,63787,1,8,0:0:0:0:
192,64,63954,5,8,0:0:0:0:
367,223,64121,1,8,0:0:0:0:
367,223,64204,1,8,0:0:0:0:
367,223,64287,2,0,P|432:224|484:192,1,90,2|2,0:0|0:0,0:0:0:0:
288,156,64621,6,0,B|232:136|232:136|176:160|112:136,1,180,12|2,0:0|0:0,0:0:0:0:
192,64,65121,1,2,0:0:0:0:
367,223,65287,6,0,P|387:155|359:47,1,180,8|2,0:0|0:0,0:0:0:0:
276,32,65787,1,2,0:0:0:0:
448,256,65954,6,0,P|474:168|462:75,1,180,12|0,0:0|0:0,0:0:0:0:
192,64,66454,1,2,0:0:0:0:
287,203,66620,1,8,0:0:0:0:
361,51,66787,1,8,0:0:0:0:
361,51,66871,1,8,0:0:0:0:
361,51,66954,1,4,0:0:0:0:
256,192,67037,12,8,69287,0:0:0:0:
200,216,69454,5,8,0:0:0:0:
200,216,69537,1,8,0:0:0:0:
200,216,69621,2,0,L|172:104,1,90,4|0,0:0|0:0,0:0:0:0:
305,170,69954,2,0,P|316:227|293:282,1,90,8|0,0:0|0:0,0:0:0:0:
132,299,70287,5,2,0:0:0:0:
200,216,70454,1,2,0:0:0:0:
219,323,70621,2,0,L|132:299,1,90,8|0,0:0|0:0,0:0:0:0:
88,120,70954,5,2,0:0:0:0:
200,216,71121,2,0,P|252:224|304:204,1,90,2|8,0:1|0:0,0:0:0:0:
374,89,71454,2,0,B|440:180|376:268|376:268,1,180,2|2,0:0|0:0,0:0:0:0:
280,72,71954,1,8,0:0:0:0:
177,132,72121,5,8,0:0:0:0:
177,132,72204,1,8,0:0:0:0:
177,132,72287,2,0,L|65:116,1,90,4|0,0:0|0:0,0:0:0:0:
107,271,72621,2,0,P|151:279|195:271,1,90,8|0,0:0|0:0,0:0:0:0:
256,192,72954,5,2,0:0:0:0:
256,192,73121,1,2,0:0:0:0:
335,339,73287,2,0,P|343:295|334:251,1,90,8|0,0:0|0:0,0:0:0:0:
256,192,73621,5,2,0:0:0:0:
256,192,73788,1,2,0:0:0:0:
404,112,73954,2,0,P|360:104|316:112,1,90,8|4,0:0|0:0,0:0:0:0:
195,270,74287,6,0,P|161:220|170:142,2,135,2|8|8,0:0|0:0|0:0,0:0:0:0:
336,340,74954,5,6,0:0:0:0:
404,112,75287,1,2,0:0:0:0:
176,44,75621,1,2,0:0:0:0:
108,272,75954,1,2,0:0:0:0:
404,272,76287,5,6,0:0:0:0:
176,340,76621,1,2,0:0:0:0:
108,112,76954,1,2,0:0:0:0:
336,44,77287,1,2,0:0:0:0:
304,353,77620,5,6,0:0:0:0:
417,143,77954,1,2,0:0:0:0:
207,30,78288,1,2,0:0:0:0:
94,240,78621,1,2,0:0:0:0:
404,272,78954,5,2,0:0:0:0:
176,340,79287,1,2,0:0:0:0:
256,192,79454,2,0,L|282:278,1,90,8|2,0:3|0:0,0:0:0:0:
207,30,79787,1,12,0:0:0:0:
207,30,80287,6,0,L|192:120,1,90,6|0,0:0|0:0,0:0:0:0:
32,64,80621,2,0,P|73:48|118:49,1,90,8|0,0:0|0:0,0:0:0:0:
266,187,80954,1,2,0:0:0:0:
192,118,81120,1,2,0:0:0:0:
289,89,81287,1,8,0:0:0:0:
266,187,81454,1,2,0:0:0:0:
362,158,81621,5,2,0:0:0:0:
192,118,81787,1,2,0:0:0:0:
243,286,81954,1,8,0:0:0:0:
362,158,82121,1,2,0:0:0:0:
192,118,82287,5,0,0:0:0:0:
266,187,82454,1,2,0:0:0:0:
458,129,82621,2,0,P|461:180|434:228,1,90,8|2,0:0|0:0,0:0:0:0:
243,286,82954,2,0,P|328:272|448:308,1,180,2|8,0:0|0:0,0:0:0:0:
188,360,83454,2,0,P|156:284|172:180,1,180,2|2,0:0|0:0,0:0:0:0:
311,335,83954,6,0,P|269:321|243:286,1,90,8|0,0:0|0:0,0:0:0:0:
376,96,84287,1,2,0:0:0:0:
292,135,84454,2,0,P|283:91|296:49,1,90,2|8,0:0|0:0,0:0:0:0:
451,147,84787,2,0,P|418:177|375:188,1,90,0|8,0:0|0:0,0:0:0:0:
425,15,85120,1,4,0:0:0:0:
292,135,85287,1,8,0:0:0:0:
258,140,85370,1,8,0:0:0:0:
225,136,85453,1,10,0:3:0:0:
194,123,85536,1,8,0:0:0:0:
167,103,85621,6,0,P|57:119|-11:175,1,180,6|8,0:0|0:0,0:0:0:0:
132,356,86121,2,0,P|173:252|159:165,1,180,2|0,0:0|0:0,0:0:0:0:
4,256,86621,2,0,P|48:264|92:256,1,90,8|0,0:0|0:0,0:0:0:0:
256,176,86954,6,0,P|360:156|455:198,1,180,2|8,0:0|0:0,0:0:0:0:
256,176,87454,2,0,P|209:80|225:-22,1,180,2|2,0:0|0:0,0:0:0:0:
456,60,87954,1,8,0:0:0:0:
456,60,88287,6,0,P|468:128|456:164,1,90,2|0,0:0|0:0,0:0:0:0:
424,312,88621,2,0,P|412:244|424:208,1,90,8|0,0:0|0:0,0:0:0:0:
362,59,88954,2,0,P|374:127|362:163,1,90,2|0,0:0|0:0,0:0:0:0:
331,311,89287,2,0,P|319:243|331:207,1,90,8|0,0:0|0:0,0:0:0:0:
331,311,89621,6,0,P|263:323|227:311,1,90,2|0,0:0|0:0,0:0:0:0:
116,376,89954,2,0,P|139:311|168:285,1,90,8|0,0:0|0:0,0:0:0:0:
280,224,90287,1,8,0:0:0:0:
148,144,90454,1,2,0:0:0:0:
280,224,90621,1,8,0:0:0:0:
313,230,90704,1,8,0:0:0:0:
346,228,90787,1,2,0:3:0:0:
379,220,90870,1,8,0:0:0:0:
408,204,90954,6,0,P|436:132|391:16,1,180,6|8,0:0|0:0,0:0:0:0:
234,33,91454,2,0,P|321:16|408:35,1,180,2|0,0:0|0:0,0:0:0:0:
274,130,91954,2,0,P|215:136|166:114,1,90,8|0,0:0|0:0,0:0:0:0:
44,12,92287,6,0,P|96:108|68:196,1,180,2|8,0:0|0:0,0:0:0:0:
52,372,92787,2,0,P|0:276|28:188,1,180,2|2,0:0|0:0,0:0:0:0:
243,318,93287,1,8,0:0:0:0:
243,318,93621,6,0,P|320:316|352:300,1,90,2|0,0:0|0:0,0:0:0:0:
444,224,93954,2,0,P|452:180|432:124,1,90,8|0,0:0|0:0,0:0:0:0:
300,72,94287,2,0,P|292:116|312:172,1,90,2|0,0:0|0:0,0:0:0:0:
428,320,94621,2,0,L|536:332,1,90,8|0,0:0|0:0,0:0:0:0:
364,240,94954,6,0,P|296:236|256:256,1,90,2|0,0:0|0:0,0:0:0:0:
112,344,95287,2,0,P|180:348|220:328,1,90,8|0,0:0|0:0,0:0:0:0:
269,131,95621,1,8,0:0:0:0:
153,275,95787,1,2,0:0:0:0:
88,104,95954,1,8,0:0:0:0:
88,104,96037,1,8,0:0:0:0:
88,104,96120,1,10,0:0:0:0:
153,275,96287,5,6,0:0:0:0:
250,43,96454,1,2,0:0:0:0:
250,43,96621,2,0,L|273:150,1,90,8|0,0:0|0:0,0:0:0:0:
171,362,96954,1,2,0:0:0:0:
171,362,97121,1,2,0:0:0:0:
171,362,97288,2,0,L|153:275,1,90,8|0,0:0|0:0,0:0:0:0:
365,111,97620,5,2,0:0:0:0:
365,111,97787,1,2,0:0:0:0:
365,111,97954,2,0,L|388:218,1,90,8|0,0:0|0:0,0:0:0:0:
106,191,98287,1,2,0:0:0:0:
106,191,98454,1,2,0:0:0:0:
106,191,98621,2,0,L|83:84,1,90,8|0,0:0|0:0,0:0:0:0:
344,24,98954,5,4,0:0:0:0:
256,192,99037,12,4,100287,0:0:0:0:
140,264,100454,5,2,0:0:0:0:
297,158,100621,1,8,0:0:0:0:
156,178,100787,1,2,0:0:0:0:
282,245,100954,1,8,0:0:0:0:
171,91,101121,1,8,0:0:0:0:
137,91,101204,1,8,0:0:0:0:
106,104,101287,1,8,0:0:0:0:
83,128,101370,1,8,0:0:0:0:
70,159,101454,1,8,0:0:0:0:
69,192,101537,1,8,0:0:0:0:
82,223,101621,6,0,L|123:306,1,90,6|0,0:0|0:0,0:0:0:0:
283,354,101954,1,8,0:0:0:0:
210,204,102121,2,0,P|199:247|213:290,1,90,2|0,0:0|0:0,0:0:0:0:
407,322,102454,1,2,0:0:0:0:
282,245,102621,1,8,0:0:0:0:
412,176,102787,1,2,0:0:0:0:
407,322,102954,5,2,0:0:0:0:
327,170,103121,2,0,P|283:158|223:178,1,90,2|8,0:0|0:0,0:0:0:0:
369,258,103454,1,2,0:0:0:0:
335,86,103621,2,0,P|247:82|151:134,1,180,2|8,0:0|0:0,0:0:0:0:
82,223,104121,1,8,0:0:0:0:
82,223,104204,1,8,0:0:0:0:
82,223,104287,6,0,L|26:115,1,90,6|0,0:0|0:0,0:0:0:0:
270,126,104621,1,8,0:0:0:0:
212,213,104788,1,2,0:0:0:0:
165,120,104954,1,2,0:0:0:0:
317,219,105121,5,2,0:0:0:0:
327,38,105287,1,8,0:0:0:0:
165,120,105454,2,0,P|100:128|63:114,1,90,2|0,0:0|0:0,0:0:0:0:
239,39,105787,2,0,P|283:29|327:38,1,90,2|8,0:0|0:0,0:0:0:0:
411,158,106121,1,6,0:0:0:0:
312,118,106287,5,8,0:0:0:0:
509,201,106454,1,2,0:0:0:0:
452,61,106621,5,8,0:0:0:0:
369,258,106788,1,10,0:0:0:0:
369,258,106871,1,8,0:0:0:0:
369,258,106954,2,0,L|265:241,1,90,2|2,0:0|0:0,0:0:0:0:
140,380,107287,6,0,P|194:315|167:206,1,180,12|2,0:0|0:0,0:0:0:0:
96,144,107787,1,0,0:0:0:0:
1,297,107954,2,0,L|47:220,1,90,8|0,0:0|0:0,0:0:0:0:
143,66,108287,5,2,0:0:0:0:
143,66,108454,1,2,0:0:0:0:
280,243,108621,2,0,P|328:164|292:52,1,180,12|2,0:0|0:0,0:0:0:0:
242,150,109121,1,2,0:0:0:0:
369,258,109287,1,8,0:0:0:0:
211,313,109454,1,8,0:0:0:0:
211,313,109537,1,8,0:0:0:0:
211,313,109621,6,0,L|104:288,1,90,2|0,0:0|0:0,0:0:0:0:
45,132,109954,2,0,P|35:176|46:219,1,90,8|0,0:0|0:0,0:0:0:0:
280,243,110287,1,2,0:0:0:0:
135,174,110454,1,2,0:0:0:0:
267,82,110621,1,8,0:0:0:0:
280,243,110787,1,8,0:0:0:0:
280,243,110871,1,8,0:0:0:0:
280,243,110954,1,2,0:0:0:0:
166,76,111121,5,2,0:0:0:0:
180,263,111287,1,8,0:0:0:0:
336,157,111454,1,4,0:0:0:0:
166,76,111621,1,2,0:0:0:0:
352,76,111787,5,8,0:0:0:0:
352,76,111954,1,8,0:0:0:0:
135,174,112120,1,8,0:0:0:0:
135,174,112204,1,8,0:0:0:0:
135,174,112287,6,0,L|27:151,1,90,6|0,0:0|0:0,0:0:0:0:
180,263,112621,2,0,P|232:272|288:244,1,90,8|0,0:0|0:0,0:0:0:0:
400,156,112954,1,2,0:0:0:0:
344,239,113120,1,2,0:0:0:0:
300,149,113287,1,8,0:0:0:0:
432,240,113454,6,0,P|480:252|536:228,1,90,2|0,0:0|0:0,0:0:0:0:
440,76,113787,2,0,P|384:68|332:92,1,90,2|8,0:0|0:0,0:0:0:0:
248,221,114121,1,2,0:0:0:0:
136,82,114287,2,0,P|85:155|90:243,1,180,2|8,0:0|0:0,0:0:0:0:
236,94,114787,5,8,0:0:0:0:
236,94,114871,1,8,0:0:0:0:
236,94,114954,1,4,0:0:0:0:
176,174,115121,1,2,0:0:0:0:
336,106,115287,1,8,0:0:0:0:
136,82,115454,1,2,0:0:0:0:
276,186,115620,5,2,0:0:0:0:
297,13,115787,1,2,0:0:0:0:
136,82,115954,1,8,0:0:0:0:
276,186,116121,2,0,P|320:196|364:187,1,90,2|0,0:0|0:0,0:0:0:0:
236,94,116454,5,2,0:0:0:0:
100,224,116621,2,0,P|40:220|0:180,1,90,8|4,0:0|0:0,0:0:0:0:
144,112,116954,5,8,0:0:0:0:
204,348,117121,1,2,0:0:0:0:
204,348,117287,1,8,0:0:0:0:
276,186,117454,1,8,0:0:0:0:
276,186,117537,1,8,0:0:0:0:
276,186,117621,1,2,0:0:0:0:
380,328,117787,1,2,0:0:0:0:
160,272,117954,6,0,B|218:246|292:276|292:276|352:256,1,180,12|2,0:0|0:0,0:0:0:0:
436,212,118454,1,2,0:0:0:0:
336,61,118621,2,0,P|328:105|342:148,1,90,8|0,0:0|0:0,0:0:0:0:
428,100,118954,5,2,0:0:0:0:
428,100,119121,1,2,0:0:0:0:
244,180,119287,2,0,B|132:216|68:108,1,180,12|2,0:0|0:0,0:0:0:0:
192,64,119787,5,2,0:0:0:0:
244,180,119954,1,8,0:0:0:0:
336,61,120121,1,8,0:0:0:0:
336,61,120204,1,8,0:0:0:0:
336,61,120287,2,0,L|448:53,1,90,2|0,0:0|0:0,0:0:0:0:
509,208,120621,5,8,0:0:0:0:
391,135,120787,1,0,0:0:0:0:
444,264,120954,1,2,0:0:0:0:
476,129,121121,1,2,0:0:0:0:
370,218,121287,2,0,P|308:224|264:200,1,90,8|2,0:0|0:0,0:0:0:0:
238,52,121621,6,0,P|286:120|282:216,1,180,2|8,0:0|0:0,0:0:0:0:
28,151,122121,2,0,P|62:75|148:30,1,180,6|2,0:0|0:0,0:0:0:0:
161,162,122621,1,8,0:0:0:0:
328,52,122787,1,8,0:0:0:0:
328,52,122871,1,8,0:0:0:0:
328,52,122954,6,0,L|238:52,1,90,6|0,0:0|0:0,0:0:0:0:
408,100,123287,2,0,P|420:36|396:-12,1,90,8|0,0:0|0:0,0:0:0:0:
326,145,123621,5,2,0:0:0:0:
328,52,123787,1,2,0:0:0:0:
483,154,123954,2,0,P|449:182|405:192,1,90,8|0,0:0|0:0,0:0:0:0:
326,145,124287,5,2,0:0:0:0:
408,100,124453,1,2,0:0:0:0:
396,285,124620,2,0,P|353:270|323:237,1,90,8|0,0:0|0:0,0:0:0:0:
405,192,124954,5,8,0:0:0:0:
304,344,125121,1,8,0:0:0:0:
405,192,125287,1,8,0:0:0:0:
222,180,125454,1,2,0:0:0:0:
222,180,125537,1,0,0:0:0:0:
222,180,125621,2,0,L|105:199,1,90,4|0,0:0|0:0,0:0:0:0:
17,163,125954,6,0,P|9:207|26:249,1,90,8|0,0:0|0:0,0:0:0:0:
116,72,126287,1,2,0:0:0:0:
116,72,126454,1,2,0:0:0:0:
116,72,126621,2,0,L|224:84,1,90,8|0,0:0|0:0,0:0:0:0:
396,312,126954,1,2,0:0:0:0:
396,312,127121,1,2,0:0:0:0:
396,312,127288,2,0,L|288:300,1,90,8|0,0:0|0:0,0:0:0:0:
376,52,127621,5,2,0:0:0:0:
376,52,127788,1,2,0:0:0:0:
376,52,127955,2,0,L|364:160,1,90,8|0,0:0|0:0,0:0:0:0:
136,332,128287,1,2,0:0:0:0:
136,332,128454,1,2,0:0:0:0:
136,332,128621,2,0,L|148:224,1,90,8|0,0:0|0:0,0:0:0:0:
264,24,128954,6,0,P|276:116|220:192,1,180,2|8,0:0|0:0,0:0:0:0:
138,142,129454,1,2,0:0:0:0:
138,142,129537,1,2,0:0:0:0:
138,142,129621,1,2,0:0:0:0:
367,142,129787,1,4,0:0:0:0:
145,42,129954,5,4,0:0:0:0:
382,142,130121,1,4,0:0:0:0:
145,242,130287,5,4,0:0:0:0:
397,142,130454,1,4,0:0:0:0:
123,142,130621,5,4,0:0:0:0:
412,142,130787,1,4,0:0:0:0:
277,191,130954,6,0,P|265:130|287:78,1,90,2|0,0:0|0:0,0:0:0:0:
376,224,131287,2,0,P|388:285|366:337,1,90,12|0,0:0|0:0,0:0:0:0:
191,367,131621,1,2,0:0:0:0:
190,269,131787,1,2,0:0:0:0:
273,317,131954,2,0,P|286:269|275:230,1,90,8|0,0:0|0:0,0:0:0:0:
108,138,132287,5,2,0:0:0:0:
198,170,132454,1,2,0:0:0:0:
181,77,132621,1,8,0:0:0:0:
45,224,132787,2,0,P|86:241|130:235,1,90,2|0,0:0|0:0,0:0:0:0:
288,202,133121,1,2,0:0:0:0:
215,265,133288,1,8,0:0:0:0:
198,170,133454,1,0,0:0:0:0:
324,276,133621,6,0,P|368:280|412:272,1,90,2|0,0:0|0:0,0:0:0:0:
456,128,133954,2,0,P|411:123|367:131,1,90,8|0,0:0|0:0,0:0:0:0:
496,291,134287,2,0,P|500:246|492:202,1,90,2|0,0:0|0:0,0:0:0:0:
284,113,134621,2,0,P|279:157|287:201,1,90,8|0,0:0|0:0,0:0:0:0:
358,302,134954,5,2,0:0:0:0:
368,204,135121,1,2,0:0:0:0:
267,341,135287,1,8,0:0:0:0:
436,360,135454,1,4,0:0:0:0:
368,204,135621,5,2,0:0:0:0:
267,341,135787,1,8,0:0:0:0:
234,348,135870,1,8,0:0:0:0:
200,347,135953,1,8,0:0:0:0:
168,338,136037,1,8,0:0:0:0:
139,320,136120,1,8,0:0:0:0:
116,295,136203,1,8,0:0:0:0:
101,265,136287,6,0,P|91:217|104:168,1,90,6|0,0:0|0:0,0:0:0:0:
281,25,136621,2,0,P|291:73|278:122,1,90,8|0,0:0|0:0,0:0:0:0:
191,71,136954,1,2,0:0:0:0:
380,72,137121,1,2,0:0:0:0:
200,164,137287,2,0,P|144:152|108:112,1,90,8|0,0:0|0:0,0:0:0:0:
282,112,137621,5,2,0:0:0:0:
321,208,137787,1,2,0:0:0:0:
380,72,137954,1,8,0:0:0:0:
200,164,138121,2,0,P|196:212|216:260,1,90,2|0,0:0|0:0,0:0:0:0:
368,312,138454,1,2,0:0:0:0:
368,312,138621,2,0,L|272:312,1,90,8|0,0:0|0:0,0:0:0:0:
452,352,138954,6,0,P|460:312|432:244,1,90,2|0,0:0|0:0,0:0:0:0:
282,112,139287,2,0,P|274:152|302:220,1,90,8|0,0:0|0:0,0:0:0:0:
456,152,139621,2,0,L|366:152,1,90,2|0,0:0|0:0,0:0:0:0:
278,312,139954,2,0,L|368:312,1,90,8|0,0:0|0:0,0:0:0:0:
456,152,140287,5,8,0:0:0:0:
292,226,140454,1,2,0:0:0:0:
456,152,140621,1,8,0:0:0:0:
282,112,140787,1,2,0:0:0:0:
456,152,140954,1,8,0:0:0:0:
368,312,141121,1,6,0:0:0:0:
456,152,141287,5,8,0:0:0:0:
425,166,141370,1,8,0:0:0:0:
394,180,141453,1,10,0:3:0:0:
364,194,141537,1,8,0:0:0:0:
333,209,141621,2,0,P|264:212|228:192,1,90,6|0,0:0|0:0,0:0:0:0:
104,75,141954,2,0,P|146:62|190:70,1,90,8|0,0:0|0:0,0:0:0:0:
425,166,142287,5,2,0:0:0:0:
282,112,142454,1,2,0:0:0:0:
371,6,142621,2,0,P|384:49|372:92,1,90,8|0,0:0|0:0,0:0:0:0:
246,204,142954,5,2,0:0:0:0:
425,166,143121,1,2,0:0:0:0:
246,204,143287,1,8,0:0:0:0:
423,251,143454,2,0,P|436:208|424:165,1,90,2|0,0:0|0:0,0:0:0:0:
282,112,143788,1,2,0:0:0:0:
282,112,143954,2,0,L|163:122,1,90,8|0,0:0|0:0,0:0:0:0:
40,200,144287,6,0,P|28:244|44:304,1,90,2|0,0:0|0:0,0:0:0:0:
188,348,144621,2,0,P|200:304|184:244,1,90,8|0,0:0|0:0,0:0:0:0:
92,112,144954,2,0,L|-12:92,1,90,2|0,0:0|0:0,0:0:0:0:
183,23,145287,2,0,P|231:19|287:31,1,90,8|0,0:0|0:0,0:0:0:0:
335,206,145621,2,0,P|287:210|231:198,1,90,2|2,0:0|0:0,0:0:0:0:
360,70,145954,5,8,0:0:0:0:
423,251,146121,1,2,0:0:0:0:
442,93,146287,1,8,0:0:0:0:
505,274,146454,1,10,0:3:0:0:
492,304,146537,1,8,0:0:0:0:
467,327,146620,1,8,0:0:0:0:
436,339,146704,1,8,0:0:0:0:
402,336,146787,1,10,0:3:0:0:
373,321,146870,1,8,0:0:0:0:
352,294,146954,6,0,P|308:268|252:272,1,90,6|0,0:0|0:0,0:0:0:0:
168,356,147287,2,0,L|120:240,1,90,8|0,0:0|0:0,0:0:0:0:
83,147,147621,1,2,0:0:0:0:
204,172,147787,1,2,0:0:0:0:
32,236,147954,2,0,P|-4:160|28:52,1,180,8|2,0:0|0:0,0:0:0:0:
176,28,148454,6,0,P|131:18|87:26,1,90,2|8,0:0|0:0,0:0:0:0:
204,172,148787,2,0,P|256:116|248:8,1,180,2|2,0:0|0:0,0:0:0:0:
132,112,149287,1,8,0:0:0:0:
228,288,149454,1,2,0:1:0:0:
228,288,149537,1,2,0:1:0:0:
228,288,149621,6,0,P|288:296|328:280,1,90,6|0,0:0|0:0,0:0:0:0:
479,173,149954,2,0,P|419:165|379:181,1,90,8|0,0:0|0:0,0:0:0:0:
412,356,150287,2,0,P|420:296|404:256,1,90,2|0,0:0|0:0,0:0:0:0:
296,105,150620,2,0,P|288:164|304:205,1,90,8|0,0:0|0:0,0:0:0:0:
404,60,150954,5,8,0:0:0:0:
188,100,151121,1,8,0:0:0:0:
404,60,151287,1,2,0:0:0:0:
328,272,151454,1,8,0:3:0:0:
404,60,151621,1,8,0:0:0:0:
188,100,151787,1,8,0:3:0:0:
276,208,151954,5,8,0:0:0:0:
294,179,152037,1,8,0:0:0:0:
302,147,152120,1,10,0:3:0:0:
301,113,152204,1,8,0:0:0:0:
290,81,152287,1,6,0:0:0:0:
101,58,152454,2,0,P|91:101|104:145,1,90,6|0,0:0|0:0,0:0:0:0:
168,236,152787,5,2,0:0:0:0:
290,81,152954,1,8,0:0:0:0:
363,264,153121,1,2,0:0:0:0:
363,264,153204,1,2,0:0:0:0:
363,264,153287,2,0,L|260:236,1,90,8|0,0:0|0:0,0:0:0:0:
372,124,153621,5,6,0:0:0:0:
472,280,153787,2,0,P|490:240|483:183,1,90,6|0,0:0|0:0,0:0:0:0:
448,18,154121,1,2,0:0:0:0:
448,18,154204,1,2,0:0:0:0:
448,18,154287,2,0,L|471:125,1,90,8|0,0:0|0:0,0:0:0:0:
472,280,154621,1,8,0:0:0:0:
372,124,154787,1,2,0:0:0:0:
378,299,154954,5,6,0:0:0:0:
466,105,155121,2,0,P|476:160|460:196,1,90,6|0,0:0|0:0,0:0:0:0:
312,248,155454,1,2,0:0:0:0:
312,248,155537,1,2,0:0:0:0:
312,248,155620,2,0,L|210:223,1,90,8|0,0:0|0:0,0:0:0:0:
164,40,155954,2,0,P|184:100|172:148,1,90,8|2,0:0|0:0,0:0:0:0:
79,101,156287,5,6,0:0:0:0:
290,81,156454,1,2,0:0:0:0:
27,158,156621,2,0,P|8:125|11:66,1,90,8|0,0:0|0:0,0:0:0:0:
164,40,156954,5,6,0:0:0:0:
16,232,157121,1,2,0:0:0:0:
164,40,157287,2,0,P|184:100|172:148,1,90,8|0,0:0|0:0,0:0:0:0:
27,158,157621,5,6,0:0:0:0:
184,224,157787,2,0,L|288:204,1,90,6|0,0:0|0:0,0:0:0:0:
426,175,158121,1,2,0:0:0:0:
426,175,158204,1,2,0:0:0:0:
426,175,158287,2,0,P|438:203|426:275,1,90,8|0,0:0|0:0,0:0:0:0:
324,112,158621,2,0,P|312:84|324:12,1,90,8|2,0:0|0:0,0:0:0:0:
404,60,158954,5,6,0:0:0:0:
244,164,159121,2,0,L|132:144,1,90,6|0,0:0|0:0,0:0:0:0:
0,232,159454,1,2,0:0:0:0:
0,232,159537,1,2,0:0:0:0:
0,232,159621,1,8,0:0:0:0:
76,112,159787,1,2,0:0:0:0:
164,271,159954,2,0,P|209:275|250:260,1,90,8|2,0:0|0:0,0:0:0:0:
426,175,160287,5,6,0:0:0:0:
348,288,160454,2,0,P|332:248|352:172,1,90,6|0,0:0|0:0,0:0:0:0:
496,252,160787,1,2,0:0:0:0:
496,252,160871,1,2,0:0:0:0:
496,252,160954,2,0,L|472:352,1,90,8|0,0:0|0:0,0:0:0:0:
426,175,161287,5,8,0:0:0:0:
234,284,161454,1,2,0:0:0:0:
312,84,161621,5,6,0:0:0:0:
348,288,161787,1,2,0:0:0:0:
153,217,161954,1,8,0:0:0:0:
312,84,162121,1,2,0:0:0:0:
234,284,162287,5,6,0:0:0:0:
426,175,162454,1,2,0:0:0:0:
235,63,162621,1,8,0:0:0:0:
234,284,162787,1,2,0:0:0:0:
396,96,162954,6,0,L|464:84,3,45,6|0|0|0,0:0|0:0|0:0|0:0,0:0:0:0:
347,152,163287,2,0,P|340:195|355:237,1,90,8|0,0:0|0:0,0:0:0:0:
512,124,163621,2,0,P|519:80|504:38,1,90,2|0,0:0|0:0,0:0:0:0:
235,63,163954,5,8,0:0:0:0:
432,44,164121,1,2,0:0:0:0:
172,112,164287,2,0,P|156:70|165:27,1,90,2|0,0:0|0:0,0:0:0:0:
312,84,164621,5,8,0:0:0:0:
164,208,164787,1,2,0:0:0:0:
372,36,164954,2,0,P|388:98|366:138,1,90,2|0,0:0|0:0,0:0:0:0:
104,256,165287,6,0,P|88:194|110:154,1,90,8|0,0:0|0:0,0:0:0:0:
296,192,165621,1,2,0:0:0:0:
180,340,165788,1,2,0:0:0:0:
164,208,165955,5,8,0:0:0:0:
312,324,166121,2,0,P|364:324|408:300,1,90,2|0,0:0|0:0,0:0:0:0:
417,47,166454,1,2,0:0:0:0:
480,240,166621,1,8,0:0:0:0:
330,149,166787,1,0,0:0:0:0:
448,143,166954,5,2,0:0:0:0:
266,50,167121,1,2,0:0:0:0:
277,255,167287,1,8,0:0:0:0:
448,143,167454,1,2,0:0:0:0:
266,50,167621,1,8,0:0:0:0:
266,50,167704,1,8,0:0:0:0:
266,50,167787,2,0,L|156:68,1,90,2|8,0:0|0:0,0:0:0:0:
21,89,168121,1,2,0:0:0:0:
136,152,168287,5,6,0:0:0:0:
149,182,168370,1,0,0:0:0:0:
152,216,168453,1,0,0:0:0:0:
144,248,168537,1,0,0:0:0:0:
126,277,168621,2,0,L|84:304,1,45,10|0,0:1|0:0,0:0:0:0:
210,358,168787,5,2,0:1:0:0:
243,359,168870,1,0,0:0:0:0:
276,351,168953,1,2,0:0:0:0:
305,335,169037,1,0,0:0:0:0:
330,312,169121,2,0,L|368:268,1,45,2|0,0:1|0:0,0:0:0:0:
428,132,169287,5,10,0:1:0:0:
433,165,169370,1,0,0:1:0:0:
438,198,169453,1,0,0:1:0:0:
443,232,169537,1,0,0:1:0:0:
448,265,169621,6,0,L|456:324,1,45,2|0,0:1|0:1,0:0:0:0:
339,181,169787,2,0,L|330:121,1,45,2|0,0:0|0:1,0:0:0:0:
464,284,169954,2,0,L|472:343,1,45,10|0,0:1|0:1,0:0:0:0:
356,200,170121,2,0,L|347:140,1,45,2|0,0:0|0:1,0:0:0:0:
478,18,170287,6,0,B|484:81|484:81|506:131|506:131|512:195,1,180,2|8,0:0|0:0,0:0:0:0:
400,40,170787,1,2,0:0:0:0:
257,201,170954,2,0,P|232:146|236:106,1,90,4|0,0:0|0:0,0:0:0:0:
359,277,171287,2,0,P|356:321|335:360,1,90,8|0,0:0|0:0,0:0:0:0:
80,232,171621,5,2,0:0:0:0:
264,296,171787,1,2,0:0:0:0:
160,364,171954,2,0,P|144:324|152:264,1,90,8|0,0:0|0:0,0:0:0:0:
240,146,172288,5,2,0:0:0:0:
264,296,172454,1,2,0:0:0:0:
290,72,172621,2,0,P|248:57|201:67,1,90,8|0,0:0|0:0,0:0:0:0:
80,232,172954,5,2,0:0:0:0:
240,146,173120,1,2,0:0:0:0:
20,296,173287,2,0,P|-4:244|12:188,1,90,8|0,0:0|0:0,0:0:0:0:
290,72,173621,6,0,P|378:185|240:148,1,377.999988464356,2|0,0:1|0:0,0:0:0:0:
184,20,174787,6,0,L|136:40,2,33.7500012874604,2|2|2,0:1|0:1|0:1,0:0:0:0:
328,364,176287,1,0,0:0:0:0:
88,90,177621,5,2,0:1:0:0:
424,158,178287,1,0,0:1:0:0:
88,226,178954,1,2,0:1:0:0:
424,286,179621,1,2,0:1:0:0:
256,172,180121,6,0,L|256:128,2,33.7500012874604,2|2|2,0:1|0:1|0:1,0:0:0:0:
328,364,181621,5,0,0:0:0:0:
184,20,182954,1,2,0:1:0:0:
328,364,184287,1,2,0:1:0:0:
256,172,184954,5,8,0:0:0:0:
256,172,185037,1,8,0:0:0:0:
256,172,185121,2,0,L|284:248,1,67.5000025749208,2|0,0:0|0:0,0:0:0:0:
328,364,185287,1,8,0:0:0:0:
328,364,185621,6,0,P|372:312|352:192,1,180,6|8,0:0|0:0,0:0:0:0:
132,272,186121,2,0,P|155:336|268:378,1,180,2|2,0:0|0:0,0:0:0:0:
180,184,186621,2,0,P|125:173|72:192,1,90,8|0,0:0|0:0,0:0:0:0:
273,45,186954,6,0,P|297:141|261:225,1,180,2|8,0:0|0:0,0:0:0:0:
56,264,187454,2,0,B|108:292|108:292|164:260|240:292,1,180,2|2,0:0|0:0,0:0:0:0:
196,89,187954,1,8,0:0:0:0:
196,89,188287,6,0,P|153:79|111:92,1,90,2|0,0:0|0:0,0:0:0:0:
156,249,188621,2,0,P|166:206|155:164,1,90,8|0,0:0|0:0,0:0:0:0:
0,207,188954,2,0,P|42:219|85:205,1,90,2|0,0:0|0:0,0:0:0:0:
36,49,189287,2,0,P|25:92|37:134,1,90,8|0,0:0|0:0,0:0:0:0:
155,336,189621,2,0,P|166:293|155:250,1,90,2|0,0:0|0:0,0:0:0:0:
112,91,189954,5,8,0:0:0:0:
269,214,190121,1,2,0:0:0:0:
298,17,190287,1,8,0:0:0:0:
112,91,190454,1,6,0:0:0:0:
269,214,190621,1,8,0:0:0:0:
287,185,190704,1,8,0:0:0:0:
294,153,190787,1,10,0:3:0:0:
289,119,190871,1,8,0:0:0:0:
272,88,190954,6,0,B|184:88|208:12|100:12,1,180,6|8,0:0|0:0,0:0:0:0:
380,36,191454,2,0,P|392:100|328:192,1,180,2|2,0:0|0:0,0:0:0:0:
192,173,191954,2,0,P|185:239|224:287,1,90,8|0,0:0|0:0,0:0:0:0:
432,344,192287,6,0,P|361:293|274:306,1,180,2|8,0:0|0:0,0:0:0:0:
124,364,192787,2,0,P|68:308|80:192,1,180,2|2,0:0|0:0,0:0:0:0:
253,117,193287,1,8,0:0:0:0:
253,117,193621,6,0,P|265:67|249:11,1,90,2|0,0:0|0:0,0:0:0:0:
154,179,193954,2,0,P|142:229|158:285,1,90,8|0,0:0|0:0,0:0:0:0:
321,202,194287,2,0,P|277:208|234:197,1,90,2|0,0:0|0:0,0:0:0:0:
84,92,194621,2,0,P|128:86|172:98,1,90,8|0,0:0|0:0,0:0:0:0:
233,196,194954,5,8,0:0:0:0:
362,48,195121,1,8,0:0:0:0:
233,196,195287,2,0,P|276:207|321:202,1,90,2|8,0:0|0:3,0:0:0:0:
165,255,195621,2,0,P|145:191|165:147,1,90,8|8,0:0|0:3,0:0:0:0:
258,29,195954,1,8,0:0:0:0:
258,29,196037,1,8,0:0:0:0:
258,29,196120,1,8,0:0:0:0:
150,170,196287,5,6,0:0:0:0:
156,16,196454,1,2,0:0:0:0:
289,119,196621,2,0,P|241:123|188:94,1,90,8|0,0:0|0:0,0:0:0:0:
258,29,196954,5,2,0:0:0:0:
320,202,197121,1,2,0:0:0:0:
258,29,197287,2,0,P|306:25|359:54,1,90,8|0,0:0|0:0,0:0:0:0:
405,163,197621,5,2,0:0:0:0:
235,241,197787,1,2,0:0:0:0:
405,163,197954,2,0,P|413:212|391:265,1,90,8|0,0:0|0:0,0:0:0:0:
312,296,198287,5,2,0:0:0:0:
289,119,198454,1,2,0:0:0:0:
148,226,198621,2,0,P|190:243|235:241,1,90,8|0,0:0|0:0,0:0:0:0:
156,16,198954,5,4,0:0:0:0:
256,192,199037,12,2,200287,0:0:0:0:
338,226,200454,5,2,0:0:0:0:
185,176,200621,1,8,0:0:0:0:
279,306,200787,1,2,0:0:0:0:
280,146,200954,1,8,0:0:0:0:
185,275,201121,5,2,0:0:0:0:
152,270,201204,1,8,0:0:0:0:
123,253,201287,1,8,0:0:0:0:
101,228,201371,1,8,0:0:0:0:
88,197,201454,1,2,0:0:0:0:
87,164,201537,1,8,0:0:0:0:
97,132,201621,6,0,P|131:93|207:80,1,125.999996154785,2|12,0:0|0:0,0:0:0:0:
338,302,202121,5,8,0:0:0:0:
338,276,202204,1,8,0:0:0:0:
338,251,202287,1,8,0:0:0:0:
338,226,202371,1,8,0:0:0:0:
338,201,202454,1,8,0:0:0:0:
338,176,202537,1,8,0:0:0:0:
338,150,202621,1,8,0:0:0:0:
338,125,202704,1,8,0:0:0:0:
338,100,202787,1,8,0:0:0:0:
338,75,202871,1,8,0:0:0:0:
338,50,202954,5,6,0:0:0:0:
184,174,203121,1,0,0:0:0:0:
260,22,203287,1,8,0:0:0:0:
338,251,203454,1,0,0:0:0:0:
184,174,203621,5,2,0:0:0:0:
338,75,203787,1,2,0:0:0:0:
184,174,203954,1,8,0:0:0:0:
413,176,204121,1,2,0:0:0:0:
123,115,204287,6,0,P|100:158|106:210,1,90,2|0,0:0|0:0,0:0:0:0:
270,176,204621,2,0,P|226:185|183:173,1,90,8|0,0:0|0:0,0:0:0:0:
286,30,204954,1,2,0:0:0:0:
357,190,205121,1,2,0:0:0:0:
286,30,205287,1,8,0:0:0:0:
183,173,205454,1,8,0:0:0:0:
183,173,205537,1,8,0:0:0:0:
183,173,205621,5,6,0:0:0:0:
357,190,205787,1,2,0:0:0:0:
249,328,205954,1,8,0:0:0:0:
417,279,206121,1,0,0:0:0:0:
253,220,206287,1,2,0:0:0:0:
351,365,206454,1,2,0:0:0:0:
357,190,206621,1,8,0:0:0:0:
249,328,206787,6,0,P|208:338|148:326,1,90,2|0,0:0|0:0,0:0:0:0:
68,218,207121,2,0,P|56:264|71:305,1,90,2|8,0:0|0:0,0:0:0:0:
132,130,207454,1,4,0:0:0:0:
220,194,207621,5,8,0:0:0:0:
44,66,207787,1,2,0:0:0:0:
68,218,207954,5,8,0:0:0:0:
196,42,208121,1,8,0:0:0:0:
196,42,208204,1,8,0:0:0:0:
195,42,208287,2,0,P|239:30|283:34,1,90,2|2,0:0|0:0,0:0:0:0:
424,186,208621,6,0,P|376:134|392:-2,1,180,12|2,0:0|0:0,0:0:0:0:
488,78,209121,1,2,0:0:0:0:
380,262,209287,2,0,P|435:273|487:247,1,90,8|0,0:0|0:0,0:0:0:0:
488,78,209621,5,2,0:0:0:0:
466,262,209787,1,2,0:0:0:0:
304,120,209954,2,0,B|216:88|216:152|128:120,1,180,12|2,0:0|0:0,0:0:0:0:
260,200,210454,1,2,0:0:0:0:
175,41,210621,1,8,0:0:0:0:
60,192,210787,1,8,0:0:0:0:
60,192,210871,1,8,0:0:0:0:
60,192,210954,6,0,L|8:82,1,90,2|0,0:0|0:0,0:0:0:0:
258,0,211287,2,0,P|266:60|232:111,1,90,8|0,0:0|0:0,0:0:0:0:
175,41,211621,1,2,0:0:0:0:
356,47,211787,1,2,0:0:0:0:
260,200,211954,1,8,0:0:0:0:
175,41,212121,5,0,0:0:0:0:
175,41,212204,1,2,0:0:0:0:
175,41,212287,1,8,0:0:0:0:
339,150,212454,2,0,P|364:152|384:148,2,45,2|2|8,0:0|0:0|0:0,0:0:0:0:
162,238,212787,1,4,0:0:0:0:
326,347,212954,5,8,0:0:0:0:
260,200,213121,1,2,0:0:0:0:
112,314,213287,1,8,0:0:0:0:
88,290,213370,1,8,0:0:0:0:
74,259,213453,1,8,0:0:0:0:
71,226,213537,1,8,0:0:0:0:
81,194,213621,5,6,0:0:0:0:
260,200,213787,1,0,0:0:0:0:
355,48,213954,1,8,0:0:0:0:
260,200,214120,1,0,0:0:0:0:
176,42,214287,5,2,0:0:0:0:
260,200,214454,1,2,0:0:0:0:
439,207,214620,1,8,0:0:0:0:
185,160,214787,2,0,P|177:216|197:256,1,90,2|0,0:0|0:0,0:0:0:0:
265,96,215121,5,2,0:0:0:0:
81,194,215287,2,0,P|44:160|36:104,1,90,8|0,0:0|0:0,0:0:0:0:
176,42,215621,1,2,0:0:0:0:
260,200,215787,1,2,0:0:0:0:
176,42,215954,1,8,0:0:0:0:
81,194,216121,1,8,0:0:0:0:
81,194,216204,1,8,0:0:0:0:
81,194,216287,5,6,0:0:0:0:
165,352,216454,1,0,0:0:0:0:
323,268,216621,1,8,0:0:0:0:
239,110,216787,1,0,0:0:0:0:
81,194,216954,5,2,0:0:0:0:
233,287,217121,1,2,0:0:0:0:
239,110,217287,1,8,0:0:0:0:
19,253,217454,2,0,P|-3:210|15:142,1,90,2|0,0:0|0:0,0:0:0:0:
176,42,217787,5,2,0:0:0:0:
320,202,217954,2,0,L|432:180,1,90,8|4,0:0|0:0,0:0:0:0:
344,88,218287,1,8,0:0:0:0:
384,298,218454,1,2,0:0:0:0:
344,88,218621,1,8,0:0:0:0:
182,227,218788,1,8,0:0:0:0:
182,227,218871,1,8,0:0:0:0:
182,227,218954,5,2,0:0:0:0:
320,202,219121,1,2,0:0:0:0:
99,313,219287,2,0,P|65:248|110:130,1,180,12|2,0:0|0:0,0:0:0:0:
344,88,219787,1,0,0:0:0:0:
240,148,219954,2,0,P|224:100|237:38,1,90,8|0,0:0|0:0,0:0:0:0:
408,184,220287,5,2,0:0:0:0:
452,72,220454,1,2,0:0:0:0:
315,207,220621,2,0,P|372:273|458:264,1,180,12|2,0:0|0:0,0:0:0:0:
408,184,221121,1,0,0:0:0:0:
328,348,221287,1,8,0:0:0:0:
172,210,221454,1,8,0:0:0:0:
172,210,221537,1,8,0:0:0:0:
172,210,221621,6,0,L|68:244,1,90,2|2,0:0|0:0,0:0:0:0:
212,69,221954,2,0,P|285:120|319:201,1,180,8|0,0:0|0:0,0:0:0:0:
181,357,222454,1,2,0:0:0:0:
172,210,222621,1,8,0:0:0:0:
328,348,222787,2,0,P|332:320|324:292,2,45,0|2|8,0:0|0:0|0:0,0:0:0:0:
172,210,223121,5,0,0:0:0:0:
172,210,223204,1,2,0:0:0:0:
172,210,223287,1,8,0:0:0:0:
328,120,223454,1,4,0:0:0:0:
101,257,223621,2,0,P|88:226|121:145,1,90,8|0,0:0|0:0,0:0:0:0:
196,52,223954,1,8,0:0:0:0:
319,201,224121,1,8,0:0:0:0:
319,201,224204,1,8,0:0:0:0:
319,201,224287,6,0,P|367:211|424:192,1,90,4|0,0:0|0:0,0:0:0:0:
283,52,224621,2,0,P|235:42|178:61,1,90,8|0,0:0|0:0,0:0:0:0:
228,246,224954,2,0,P|218:198|237:141,1,90,2|2,0:0|0:0,0:0:0:0:
374,7,225287,6,0,P|384:55|365:112,1,90,8|0,0:0|0:0,0:0:0:0:
80,164,225621,2,0,P|116:131|175:119,1,90,2|0,0:0|0:0,0:0:0:0:
363,341,225954,2,0,P|316:325|276:280,1,90,8|0,0:0|0:0,0:0:0:0:
170,44,226287,5,8,0:0:0:0:
228,246,226454,1,8,0:0:0:0:
374,94,226621,1,8,0:0:0:0:
374,94,226954,5,10,0:1:0:0:
424,197,227121,1,0,0:0:0:0:
283,52,227287,2,0,P|263:92|275:156,1,90,10|0,0:1|0:0,0:0:0:0:
329,375,227621,2,0,P|321:330|274:286,1,90,10|0,0:1|0:0,0:0:0:0:
101,140,227954,2,0,P|132:171|197:179,1,90,10|0,0:1|0:0,0:0:0:0:
424,197,228287,2,0,P|379:190|322:221,1,90,10|0,0:1|0:0,0:0:0:0:
129,340,228621,2,0,P|168:319|196:260,1,90,10|0,0:1|0:0,0:0:0:0:
283,52,228954,5,10,0:1:0:0:
293,296,229121,1,2,0:0:0:0:
175,182,229287,1,10,0:1:0:0:
423,215,229454,1,8,0:0:0:0:
423,215,229537,1,8,0:0:0:0:
423,215,229621,6,0,P|379:222|338:206,1,90,14|0,0:1|0:0,0:0:0:0:
111,124,229954,2,0,P|150:144|175:182,1,90,10|0,0:1|0:0,0:0:0:0:
310,380,230287,2,0,P|290:340|293:296,1,90,10|0,0:1|0:0,0:0:0:0:
300,57,230621,2,0,P|292:100|264:135,1,90,10|0,0:1|0:0,0:0:0:0:
117,324,230954,2,0,P|148:293|192:282,1,90,10|0,0:1|0:0,0:0:0:0:
374,323,231287,5,8,0:0:0:0:
263,135,231454,1,4,0:0:0:0:
293,295,231621,1,8,0:0:0:0:
453,265,231787,1,8,0:0:0:0:
423,105,231954,1,8,0:0:0:0:
293,295,232121,1,8,0:0:0:0:
293,295,232204,1,8,0:0:0:0:
293,295,232287,5,2,0:0:0:0:
333,63,232454,1,2,0:0:0:0:
173,181,232621,2,0,B|52:224|0:148|0:148,1,180,12|2,0:0|0:0,0:0:0:0:
103,85,233121,1,0,0:0:0:0:
265,221,233287,2,0,P|275:177|263:135,1,90,8|0,0:0|0:0,0:0:0:0:
150,291,233621,5,2,0:0:0:0:
348,260,233787,1,2,0:0:0:0:
99,220,233954,2,0,P|66:311|120:372,1,180,12|2,0:0|0:0,0:0:0:0:
265,221,234454,1,2,0:0:0:0:
192,80,234621,1,8,0:0:0:0:
99,220,234787,1,8,0:0:0:0:
99,220,234871,1,8,0:0:0:0:
99,220,234954,6,0,P|154:211|201:174,1,90,2|0,0:0|0:0,0:0:0:0:
373,20,235287,2,0,P|319:89|336:175,1,180,8|2,0:0|0:0,0:0:0:0:
427,115,235787,1,2,0:0:0:0:
254,27,235954,1,8,0:0:0:0:
265,221,236121,1,0,0:0:0:0:
265,221,236204,1,2,0:0:0:0:
265,221,236287,5,8,0:0:0:0:
427,115,236454,2,0,P|433:147|423:175,2,45,0|2|8,0:0|0:0|0:0,0:0:0:0:
233,125,236787,1,4,0:0:0:0:
339,289,236954,1,8,0:0:0:0:
427,115,237121,5,2,0:0:0:0:
232,227,237288,1,8,0:0:0:0:
198,222,237371,1,8,0:0:0:0:
169,206,237455,1,8,0:0:0:0:
146,181,237538,1,8,0:0:0:0:
134,152,237621,5,4,0:0:0:0:
332,120,237787,1,0,0:0:0:0:
364,318,237954,1,8,0:0:0:0:
332,120,238121,1,0,0:0:0:0:
214,282,238287,5,2,0:0:0:0:
332,120,238454,1,2,0:0:0:0:
495,238,238621,1,8,0:0:0:0:
248,82,238787,2,0,P|240:130|258:175,1,90,2|0,0:0|0:0,0:0:0:0:
325,20,239121,5,2,0:0:0:0:
419,184,239287,2,0,P|439:139|433:91,1,90,8|0,0:0|0:0,0:0:0:0:
332,120,239621,1,2,0:0:0:0:
420,296,239788,1,2,0:0:0:0:
332,120,239955,1,8,0:0:0:0:
170,229,240121,1,10,0:0:0:0:
170,229,240204,1,8,0:0:0:0:
170,229,240287,6,0,P|124:236|68:208,1,90,6|0,0:0|0:0,0:0:0:0:
332,120,240621,1,8,0:0:0:0:
266,305,240787,1,0,0:0:0:0:
212,115,240954,1,2,0:0:0:0:
366,237,241121,1,2,0:0:0:0:
170,229,241287,1,8,0:0:0:0:
445,202,241454,6,0,P|452:246|437:288,1,90,2|0,0:0|0:0,0:0:0:0:
266,305,241787,1,2,0:0:0:0:
343,153,241954,2,0,P|366:197|360:253,1,90,8|4,0:0|0:0,0:0:0:0:
268,24,242287,1,8,0:0:0:0:
268,216,242454,1,2,0:0:0:0:
405,60,242621,1,8,0:0:0:0:
144,164,242787,1,8,0:0:0:0:
144,164,242871,1,8,0:0:0:0:
144,164,242954,6,0,P|129:118|138:77,1,90,2|2,0:0|0:0,0:0:0:0:
205,266,243287,2,0,P|117:278|44:229,1,180,12|2,0:0|0:0,0:0:0:0:
144,164,243787,1,2,0:0:0:0:
282,320,243954,2,0,P|298:276|286:220,1,90,8|0,0:0|0:0,0:0:0:0:
137,78,244287,5,2,0:0:0:0:
292,234,244454,1,2,0:0:0:0:
268,24,244621,2,0,B|192:92|222:185,1,180,12|2,0:0|0:0,0:0:0:0:
354,137,245121,1,2,0:0:0:0:
468,216,245287,1,8,0:0:0:0:
336,264,245454,1,8,0:0:0:0:
336,264,245537,1,8,0:0:0:0:
336,264,245621,6,0,P|332:312|348:352,1,90,2|2,0:0|0:0,0:0:0:0:
438,114,245954,2,0,B|354:142|354:82|254:114,1,180,8|2,0:0|0:0,0:0:0:0:
208,293,246454,1,2,0:0:0:0:
79,156,246621,1,8,0:0:0:0:
262,112,246788,1,0,0:0:0:0:
262,112,246871,1,8,0:0:0:0:
262,112,246954,5,2,0:0:0:0:
208,293,247121,2,0,P|203:319|218:353,2,45,0|2|8,0:0|0:0|0:0,0:0:0:0:
391,249,247454,1,6,0:0:0:0:
287,218,247621,5,8,0:0:0:0:
470,174,247787,1,2,0:0:0:0:
287,218,247954,1,8,0:0:0:0:
499,256,248121,1,8,0:0:0:0:
499,256,248204,1,8,0:0:0:0:
499,256,248287,6,0,P|493:211|470:174,1,90,6|2,0:0|0:0,0:0:0:0:
330,339,248621,2,0,P|371:355|415:354,1,90,8|0,0:0|0:0,0:0:0:0:
287,218,248954,1,2,0:0:0:0:
208,293,249121,1,2,0:0:0:0:
182,187,249287,1,8,0:0:0:0:
391,249,249454,1,2,0:0:0:0:
342,151,249621,6,0,P|306:177|286:217,1,90,2|0,0:0|0:0,0:0:0:0:
420,330,249954,2,0,P|415:285|390:248,1,90,8|0,0:0|0:0,0:0:0:0:
208,293,250287,1,2,0:0:0:0:
390,248,250454,1,2,0:0:0:0:
182,187,250621,1,8,0:0:0:0:
346,63,250787,1,8,0:0:0:0:
346,63,250871,1,8,0:0:0:0:
346,63,250954,6,0,P|353:107|342:151,1,90,4|0,0:0|0:0,0:0:0:0:
115,225,251287,2,0,P|135:185|169:156,1,90,8|0,0:0|0:0,0:0:0:0:
390,248,251621,2,0,P|350:268|305:271,1,90,2|2,0:0|0:0,0:0:0:0:
181,68,251954,2,0,P|225:74|263:98,1,90,8|0,0:0|0:0,0:0:0:0:
244,336,252287,2,0,P|212:304|195:262,1,90,2|0,0:0|0:0,0:0:0:0:
346,63,252621,5,8,0:0:0:0:
460,256,252787,2,0,P|472:216|456:156,1,90,4|2,0:0|0:0,0:0:0:0:
346,63,253121,1,8,0:0:0:0:
258,201,253287,1,8,0:0:0:0:
117,98,253454,1,8,0:0:0:0:
117,98,253537,1,8,0:0:0:0:
117,98,253621,6,0,P|164:89|212:100,1,90,2|2,0:0|0:0,0:0:0:0:
60,194,253954,2,0,P|16:142|36:22,1,180,12|2,0:0|0:0,0:0:0:0:
117,98,254454,1,2,0:0:0:0:
276,28,254621,1,8,0:0:0:0:
258,201,254787,2,0,L|236:148,3,30,2|2|2|2,0:1|0:1|0:1|0:0,0:0:0:0:
417,131,255121,5,2,0:0:0:0:
387,331,255287,2,0,P|336:260|341:172,1,180,12|2,0:0|0:0,0:0:0:0:
448,227,255787,1,2,0:0:0:0:
386,35,255954,1,8,0:0:0:0:
246,173,256121,1,8,0:0:0:0:
246,173,256204,1,8,0:0:0:0:
246,173,256287,6,0,P|182:177|142:149,1,90,2|2,0:0|0:0,0:0:0:0:
386,35,256621,2,0,P|402:121|360:199,1,180,8|2,0:0|0:0,0:0:0:0:
246,173,257121,1,2,0:0:0:0:
330,339,257287,1,8,0:0:0:0:
246,173,257454,5,2,0:0:0:0:
246,173,257537,1,8,0:0:0:0:
246,173,257621,1,8,0:0:0:0:
107,296,257787,1,2,0:0:0:0:
107,296,257871,1,2,0:0:0:0:
107,296,257954,1,8,0:0:0:0:
246,173,258121,2,0,L|350:185,1,90,4|8,0:0|0:0,0:0:0:0:
134,160,258454,1,2,0:0:0:0:
134,160,258538,1,2,0:0:0:0:
134,160,258621,1,8,0:0:0:0:
256,24,258787,5,8,0:0:0:0:
256,24,258871,2,0,L|276:76,1,45,8|0,0:0|0:0,0:0:0:0:
232,284,261212,6,0,B|152:256|132:308|52:284,1,180,2|0,0:1|0:0,0:0:0:0:
280,100,262344,2,0,B|360:72|380:124|460:100,1,180,2|0,0:1|0:0,0:0:0:0:
160,20,263476,6,0,B|111:98|139:194,1,180,2|0,0:1|0:0,0:0:0:0:
352,364,264608,2,0,B|400:287|372:191,1,180,2|0,0:1|0:0,0:0:0:0:
55,284,265740,6,0,B|132:308|152:256|232:284,1,180,2|0,0:1|0:0,0:0:0:0:
456,100,266872,2,0,B|380:124|360:72|280:100,1,180,2|0,0:1|0:0,0:0:0:0:
352,364,268004,6,0,B|401:286|373:190,1,180,2|0,0:1|0:0,0:0:0:0:
160,20,269136,2,0,B|112:97|140:193,1,180,2|0,0:1|0:0,0:0:0:0:
464,280,270268,6,0,B|376:300|376:300|260:292,1,180,2|0,0:1|0:0,0:0:0:0:
48,104,271400,2,0,B|136:84|136:84|252:92,1,180,2|0,0:1|0:0,0:0:0:0:
160,364,272532,6,0,B|111:286|139:190,1,180,2|0,0:1|0:0,0:0:0:0:
352,20,273664,2,0,B|400:97|372:193,1,180,2|0,0:1|0:0,0:0:0:0:
48,104,274796,6,0,B|144:132|228:80,1,180,2|0,0:1|0:0,0:0:0:0:
464,280,275928,2,0,B|368:252|284:304,1,180,2|0,0:1|0:0,0:0:0:0:
352,20,277061,6,0,B|372:108|372:108|364:224,1,180,2|0,0:1|0:0,0:0:0:0:
160,364,278193,2,0,B|140:276|140:276|148:160,1,180,2|0,0:1|0:0,0:0:0:0:
455,96,279325,5,2,0:1:0:0:
500,174,279608,1,0,0:0:0:0:
455,252,279891,1,0,0:0:0:0:
365,252,280174,1,2,0:1:0:0:
320,174,280457,1,0,0:0:0:0:
365,96,280740,1,0,0:0:0:0:
410,174,281023,1,0,0:0:0:0:
365,252,281306,1,0,0:0:0:0:
320,174,281589,5,2,0:1:0:0:
275,252,281872,1,0,0:0:0:0:
190,255,282155,1,0,0:0:0:0:
144,177,282438,2,0,B|47:198|17:293,1,180,2|0,0:1|0:0,0:0:0:0:
88,348,283287,1,0,0:0:0:0:
115,40,283853,5,2,0:1:0:0:
163,116,284136,1,0,0:0:0:0:
73,119,284419,1,0,0:0:0:0:
115,40,284702,1,2,0:1:0:0:
205,37,284985,1,0,0:0:0:0:
253,113,285268,1,0,0:0:0:0:
211,192,285551,1,0,0:0:0:0:
121,195,285834,1,0,0:0:0:0:
163,116,286117,5,2,0:1:0:0:
211,192,286400,1,0,0:0:0:0:
301,189,286683,1,0,0:0:0:0:
343,110,286966,2,0,B|449:104|517:207,1,180,2|0,0:1|0:0,0:0:0:0:
457,261,287815,1,0,0:0:0:0:
202,238,288381,5,2,0:1:0:0:
128,291,288664,1,0,0:0:0:0:
196,351,288947,1,0,0:0:0:0:
270,298,289230,2,0,B|380:278|454:331,1,180,2|0,0:1|0:0,0:0:0:0:
512,264,290079,1,0,0:0:0:0:
260,100,290645,5,2,0:1:0:0:
184,148,290928,1,0,0:0:0:0:
232,224,291212,1,0,0:0:0:0:
308,176,291495,2,0,P|348:112|297:18,1,180,2|0,0:1|0:0,0:0:0:0:
260,100,292344,1,0,0:0:0:0:
86,327,292910,5,2,0:1:0:0:
64,240,293193,1,0,0:0:0:0:
42,153,293476,1,0,0:0:0:0:
20,66,293759,1,2,0:1:0:0:
106,90,294042,1,0,0:0:0:0:
170,28,294325,1,0,0:0:0:0:
256,52,294608,5,0,0:0:0:0:
292,268,295237,6,0,B|346:269|362:301|346:353|302:361|220:368|200:308|228:272|188:240|244:196|274:189|328:204|328:204|420:240|484:212|476:96|476:96|428:148|392:164|348:132|324:92|256:136|256:136|172:80|128:176|48:112,1,1080,2|0,0:1|0:0,0:0:0:0:
256,52,299051,6,0,L|284:36,2,22.5,0|0|0,0:1|0:0|0:0,0:0:0:0:
256,192,299374,12,0,304547,0:0:0:0:
