osu file format v14

[General]
AudioFilename: audio.mp3
AudioLeadIn: 0
PreviewTime: 159253
Countdown: 0
SampleSet: Soft
StackLeniency: 0.7
Mode: 0
LetterboxInBreaks: 0
WidescreenStoryboard: 0

[Editor]
DistanceSpacing: 0.6
BeatDivisor: 4
GridSize: 4
TimelineZoom: 1

[Metadata]
Title:Songs Compilation
TitleUnicode:Songs Compilation
Artist:Jun Maeda x yanaginagi
ArtistUnicode:麻枝 准×やなぎなぎ
Creator:[C u r i]
Version:Love Song
Source:
Tags:
BeatmapID:1760610
BeatmapSetID:841256

[Difficulty]
HPDrainRate:6
CircleSize:4
OverallDifficulty:8
ApproachRate:9
SliderMultiplier:1.67
SliderTickRate:1

[Events]
//Background and Video events
0,0,"cache_9b0dc832-0023-408e-c013-97b06c68843c.jpg",0,0
//Break Periods
2,36302,96680
2,146636,158653
2,201887,215139
2,236510,248172
2,277207,333830
2,385630,396695
2,435313,442661
2,497861,509360
//Storyboard Layer 0 (Background)
//Storyboard Layer 1 (Fail)
//Storyboard Layer 2 (Pass)
//Storyboard Layer 3 (Foreground)
//Storyboard Sound Samples

[TimingPoints]
427.100170642581,405.405405405405,4,2,1,60,1,0
10460,-100,4,2,1,5,0,0
10562,-100,4,2,1,60,0,0
12082,-100,4,2,1,5,0,0
12183,-100,4,2,1,60,0,0
16947,-100,4,2,1,5,0,0
17048,-100,4,2,1,60,0,0
18568,-100,4,2,1,5,0,0
18670,-100,4,2,1,60,0,0
19886,-83.3333333333333,4,2,1,60,0,0
20190,-83.3333333333333,4,2,1,5,0,0
20291,-83.3333333333333,4,2,1,60,0,0
21102,-100,4,2,1,60,0,0
26677,-100,4,2,1,5,0,0
26778,-100,4,2,1,60,0,0
29920,-100,4,2,1,5,0,0
30021,-100,4,2,1,60,0,0
33163,-100,4,2,1,5,0,0
33264,-100,4,2,1,60,0,0
48045,387.096774193548,4,2,1,60,1,0
97280,361.44578313253,4,2,1,60,1,0
97280,-333.333333333333,4,2,1,60,0,0
99990,-100,4,2,1,60,0,0
101707,-100,4,2,1,5,0,0
101798,-100,4,2,1,60,0,0
104599,-100,4,2,1,5,0,0
104689,-100,4,2,1,60,0,0
107490,-100,4,2,1,5,0,0
107581,-100,4,2,1,60,0,0
113273,-100,4,2,1,5,0,0
113364,-100,4,2,1,60,0,0
116165,-100,4,2,1,5,0,0
116255,-100,4,2,1,60,0,0
119057,-100,4,2,1,5,0,0
119147,-100,4,2,1,60,0,0
123394,-100,4,2,1,5,0,0
123484,-100,4,2,1,60,0,0
124840,-100,4,2,1,5,0,0
124930,-100,4,2,1,60,0,0
126286,-100,4,2,1,5,0,0
126376,-100,4,2,1,60,0,0
127008,-100,4,2,1,5,0,0
127099,-100,4,2,1,60,0,0
129900,-100,4,2,1,5,0,0
129990,-100,4,2,1,60,0,0
134960,-100,4,2,1,5,0,0
135051,-100,4,2,1,60,0,0
137852,-100,4,2,1,5,0,0
137942,-100,4,2,1,60,0,0
138575,-100,4,2,1,5,0,0
138665,-100,4,2,1,60,0,0
140743,-100,4,2,1,5,0,0
140834,-100,4,2,1,60,0,0
141466,-100,4,2,1,5,0,0
141557,-100,4,2,1,60,0,0
159253,571.428571428571,4,2,1,60,1,0
161538,566.037735849057,4,2,1,60,1,0
163802,555.555555555556,4,2,1,60,1,0
166024,566.037735849057,4,2,1,60,1,0
168288,535.714285714286,4,2,1,60,1,0
170430,550.45871559633,4,2,1,60,1,0
172631,566.037735849057,4,2,1,60,1,0
174895,555.555555555556,4,2,1,60,1,0
176006,612.244897959184,4,2,1,60,1,0
176618,594.059405940594,4,2,1,60,1,0
177212,571.428571428571,4,2,1,60,1,0
179352,-100,4,2,1,5,0,0
179497,576.923076923077,4,2,1,60,1,0
181227,571.428571428571,4,2,1,60,1,0
182941,560.747663551402,4,2,1,60,1,0
183501,566.037735849057,4,2,1,60,1,0
184633,582.52427184466,4,2,1,60,1,0
185798,566.037735849057,4,2,1,60,1,0
187071,-100,4,2,1,5,0,0
187213,-100,4,2,1,60,0,0
187496,571.428571428571,4,2,1,60,1,0
188067,582.52427184466,4,2,1,60,1,0
188649,576.923076923077,4,2,1,60,1,0
189225,566.037735849057,4,2,1,60,1,0
190357,571.428571428571,4,2,1,60,1,0
192071,576.923076923077,4,2,1,60,1,0
192647,571.428571428571,4,2,1,60,1,0
194932,560.747663551402,4,2,1,60,1,0
196614,545.454545454546,4,2,1,60,1,0
197159,566.037735849057,4,2,1,60,1,0
215739,285.714285714286,4,2,1,60,1,1
215739,-90.9090909090909,4,2,1,60,0,1
216239,-90.9090909090909,4,2,1,5,0,1
216310,-90.9090909090909,4,2,1,60,0,1
218524,-90.9090909090909,4,2,1,5,0,1
218596,-90.9090909090909,4,2,1,60,0,1
224453,-71.4285714285714,4,2,1,60,0,1
224881,-90.9090909090909,4,2,1,60,0,1
225381,-90.9090909090909,4,2,1,5,0,1
225453,-90.9090909090909,4,2,1,60,0,1
227667,-90.9090909090909,4,2,1,5,0,1
227739,-90.9090909090909,4,2,1,60,0,1
230667,-90.9090909090909,4,2,1,5,0,1
230739,-90.9090909090909,4,2,1,60,0,1
233167,-71.4285714285714,4,2,1,60,0,1
234024,-71.4285714285714,4,2,1,60,0,0
248772,441.176470588235,4,2,1,60,1,0
248772,-55.5555555555556,4,2,1,60,0,0
292137,333.333333333333,4,2,1,60,1,0
334430,750,4,2,1,60,1,0
344367,-66.6666666666667,4,2,1,60,0,0
346430,-100,4,2,1,60,0,0
368367,-66.6666666666667,4,2,1,60,0,0
370430,-100,4,2,1,60,0,0
380180,-76.9230769230769,4,2,1,60,0,0
397295,363.636363636364,4,2,1,60,1,0
443261,800,4,2,1,60,1,0
509960,483.870967741935,4,2,1,60,1,0
509960,-90.9090909090909,4,2,1,60,0,0
554260,779.220779220779,3,2,1,60,1,0
556597,779.220779220779,4,2,1,60,1,0

[Colours]
Combo1 : 255,145,145
Combo2 : 255,255,40
Combo3 : 255,142,255
Combo4 : 136,255,166

[HitObjects]
80,83,10156,6,0,P|121:139|97:205,1,125.25
93,208,10562,1,0,0:0:0:0:
19,357,10764,2,0,L|29:297,1,41.75
30,291,10967,1,0,0:0:0:0:
125,340,11170,1,0,0:0:0:0:
198,260,11373,1,0,0:0:0:0:
352,317,11575,1,0,0:0:0:0:
352,317,11677,1,0,0:0:0:0:
352,317,11778,6,0,B|414:331|409:289|479:312,1,125.25
497,320,12183,1,0,0:0:0:0:
386,169,12386,2,0,P|376:190|372:235,1,41.75
370,232,12589,1,0,0:0:0:0:
466,144,12791,1,0,0:0:0:0:
337,100,12994,1,0,0:0:0:0:
234,199,13197,1,0,0:0:0:0:
234,199,13298,1,0,0:0:0:0:
234,199,13400,6,0,P|150:218|93:160,1,167
158,48,14008,1,0,0:0:0:0:
158,48,14109,1,0,0:0:0:0:
158,48,14210,2,0,P|177:101|172:143,1,83.5
17,228,14616,2,0,P|-2:175|3:133,1,83.5
7,124,14920,1,0,0:0:0:0:
7,124,15021,5,0,0:0:0:0:
148,247,15224,2,0,P|123:251|103:258,1,41.75
39,320,15427,1,0,0:0:0:0:
240,357,15629,2,0,B|328:329|321:387|411:355,1,167
423,342,16136,1,0,0:0:0:0:
436,320,16237,1,0,0:0:0:0:
376,181,16440,1,0,0:0:0:0:
356,217,16541,1,0,0:0:0:0:
358,258,16643,6,0,P|383:200|381:110,1,125.25
382,114,17048,1,0,0:0:0:0:
227,44,17251,2,0,P|210:88|210:97,1,41.75
211,107,17454,1,0,0:0:0:0:
294,93,17656,1,0,0:0:0:0:
139,40,17859,1,0,0:0:0:0:
178,210,18062,1,0,0:0:0:0:
178,210,18163,1,0,0:0:0:0:
178,210,18264,6,0,P|212:267|196:339,1,125.25
195,346,18670,1,0,0:0:0:0:
44,245,18873,2,0,P|34:287|33:301,1,41.75
34,311,19075,1,0,0:0:0:0:
119,284,19278,1,0,0:0:0:0:
291,349,19481,1,0,0:0:0:0:
375,317,19683,1,0,0:0:0:0:
197,345,19886,6,0,B|209:287|209:287|197:263|197:263|212:188,1,150.299995413208
215,170,20291,1,0,0:0:0:0:
291,251,20494,1,0,0:0:0:0:
291,251,20596,1,0,0:0:0:0:
291,251,20697,1,0,0:0:0:0:
319,140,20900,1,0,0:0:0:0:
237,55,21102,1,0,0:0:0:0:
126,93,21305,1,0,0:0:0:0:
291,251,21508,5,0,0:0:0:0:
237,55,21710,1,0,0:0:0:0:
100,192,21913,1,0,0:0:0:0:
319,140,22116,2,0,B|407:112|400:169|483:145,1,167
502,127,22623,1,0,0:0:0:0:
512,87,22724,1,0,0:0:0:0:
492,52,22825,1,0,0:0:0:0:
452,41,22927,1,0,0:0:0:0:
414,57,23028,1,0,0:0:0:0:
372,56,23129,5,0,0:0:0:0:
372,56,23535,2,0,P|309:38|283:45,1,83.5
274,58,23839,1,0,0:0:0:0:
274,58,23940,1,0,0:0:0:0:
167,210,24143,1,0,0:0:0:0:
169,40,24346,2,0,P|192:92|202:139,1,83.5
208,140,24650,1,0,0:0:0:0:
208,140,24751,5,0,0:0:0:0:
33,110,24954,2,0,P|34:84|44:59,1,41.75
38,69,25156,2,0,P|60:121|71:168,1,83.5
31,222,25460,1,0,0:0:0:0:
31,222,25562,1,0,0:0:0:0:
115,329,25764,1,0,0:0:0:0:
31,222,25967,2,0,P|8:274|-2:321,1,83.5
3,324,26271,1,0,0:0:0:0:
3,324,26373,6,0,P|55:350|123:321,1,125.25
127,307,26778,1,0,0:0:0:0:
269,354,26981,2,0,L|315:348,1,41.75
335,345,27183,1,0,0:0:0:0:
217,284,27386,1,0,0:0:0:0:
325,216,27589,1,0,0:0:0:0:
456,329,27791,1,0,0:0:0:0:
456,329,27893,1,0,0:0:0:0:
456,329,27994,6,0,B|491:243|422:252|457:155,1,167
341,30,28602,1,0,0:0:0:0:
341,30,28704,1,0,0:0:0:0:
341,30,28805,2,0,P|354:64|357:81,1,41.75
453,167,29008,2,0,P|458:146|467:127,1,41.75
271,78,29210,1,0,0:0:0:0:
239,81,29311,1,0,0:0:0:0:
208,85,29412,1,0,0:0:0:0:
177,89,29514,1,0,0:0:0:0:
146,93,29616,6,0,B|113:102|113:102|18:75,1,125.25
1,69,30021,1,0,0:0:0:0:
85,209,30224,2,0,P|95:232|96:257,1,41.75
94,273,30427,1,0,0:0:0:0:
0,250,30629,1,0,0:0:0:0:
163,173,30832,1,0,0:0:0:0:
151,358,31035,1,0,0:0:0:0:
151,358,31136,1,0,0:0:0:0:
151,358,31237,6,0,B|217:339|207:383|282:360,1,125.25
295,349,31643,1,0,0:0:0:0:
258,170,31846,2,0,P|243:203|240:225,1,41.75
237,232,32048,1,0,0:0:0:0:
330,225,32251,1,0,0:0:0:0:
179,135,32454,2,0,P|156:186|149:223,1,83.5
414,261,32859,6,0,B|438:189|394:203|420:123,1,125.25
429,117,33264,1,0,0:0:0:0:
375,31,33467,1,0,0:0:0:0:
375,31,33568,1,0,0:0:0:0:
375,31,33670,1,0,0:0:0:0:
475,16,33873,1,0,0:0:0:0:
323,125,34075,2,0,P|314:170|331:223,1,83.5
127,309,34481,6,0,P|194:291|282:284,1,125.25
274,284,34886,1,0,0:0:0:0:
151,159,35089,1,0,0:0:0:0:
151,159,35190,1,0,0:0:0:0:
151,159,35291,1,0,0:0:0:0:
114,178,35392,1,0,0:0:0:0:
73,180,35494,2,0,P|44:173|20:162,1,41.75
127,309,35697,1,0,0:0:0:0:
82,87,35900,1,0,0:0:0:0:
237,119,36102,5,0,0:0:0:0:
328,221,97280,6,0,P|365:213|402:205,2,75.1499977066041
317,215,99448,5,0,0:0:0:0:
78,143,99629,1,0,0:0:0:0:
78,143,99990,6,0,B|123:134|159:155|159:155|196:178|239:168,1,167
375,70,100533,1,0,0:0:0:0:
316,215,100713,1,0,0:0:0:0:
477,172,100894,2,0,P|458:162|439:154,1,41.75
294,234,101075,1,0,0:0:0:0:
479,311,101255,1,0,0:0:0:0:
355,330,101436,6,0,L|478:311,1,125.25
479,311,101798,1,0,0:0:0:0:
272,253,101978,1,0,0:0:0:0:
405,133,102159,2,0,B|420:172|420:172|408:212,1,83.5
246,363,102520,1,0,0:0:0:0:
155,177,102701,1,0,0:0:0:0:
314,176,102882,6,0,B|263:164|263:164|211:188|211:188|155:177,1,167
272,253,103424,1,0,0:0:0:0:
197,100,103605,1,0,0:0:0:0:
378,37,103786,2,0,B|393:76|393:76|381:116,1,83.5
272,253,104147,1,0,0:0:0:0:
466,251,104328,6,0,P|417:213|356:220,1,125.25
357,219,104689,1,0,0:0:0:0:
186,286,104870,2,0,L|186:369,1,83.5
124,157,105231,1,0,0:0:0:0:
272,253,105412,1,0,0:0:0:0:
90,333,105593,1,0,0:0:0:0:
236,166,105773,6,0,B|278:138|278:138|392:157,1,167
425,341,106316,1,0,0:0:0:0:
272,253,106496,1,0,0:0:0:0:
471,114,106677,2,0,P|479:154|471:195,1,83.5
336,320,107039,1,0,0:0:0:0:
236,166,107219,6,0,L|228:40,1,125.25
228,40,107581,1,0,0:0:0:0:
138,150,107761,1,0,0:0:0:0:
329,178,107942,1,0,0:0:0:0:
165,277,108123,2,0,B|205:264|205:264|245:273,1,83.5
366,356,108484,1,0,0:0:0:0:
356,199,108665,6,0,B|386:249|386:249|365:355,1,167
472,167,109207,1,0,0:0:0:0:
295,268,109388,2,0,B|278:349,1,83.5
504,285,109749,1,0,0:0:0:0:
261,184,109930,1,0,0:0:0:0:
365,111,110111,1,0,0:0:0:0:
152,63,110292,5,0,0:0:0:0:
365,111,110472,1,0,0:0:0:0:
164,197,110653,5,0,0:0:0:0:
276,10,110834,1,0,0:0:0:0:
451,215,111014,5,0,0:0:0:0:
415,237,111104,1,0,0:0:0:0:
375,247,111194,1,0,0:0:0:0:
334,243,111285,1,0,0:0:0:0:
295,226,111375,1,0,0:0:0:0:
155,41,111557,6,0,B|185:86|185:86|163:196,1,167
272,56,112099,1,0,0:0:0:0:
91,114,112280,1,0,0:0:0:0:
246,233,112460,2,0,L|254:192,1,41.75
279,79,112641,1,0,0:0:0:0:
155,205,112822,1,0,0:0:0:0:
337,261,113002,6,0,L|362:138,1,125.25
361,138,113364,1,0,0:0:0:0:
246,233,113545,1,0,0:0:0:0:
442,190,113725,1,0,0:0:0:0:
307,42,113906,2,0,L|266:33,2,41.75
447,96,114267,1,0,0:0:0:0:
268,134,114448,6,0,L|104:100,1,167
266,33,114990,1,0,0:0:0:0:
162,216,115171,1,0,0:0:0:0:
337,261,115352,2,0,B|353:222|353:222|337:183,1,83.5
244,308,115713,1,0,0:0:0:0:
441,337,115894,6,0,P|380:328|330:364,1,125.25
330,363,116255,1,0,0:0:0:0:
158,251,116436,1,0,0:0:0:0:
337,261,116617,1,0,0:0:0:0:
151,355,116798,1,0,0:0:0:0:
251,204,116978,1,0,0:0:0:0:
151,355,117159,1,0,0:0:0:0:
0,250,117340,6,0,B|51:238|51:238|103:262|103:262|159:251,1,167
296,122,117882,1,0,0:0:0:0:
116,68,118063,1,0,0:0:0:0:
251,204,118243,2,0,P|256:248|248:303,1,83.5
119,167,118605,1,0,0:0:0:0:
296,122,118786,6,0,L|420:108,1,125.25
420,107,119147,1,0,0:0:0:0:
251,204,119328,1,0,0:0:0:0:
443,238,119508,1,0,0:0:0:0:
297,365,119689,2,0,B|310:325|310:325|301:285,1,83.5
202,124,120051,1,0,0:0:0:0:
59,265,120231,6,0,P|127:309|205:287,1,167
307,81,120773,5,0,0:0:0:0:
142,214,120954,1,0,0:0:0:0:
346,201,121135,5,0,0:0:0:0:
112,64,121316,1,0,0:0:0:0:
346,201,121497,5,0,0:0:0:0:
142,214,121677,1,0,0:0:0:0:
350,354,121858,5,0,0:0:0:0:
58,268,122039,1,0,0:0:0:0:
58,268,122129,1,0,0:0:0:0:
58,268,122219,1,0,0:0:0:0:
33,235,122309,1,0,0:0:0:0:
41,195,122399,1,0,0:0:0:0:
76,174,122490,1,0,0:0:0:0:
115,185,122580,1,0,0:0:0:0:
154,198,122671,1,0,0:0:0:0:
193,186,122761,1,0,0:0:0:0:
217,152,122852,1,0,0:0:0:0:
218,111,122942,1,0,0:0:0:0:
23,27,123123,6,0,B|63:52|63:52|136:24,1,125.25
135,24,123484,2,0,L|176:27,1,41.75
381,99,123665,1,0,0:0:0:0:
193,186,123846,1,0,0:0:0:0:
377,287,124026,2,0,L|335:290,1,41.75
183,346,124207,1,0,0:0:0:0:
394,262,124388,1,0,0:0:0:0:
242,122,124569,6,0,P|273:175|257:234,1,125.25
257,233,124930,1,0,0:0:0:0:
64,301,125111,1,0,0:0:0:0:
193,186,125292,1,0,0:0:0:0:
47,293,125472,2,0,L|5:300,2,41.75
248,365,125834,1,0,0:0:0:0:
9,211,126014,6,0,P|70:205|120:240,1,125.25
120,240,126376,1,0,0:0:0:0:
248,365,126557,1,0,0:0:0:0:
357,150,126737,2,0,B|385:189|385:189|364:263,1,125.25
363,263,127099,2,0,L|321:255,1,41.75
193,186,127280,1,0,0:0:0:0:
248,365,127460,6,0,L|206:372,2,41.75
467,235,127822,1,0,0:0:0:0:
349,130,128002,1,0,0:0:0:0:
404,379,128183,1,0,0:0:0:0:
214,211,128364,1,0,0:0:0:0:
467,235,128545,1,0,0:0:0:0:
247,364,128725,1,0,0:0:0:0:
501,261,128906,6,0,B|458:248|420:273|420:273|386:296|341:288,1,167
231,166,129449,1,0,0:0:0:0:
125,347,129629,2,0,L|139:222,1,125.25
138,222,129990,1,0,0:0:0:0:
247,364,130171,1,0,0:0:0:0:
344,209,130352,6,0,B|329:248|329:248|341:288,1,83.5
231,166,130713,1,0,0:0:0:0:
426,251,130894,1,0,0:0:0:0:
247,364,131075,1,0,0:0:0:0:
468,356,131255,2,0,L|384:360,1,83.5
247,364,131617,1,0,0:0:0:0:
318,138,131798,6,0,B|348:189|348:189|321:293,1,167
216,143,132340,5,0,0:0:0:0:
426,251,132520,1,0,0:0:0:0:
156,321,132701,5,0,0:0:0:0:
426,251,132882,1,0,0:0:0:0:
186,232,133063,5,0,0:0:0:0:
384,360,133243,1,0,0:0:0:0:
141,366,133423,5,0,0:0:0:0:
216,143,133605,1,0,0:0:0:0:
229,367,133786,5,0,0:0:0:0:
127,93,133966,1,0,0:0:0:0:
351,250,134147,5,0,0:0:0:0:
310,246,134237,1,0,0:0:0:0:
268,241,134327,1,0,0:0:0:0:
227,236,134418,1,0,0:0:0:0:
186,232,134508,1,0,0:0:0:0:
291,44,134689,6,0,P|321:96|299:152,1,125.25
298,152,135051,2,0,L|256:147,1,41.75
127,93,135231,5,0,0:0:0:0:
268,241,135412,1,0,0:0:0:0:
28,298,135593,5,0,0:0:0:0:
268,241,135773,1,0,0:0:0:0:
17,204,135954,5,0,0:0:0:0:
235,340,136135,1,0,0:0:0:0:
28,298,136316,5,0,0:0:0:0:
268,241,136496,1,0,0:0:0:0:
17,204,136677,5,0,0:0:0:0:
257,147,136857,1,0,0:0:0:0:
131,352,137039,5,0,0:0:0:0:
65,119,137219,1,0,0:0:0:0:
131,352,137400,1,0,0:0:0:0:
257,147,137581,6,0,L|380:124,1,125.25
380,124,137942,2,0,L|372:165,1,41.75
284,307,138123,1,0,0:0:0:0:
484,302,138304,2,0,B|452:277|452:277|368:289,1,125.25
369,290,138665,2,0,L|361:248,1,41.75
307,84,138846,1,0,0:0:0:0:
182,213,139026,6,0,L|189:254,2,41.75
103,118,139388,1,0,0:0:0:0:
307,84,139569,2,0,L|224:98,1,83.5
82,209,139930,1,0,0:0:0:0:
53,237,140020,1,0,0:0:0:0:
41,277,140111,1,0,0:0:0:0:
55,315,140201,1,0,0:0:0:0:
89,339,140292,2,0,L|130:331,1,41.75
347,326,140472,6,0,B|312:295|312:295|235:311,1,125.25
235,311,140834,1,0,0:0:0:0:
339,188,141014,1,0,0:0:0:0:
197,85,141195,2,0,L|216:208,1,125.25
216,208,141557,1,0,0:0:0:0:
320,65,141737,1,0,0:0:0:0:
96,49,141918,6,0,L|109:131,1,83.5
216,208,142280,1,0,0:0:0:0:
70,200,142460,1,0,0:0:0:0:
176,50,142641,1,0,0:0:0:0:
289,168,142822,6,0,B|304:207|304:207|292:247,1,83.5
216,367,143183,1,0,0:0:0:0:
216,208,143364,6,0,B|204:259|204:259|228:311|228:311|217:367,1,167
292,246,143906,5,0,0:0:0:0:
59,329,144087,1,0,0:0:0:0:
292,246,144267,5,0,0:0:0:0:
16,209,144448,1,0,0:0:0:0:
292,246,144629,5,0,0:0:0:0:
79,320,144810,1,0,0:0:0:0:
353,322,144990,5,0,0:0:0:0:
231,170,145171,1,0,0:0:0:0:
368,185,145352,1,0,0:0:0:0:
216,307,145533,1,0,0:0:0:0:
94,155,145713,6,0,L|91:71,1,83.5
127,52,145985,1,0,0:0:0:0:
168,56,146075,1,0,0:0:0:0:
200,83,146166,1,0,0:0:0:0:
232,110,146255,1,0,0:0:0:0:
273,114,146345,1,0,0:0:0:0:
309,95,146436,5,0,0:0:0:0:
83,120,159253,6,0,B|174:97|146:161|250:137,1,167
319,78,160110,2,0,P|401:74|450:153,1,167
427,224,160967,1,0,0:0:0:0:
427,224,161538,6,0,L|445:321,1,83.5
345,289,162104,2,0,L|327:192,1,83.5
253,285,162670,2,0,L|245:239,1,41.75
245,243,162953,1,0,0:0:0:0:
296,365,163236,1,0,0:0:0:0:
163,343,163519,1,0,0:0:0:0:
163,343,163802,6,0,P|109:321|31:386,1,167
85,234,164635,2,0,L|105:58,1,167
15,99,165468,2,0,L|3:211,1,83.5
156,299,166024,6,0,B|245:324|237:268|332:293,2,167
160,303,167297,1,0,0:0:0:0:
160,303,167439,2,0,P|184:254|182:218,1,83.5
146,149,168005,1,0,0:0:0:0:
336,36,168288,6,0,L|432:49,2,83.5
269,186,169091,2,0,L|441:209,1,167
408,125,169895,2,0,L|325:113,1,83.5
494,264,170430,6,0,P|516:208|510:179,1,83.5
434,208,170980,1,0,0:0:0:0:
512,351,171255,1,0,0:0:0:0:
512,351,171530,2,0,L|425:337,1,83.5
351,194,172081,2,0,L|433:207,1,83.5
224,325,172631,6,0,B|131:295|149:357|45:321,1,167
283,81,173763,2,0,B|376:51|358:113|462:77,1,167
446,81,174612,1,0,0:0:0:0:
304,167,174895,6,0,P|250:166|218:140,1,83.5
250,66,175450,2,0,P|304:67|336:93,1,83.5
156,230,176006,6,0,L|144:141,1,83.5
450,85,176618,2,0,L|462:-4,1,83.5
246,200,177212,6,0,L|272:389,1,167
354,273,178069,2,0,L|331:107,1,167
335,111,178783,1,0,0:0:0:0:
335,111,178926,2,0,P|277:72|208:92,1,125.25
207,98,179497,6,0,P|157:103|114:73,1,83.5
1,11,180073,2,0,P|51:6|94:36,1,83.5
43,175,180650,2,0,L|31:84,1,83.5
121,227,181227,5,0,0:0:0:0:
121,227,181512,2,0,P|64:269|-26:240,1,167
183,164,182369,2,0,P|208:226|199:259,1,83.5
150,311,182941,1,0,0:0:0:0:
150,311,183221,1,0,0:0:0:0:
375,378,183501,6,0,L|470:367,1,83.5
314,317,184067,2,0,L|231:326,1,83.5
359,238,184633,1,0,0:0:0:0:
359,238,184924,1,0,0:0:0:0:
440,209,185215,1,0,0:0:0:0:
428,293,185506,1,0,0:0:0:0:
379,149,185798,6,0,L|392:60,1,83.5
391,66,186364,1,0,0:0:0:0:
308,33,186647,2,0,L|288:174,1,125.25
290,157,187213,1,0,0:0:0:0:
229,221,187496,2,0,P|169:240|137:222,1,83.5
5,42,188067,6,0,B|103:19|78:88|181:59,1,167
82,282,189225,2,0,P|64:226|76:195,1,83.5
157,191,189791,2,0,P|175:247|163:278,1,83.5
292,122,190357,6,0,L|396:130,1,83.5
240,197,190928,2,0,L|136:189,1,83.5
267,34,191499,2,0,L|444:46,1,167
433,45,192647,5,0,0:0:0:0:
500,94,192932,1,0,0:0:0:0:
503,177,193218,1,0,0:0:0:0:
461,250,193504,2,0,B|366:273|398:216|298:240,1,167
223,282,194361,2,0,P|199:327|209:364,1,83.5
227,191,194932,6,0,L|210:92,1,83.5
120,82,195492,2,0,L|137:181,2,83.5
186,21,196333,1,0,0:0:0:0:
329,120,196614,2,0,P|389:120|418:89,1,83.5
492,38,197159,6,0,P|456:90|456:202,1,167
282,347,198291,2,0,P|284:264|242:193,1,167
165,156,199281,1,0,0:0:0:0:
165,156,199423,6,0,L|74:163,1,83.5
11,218,199989,1,0,0:0:0:0:
96,250,200272,1,0,0:0:0:0:
96,250,200838,1,0,0:0:0:0:
81,162,201121,1,0,0:0:0:0:
11,218,201404,1,0,0:0:0:0:
166,190,201687,5,0,0:0:0:0:
433,118,215739,6,0,L|341:129,1,92
72,141,216024,2,0,P|132:136|205:211,1,138
200,199,216310,1,0,0:0:0:0:
27,321,216453,1,0,0:0:0:0:
72,141,216596,1,0,0:0:0:0:
129,343,216739,2,0,P|123:293|112:248,1,92
323,131,217024,5,0,0:0:0:0:
296,331,217167,1,0,0:0:0:0:
309,231,217310,1,0,0:0:0:0:
403,303,217453,5,0,0:0:0:0:
217,172,217596,1,0,0:0:0:0:
436,124,217739,5,0,0:0:0:0:
177,347,217881,1,0,0:0:0:0:
99,46,218024,6,0,P|141:61|192:73,1,92
461,231,218310,2,0,B|381:205|381:205|320:253,1,138
325,256,218596,1,0,0:0:0:0:
123,170,218739,1,0,0:0:0:0:
314,53,218881,1,0,0:0:0:0:
223,292,219024,6,0,L|229:185,1,92
232,110,219310,1,0,0:0:0:0:
121,263,219453,1,0,0:0:0:0:
325,256,219596,2,0,L|404:247,2,46
54,68,219881,5,0,0:0:0:0:
230,213,220024,1,0,0:0:0:0:
19,327,220167,1,0,0:0:0:0:
19,327,220239,1,0,0:0:0:0:
19,327,220310,1,0,0:0:0:0:
141,127,220453,6,0,L|247:106,1,92
318,171,220739,1,0,0:0:0:0:
413,123,220881,5,0,0:0:0:0:
289,283,221024,1,0,0:0:0:0:
231,109,221167,1,0,0:0:0:0:
431,33,221310,6,0,P|422:66|412:143,1,92
329,196,221596,1,0,0:0:0:0:
480,255,221739,2,0,B|388:243|415:313|308:301,1,184
141,203,222167,1,0,0:0:0:0:
141,89,222310,2,0,P|180:101|244:108,1,92
387,86,222596,5,0,0:0:0:0:
238,201,222739,1,0,0:0:0:0:
203,15,222881,1,0,0:0:0:0:
203,15,223024,1,0,0:0:0:0:
307,283,223167,5,0,0:0:0:0:
230,107,223310,1,0,0:0:0:0:
182,289,223453,1,0,0:0:0:0:
337,150,223596,6,0,L|380:136,2,46
128,176,223881,2,0,L|38:152,1,92
236,194,224167,1,0,0:0:0:0:
236,194,224310,1,0,0:0:0:0:
409,273,224453,6,0,P|380:266|354:253,1,58.4499982162476
72,195,224596,2,0,P|101:188|126:175,1,58.4499982162476
233,78,224739,1,0,0:0:0:0:
243,285,224881,6,0,L|235:185,1,92
56,51,225167,2,0,B|92:83|92:83|79:182,1,138
77,195,225453,1,0,0:0:0:0:
233,78,225596,1,0,0:0:0:0:
233,78,225667,1,0,0:0:0:0:
233,78,225739,1,0,0:0:0:0:
345,251,225881,2,0,P|391:244|445:232,1,92
230,268,226167,5,0,0:0:0:0:
254,169,226310,1,0,0:0:0:0:
203,367,226453,1,0,0:0:0:0:
133,206,226596,5,0,0:0:0:0:
313,341,226739,1,0,0:0:0:0:
85,348,226881,5,0,0:0:0:0:
371,152,227024,1,0,0:0:0:0:
84,19,227167,6,0,L|104:116,1,92
212,384,227453,2,0,P|212:311|260:232,1,138
258,240,227739,1,0,0:0:0:0:
123,246,227881,1,0,0:0:0:0:
123,246,227953,1,0,0:0:0:0:
123,246,228024,1,0,0:0:0:0:
300,129,228167,6,0,P|261:136|200:145,1,92
105,138,228453,1,0,0:0:0:0:
258,240,228596,1,0,0:0:0:0:
232,48,228739,2,0,L|225:-5,2,46
356,294,229024,5,0,0:0:0:0:
209,143,229167,1,0,0:0:0:0:
132,342,229310,1,0,0:0:0:0:
132,342,229381,1,0,0:0:0:0:
132,342,229453,1,0,0:0:0:0:
313,161,229596,6,0,L|429:141,1,92
331,269,229881,1,0,0:0:0:0:
190,53,230024,2,0,P|205:110|208:162,1,92
132,342,230310,1,0,0:0:0:0:
214,285,230453,2,0,P|167:247|79:248,1,138
74,255,230739,5,0,0:0:0:0:
286,208,230881,1,0,0:0:0:0:
113,123,231024,1,0,0:0:0:0:
214,285,231167,5,0,0:0:0:0:
293,99,231310,1,0,0:0:0:0:
361,271,231453,2,0,P|398:281|470:296,1,92
425,151,231739,5,0,0:0:0:0:
291,343,231881,1,0,0:0:0:0:
204,155,232024,1,0,0:0:0:0:
204,155,232167,1,0,0:0:0:0:
277,226,232310,5,0,0:0:0:0:
176,55,232453,1,0,0:0:0:0:
164,257,232596,1,0,0:0:0:0:
296,97,232739,6,0,L|349:75,2,46
96,139,233024,1,0,0:0:0:0:
278,352,233167,6,0,B|271:319|271:319|277:289,1,58.4499982162476
96,139,233310,2,0,B|103:172|103:172|97:201,1,58.4499982162476
57,305,233453,5,0,0:0:0:0:
96,327,233524,1,0,0:0:0:0:
141,324,233596,1,0,0:0:0:0:
177,297,233667,1,0,0:0:0:0:
192,254,233739,5,0,0:0:0:0:
207,211,233810,1,0,0:0:0:0:
243,184,233881,1,0,0:0:0:0:
288,181,233953,1,0,0:0:0:0:
328,204,234024,1,0,0:0:0:0:
256,192,234096,12,0,236310,0:0:0:0:
240,128,248772,6,0,L|136:112,2,75.1499977066041
312,68,249102,2,0,P|284:152|272:260,1,150.299995413208
327,272,249433,2,0,P|400:272|400:344,2,150.299995413208
104,344,250095,1,0,0:0:0:0:
175,320,250205,1,0,0:0:0:0:
212,256,250316,1,0,0:0:0:0:
183,188,250426,1,0,0:0:0:0:
119,152,250536,6,0,P|82:163|20:176,2,75.1499977066041
180,80,250867,2,0,L|376:124,1,150.299995413208
436,28,251198,1,0,0:0:0:0:
436,28,251308,6,0,P|423:62|412:100,1,75.1499977066041
504,192,251529,1,0,0:0:0:0:
504,192,251639,2,0,L|492:117,1,75.1499977066041
320,200,251860,2,0,P|408:204|420:304,1,150.299995413208
120,344,252301,6,0,P|133:277|168:164,1,150.299995413208
256,104,252632,2,0,P|199:144|112:192,1,150.299995413208
60,92,252963,2,0,P|72:53|96:0,1,75.1499977066041
256,104,253183,6,0,P|328:118|424:132,1,150.299995413208
496,96,253514,1,0,0:0:0:0:
512,244,253624,2,0,P|424:200|400:192,1,75.1499977066041
296,272,253845,1,0,0:0:0:0:
388,284,253955,1,0,0:0:0:0:
421,202,254066,6,0,P|414:165|403:129,1,75.1499977066041
288,284,254286,2,0,P|277:319|270:356,1,75.1499977066041
160,248,254507,2,0,P|112:212|92:208,1,75.1499977066041
252,152,254727,2,0,P|295:141|344:120,1,75.1499977066041
124,60,254948,6,0,P|130:100|136:164,1,75.1499977066041
149,322,255169,2,0,P|155:285|160:248,1,75.1499977066041
220,28,255389,2,0,P|226:68|232:132,1,75.1499977066041
245,290,255610,2,0,P|251:252|255:215,1,75.1499977066041
418,96,255830,6,0,P|355:69|323:130,1,150.299995413208
436,196,256161,2,0,P|472:206|507:218,1,75.1499977066041
432,320,256382,1,0,0:0:0:0:
312,344,256492,1,0,0:0:0:0:
312,344,256602,6,0,P|296:259|272:160,1,150.299995413208
156,64,256933,1,0,0:0:0:0:
164,172,257044,1,0,0:0:0:0:
252,104,257154,2,0,P|288:84|344:68,2,75.1499977066041
268,208,257485,1,0,0:0:0:0:
144,292,257595,6,0,P|84:268|48:248,1,75.1499977066041
280,308,257816,2,0,P|229:347|193:369,1,75.1499977066041
372,196,258036,2,0,P|381:259|381:301,1,75.1499977066041
268,208,258257,1,0,0:0:0:0:
332,88,258367,6,0,P|416:108|504:144,1,150.299995413208
504,8,258698,2,0,L|376:36,1,75.1499977066041
332,88,258919,2,0,L|202:70,1,75.1499977066041
156,132,259139,2,0,L|45:61,1,75.1499977066041
28,264,259360,6,0,P|128:212|192:240,1,150.299995413208
224,356,259691,2,0,P|240:282|258:209,1,150.299995413208
348,152,260022,2,0,P|382:173|412:212,1,75.1499977066041
512,108,260242,6,0,L|328:132,1,150.299995413208
288,44,260573,1,0,0:0:0:0:
258,209,260683,2,0,P|272:246|286:305,1,75.1499977066041
160,120,260904,2,0,P|169:83|183:48,1,75.1499977066041
56,212,261124,6,0,P|148:228|128:324,2,150.299995413208
272,364,261786,2,0,P|263:320|260:256,1,75.1499977066041
348,188,262007,6,0,L|496:210,1,150.299995413208
296,88,262338,2,0,L|464:112,1,150.299995413208
372,284,262669,2,0,P|368:246|360:209,1,75.1499977066041
220,120,262889,6,0,P|204:216|208:308,1,150.299995413208
116,352,263220,2,0,P|164:300|108:240,1,150.299995413208
44,168,263551,2,0,P|55:132|68:96,1,75.1499977066041
204,28,263772,6,0,L|408:60,1,150.299995413208
448,16,264102,1,0,0:0:0:0:
500,144,264213,2,0,L|352:168,1,150.299995413208
260,116,264544,1,0,0:0:0:0:
204,280,264654,6,0,P|208:304|216:364,2,75.1499977066041
148,176,264985,2,0,P|183:234|244:203,1,150.299995413208
184,48,265316,2,0,P|147:55|111:66,1,75.1499977066041
260,116,265536,6,0,P|296:108|332:97,1,75.1499977066041
427,23,265757,2,0,P|417:58|411:107,1,75.1499977066041
386,240,265977,2,0,P|375:204|362:169,1,75.1499977066041
512,184,266198,1,0,0:0:0:0:
512,184,266308,6,0,L|312:164,1,150.299995413208
269,338,266639,2,0,B|269:286|303:260|303:260|298:229|276:199,1,150.299995413208
279,203,266970,1,0,0:0:0:0:
355,327,267080,6,0,B|409:342|409:342|469:337|505:292,1,150.299995413208
512,184,267411,1,0,0:0:0:0:
512,184,267522,2,0,P|503:137|485:88,1,75.1499977066041
356,38,267742,1,0,0:0:0:0:
304,109,267852,1,0,0:0:0:0:
222,121,267963,1,0,0:0:0:0:
145,91,268073,1,0,0:0:0:0:
94,25,268183,6,0,L|136:235,1,150.299995413208
44,322,268514,2,0,B|68:292|68:292|135:262|180:300,1,150.299995413208
329,330,268845,2,0,P|293:343|256:348,1,75.1499977066041
248,154,269066,5,0,0:0:0:0:
236,240,269176,1,0,0:0:0:0:
405,140,269286,1,0,0:0:0:0:
393,54,269396,1,0,0:0:0:0:
512,287,269507,5,0,0:0:0:0:
433,311,269617,1,0,0:0:0:0:
360,274,269727,1,0,0:0:0:0:
331,197,269838,1,0,0:0:0:0:
476,77,269948,6,0,L|430:220,1,150.299995413208
207,351,270279,2,0,P|207:268|284:228,1,150.299995413208
433,311,270610,2,0,L|504:289,1,75.1499977066041
331,197,270830,6,0,L|402:175,1,75.1499977066041
340,343,271051,2,0,P|342:306|360:274,1,75.1499977066041
485,158,271272,2,0,P|483:195|467:231,1,75.1499977066041
344,114,271492,2,0,L|321:18,1,75.1499977066041
129,136,271713,6,0,B|181:109|181:109|268:139,1,150.299995413208
194,310,272044,2,0,B|177:246|205:200|205:200|239:211,1,150.299995413208
99,288,272374,2,0,P|58:294|-13:321,1,75.1499977066041
209,335,272595,5,0,0:0:0:0:
289,316,272705,1,0,0:0:0:0:
366,346,272816,1,0,0:0:0:0:
446,327,272926,1,0,0:0:0:0:
488,169,273036,6,0,P|443:182|396:199,1,75.1499977066041
289,316,273257,1,0,0:0:0:0:
289,316,273367,2,0,P|307:273|240:191,1,150.299995413208
93,278,273698,2,0,B|106:319|106:319|151:351|209:335,1,150.299995413208
177,161,274029,1,0,0:0:0:0:
177,161,274139,6,0,B|125:161|80:189|80:189|106:158|125:112,1,150.299995413208
93,278,274470,1,0,0:0:0:0:
93,278,274580,2,0,P|80:317|64:360,1,75.1499977066041
177,161,274801,2,0,P|189:200|206:243,1,75.1499977066041
79,143,275022,1,0,0:0:0:0:
112,67,275132,1,0,0:0:0:0:
272,66,275242,6,0,P|234:43|178:25,1,75.1499977066041
373,99,275463,2,0,P|362:55|335:3,1,75.1499977066041
420,197,275683,2,0,P|442:158|461:102,1,75.1499977066041
387,295,275904,2,0,P|430:284|482:257,1,75.1499977066041
286,264,276124,6,0,L|253:371,1,75.1499977066041
201,188,276345,2,0,L|206:299,1,75.1499977066041
95,148,276566,2,0,L|138:251,1,75.1499977066041
0,314,276786,2,0,P|30:291|64:276,1,75.1499977066041
186,355,277007,5,0,0:0:0:0:
10,53,334430,5,0,0:0:0:0:
81,122,334805,2,0,P|77:163|71:204,1,83.5
157,341,335555,2,0,P|160:299|166:258,1,83.5
217,171,336305,1,0,0:0:0:0:
305,123,336680,2,0,P|344:182|459:181,1,167
239,230,337805,5,0,0:0:0:0:
317,312,338180,2,0,L|235:330,1,83.5
64,200,338930,2,0,L|145:181,1,83.5
241,227,339680,1,0,0:0:0:0:
306,136,340055,1,0,0:0:0:0:
433,207,340430,6,0,P|404:125|415:42,1,167
299,147,341555,1,0,0:0:0:0:
172,22,341930,2,0,P|183:62|188:105,1,83.5
62,307,342680,2,0,P|50:266|45:223,1,83.5
43,132,343430,6,0,B|129:139|92:188|191:200,1,167
260,263,344367,1,0,0:0:0:0:
314,191,344555,1,0,0:0:0:0:
393,244,344742,2,0,P|424:236|463:231,1,62.6250023889543
447,19,345117,5,0,0:0:0:0:
373,84,345305,1,0,0:0:0:0:
492,142,345492,1,0,0:0:0:0:
350,75,345680,2,0,P|319:82|288:87,1,62.6250023889543
80,70,346055,2,0,L|97:145,1,62.6250023889543
215,253,346430,6,0,L|201:128,1,125.25
185,101,347180,2,0,P|254:88|293:74,1,83.5
474,188,347930,2,0,P|411:185|349:196,1,125.25
336,216,348680,1,0,0:0:0:0:
0,191,349055,1,0,0:0:0:0:
79,143,349242,1,0,0:0:0:0:
90,233,349430,6,0,B|158:246|133:283|196:294,1,125.25
215,279,350180,2,0,P|226:320|232:361,1,83.5
434,230,350930,1,0,0:0:0:0:
351,173,351117,1,0,0:0:0:0:
444,128,351305,1,0,0:0:0:0:
434,230,351492,1,0,0:0:0:0:
461,106,351680,5,0,0:0:0:0:
331,199,351867,1,0,0:0:0:0:
150,137,352055,1,0,0:0:0:0:
223,76,352242,1,0,0:0:0:0:
234,164,352430,6,0,L|218:308,1,125.25
219,312,353180,2,0,P|178:316|137:325,1,83.5
335,231,353930,2,0,P|405:268|494:273,1,167
510,185,355055,1,0,0:0:0:0:
445,44,355430,6,0,P|453:103|410:146,1,125.25
384,134,356180,2,0,L|279:120,1,83.5
219,180,356742,1,0,0:0:0:0:
43,81,356930,5,0,0:0:0:0:
146,238,357117,1,0,0:0:0:0:
146,238,357211,1,0,0:0:0:0:
146,238,357305,1,0,0:0:0:0:
49,309,357492,1,0,0:0:0:0:
137,144,357680,5,0,0:0:0:0:
232,136,357867,1,0,0:0:0:0:
290,212,358055,1,0,0:0:0:0:
290,212,358430,5,0,0:0:0:0:
362,150,358805,2,0,L|452:139,1,83.5
343,312,359555,2,0,L|260:322,1,83.5
192,256,360305,1,0,0:0:0:0:
43,245,360680,2,0,P|91:226|129:112,1,167
307,169,361805,5,0,0:0:0:0:
235,13,362180,2,0,P|228:53|227:95,1,83.5
336,274,362930,2,0,P|334:232|327:191,1,83.5
418,149,363680,1,0,0:0:0:0:
470,232,364055,1,0,0:0:0:0:
240,302,364430,6,0,P|322:313|400:341,1,167
404,206,365555,1,0,0:0:0:0:
300,210,365930,2,0,P|289:169|283:128,1,83.5
107,24,366680,2,0,P|117:64|123:105,1,83.5
2,187,367430,6,0,B|93:193|56:244|149:255,1,167
294,300,368367,1,0,0:0:0:0:
225,189,368555,1,0,0:0:0:0:
313,143,368742,2,0,L|323:81,1,62.6250023889543
46,23,369117,5,0,0:0:0:0:
112,150,369305,1,0,0:0:0:0:
175,64,369492,1,0,0:0:0:0:
103,169,369680,2,0,L|113:230,1,62.6250023889543
106,337,370055,2,0,P|136:328|167:323,1,62.6250023889543
235,251,370430,6,0,B|298:259|282:288|348:299,1,125.25
372,282,371180,2,0,P|386:322|398:362,1,83.5
450,115,371930,2,0,P|418:152|341:176,1,125.25
326,165,372680,1,0,0:0:0:0:
248,250,373055,1,0,0:0:0:0:
70,83,373430,6,0,L|96:217,1,125.25
114,177,374180,2,0,L|202:153,1,83.5
296,357,374930,2,0,P|244:294|163:287,1,167
356,89,376055,1,0,0:0:0:0:
292,161,376242,1,0,0:0:0:0:
385,184,376430,6,0,L|408:325,1,125.25
393,328,377180,2,0,L|488:345,1,83.5
262,168,377930,1,0,0:0:0:0:
284,257,378305,2,0,L|189:274,1,83.5
4,371,379055,1,0,0:0:0:0:
93,287,379242,1,0,0:0:0:0:
5,223,379430,6,0,B|31:149|31:149|8:107,1,125.25
0,85,380180,2,0,B|84:91|54:143|145:150,1,162.824992546463
251,123,380930,1,0,0:0:0:0:
103,257,381305,1,0,0:0:0:0:
248,150,381680,5,0,0:0:0:0:
131,251,381867,1,0,0:0:0:0:
279,313,382055,1,0,0:0:0:0:
221,237,382430,5,0,0:0:0:0:
256,192,382617,12,0,385430,0:0:0:0:
218,333,397295,6,0,P|202:294|207:253,1,83.5
279,143,397658,1,0,0:0:0:0:
166,97,397840,2,0,P|124:92|82:88,1,83.5
301,160,398204,2,0,P|342:155|384:151,1,83.5
219,239,398567,6,0,P|136:229|52:221,1,167
127,143,399113,1,0,0:0:0:0:
168,318,399295,1,0,0:0:0:0:
223,143,399476,2,0,P|232:102|234:60,1,83.5
340,244,399840,2,0,P|330:203|328:161,1,83.5
491,114,400204,6,0,P|449:111|408:102,1,83.5
309,30,400567,1,0,0:0:0:0:
221,160,400749,2,0,P|225:201|230:242,1,83.5
119,115,401113,2,0,P|123:156|128:197,1,83.5
12,368,401476,6,0,P|65:307|146:310,1,167
322,365,402022,2,0,P|280:369|239:374,1,83.5
312,167,402385,2,0,P|353:162|394:157,1,83.5
275,270,402749,2,0,P|316:265|357:260,1,83.5
404,74,403114,6,0,P|399:115|394:156,1,83.5
451,294,403476,1,0,0:0:0:0:
275,270,403658,2,0,P|250:236|246:195,1,83.5
348,338,404022,2,0,L|336:378,2,41.75
416,181,404385,1,0,0:0:0:0:
203,112,404568,6,0,P|244:117|286:122,1,83.5
140,199,404931,2,0,P|181:203|222:208,1,83.5
296,356,405295,1,0,0:0:0:0:
247,208,405476,1,0,0:0:0:0:
76,285,405658,2,0,P|117:289|158:294,1,83.5
378,346,406023,6,0,P|336:350|295:355,1,83.5
361,204,406385,1,0,0:0:0:0:
480,353,406567,2,0,P|488:312|476:272,1,83.5
277,214,406931,2,0,P|318:218|359:223,1,83.5
512,87,407295,6,0,B|465:76|435:101|435:101|403:127|353:110,1,167
158,47,407840,5,0,0:0:0:0:
261,219,408022,1,0,0:0:0:0:
85,185,408204,5,0,0:0:0:0:
286,62,408385,1,0,0:0:0:0:
85,185,408567,5,0,0:0:0:0:
88,226,408657,1,0,0:0:0:0:
92,268,408748,1,0,0:0:0:0:
96,309,408839,1,0,0:0:0:0:
99,351,408931,6,0,P|140:352|176:331,1,83.5
248,207,409295,1,0,0:0:0:0:
346,272,409476,2,0,P|336:313|329:354,1,83.5
234,187,409841,2,0,P|226:145|217:105,1,83.5
362,7,410204,6,0,P|419:62|403:141,1,167
306,175,410749,1,0,0:0:0:0:
478,260,410931,1,0,0:0:0:0:
231,306,411113,2,0,P|190:317|153:336,1,83.5
366,228,411477,2,0,P|326:216|289:197,1,83.5
176,38,411840,6,0,P|181:79|186:120,1,83.5
118,230,412204,1,0,0:0:0:0:
231,306,412385,2,0,P|272:300|312:308,1,83.5
106,204,412750,2,0,P|64:209|24:201,1,83.5
186,120,413113,6,0,P|266:143|342:175,1,167
231,306,413658,2,0,P|214:268|224:228,1,83.5
411,333,414022,2,0,P|369:340|329:348,1,83.5
423,244,414385,2,0,P|381:251|341:259,1,83.5
149,290,414749,6,0,P|190:297|230:305,1,83.5
117,191,415113,1,0,0:0:0:0:
295,137,415295,2,0,P|254:128|213:121,1,83.5
35,206,415658,2,0,P|75:197|116:190,1,83.5
304,338,416022,6,0,P|230:299|148:289,1,167
19,124,416567,2,0,P|26:165|34:205,1,83.5
190,112,416931,1,0,0:0:0:0:
62,28,417113,1,0,0:0:0:0:
197,125,417295,2,0,P|237:116|278:109,1,83.5
377,225,417658,6,0,P|336:216|295:209,1,83.5
177,292,418022,1,0,0:0:0:0:
292,381,418204,2,0,P|284:339|276:299,1,83.5
92,202,418567,2,0,P|83:242|76:283,1,83.5
173,132,418931,6,0,P|255:118|337:103,1,167
166,35,419476,5,0,0:0:0:0:
277,249,419658,1,0,0:0:0:0:
314,14,419840,5,0,0:0:0:0:
277,249,420022,1,0,0:0:0:0:
502,132,420204,5,0,0:0:0:0:
460,124,420294,1,0,0:0:0:0:
419,117,420385,1,0,0:0:0:0:
378,110,420476,1,0,0:0:0:0:
337,103,420567,6,0,P|255:118|173:132,1,167
68,254,421113,1,0,0:0:0:0:
227,351,421295,2,0,P|232:309|223:269,1,83.5
170,158,421658,1,0,0:0:0:0:
237,273,421840,6,0,P|319:286|401:301,1,167
475,170,422385,2,0,P|433:176|392:184,1,83.5
347,26,422749,2,0,P|332:65|318:104,1,83.5
158,64,423113,2,0,P|184:96|211:128,1,83.5
385,207,423476,6,0,P|426:199|467:192,1,83.5
319,287,423840,2,0,P|278:279|237:273,1,83.5
126,121,424204,2,0,P|138:160|124:198,1,83.5
46,317,424567,1,0,0:0:0:0:
117,210,424749,6,0,P|199:195|281:181,1,167
251,355,425295,2,0,P|244:313|236:272,1,83.5
330,77,425658,5,0,0:0:0:0:
356,108,425748,1,0,0:0:0:0:
368,148,425839,1,0,0:0:0:0:
363,189,425930,1,0,0:0:0:0:
343,225,426021,1,0,0:0:0:0:
319,258,426113,1,0,0:0:0:0:
327,297,426204,1,0,0:0:0:0:
363,316,426295,1,0,0:0:0:0:
401,301,426385,6,0,P|318:286|236:272,1,167
105,338,426931,1,0,0:0:0:0:
171,108,427113,2,0,P|183:147|172:187,1,83.5
59,103,427476,1,0,0:0:0:0:
186,198,427658,6,0,P|268:183|350:169,1,167
457,55,428204,2,0,P|449:96|442:137,1,83.5
438,318,428567,2,0,P|431:276|423:235,1,83.5
336,87,428931,2,0,P|343:128|350:169,1,83.5
505,250,429295,6,0,P|463:242|422:235,1,83.5
303,335,429658,2,0,P|261:341|220:349,1,83.5
80,238,430022,2,0,P|119:226|158:238,1,83.5
33,338,430385,1,0,0:0:0:0:
174,249,430567,6,0,P|159:166|145:84,1,167
344,43,431113,2,0,P|337:84|329:125,1,83.5
174,249,431476,5,0,0:0:0:0:
210,228,431566,1,0,0:0:0:0:
251,228,431657,1,0,0:0:0:0:
288,247,431748,1,0,0:0:0:0:
311,281,431839,1,0,0:0:0:0:
347,301,431931,1,0,0:0:0:0:
389,302,432022,1,0,0:0:0:0:
425,283,432113,1,0,0:0:0:0:
448,249,432204,5,0,0:0:0:0:
256,192,432295,12,0,435113,0:0:0:0:
66,110,443261,6,0,B|137:97|118:141|189:130,1,125.25
252,96,444061,2,0,B|228:124|228:124|238:188,1,83.5
341,283,444661,1,0,0:0:0:0:
341,283,444761,1,0,0:0:0:0:
341,283,444861,1,0,0:0:0:0:
327,186,445061,1,0,0:0:0:0:
256,248,445261,1,0,0:0:0:0:
429,315,445661,2,0,L|415:229,1,83.5
162,210,446461,6,0,P|121:266|137:322,1,125.25
195,367,447261,2,0,P|214:332|202:278,1,83.5
16,206,448061,1,0,0:0:0:0:
94,175,448461,1,0,0:0:0:0:
84,258,448861,5,0,0:0:0:0:
38,220,449061,1,0,0:0:0:0:
89,201,449261,1,0,0:0:0:0:
195,367,449661,6,0,B|265:380|254:339|322:350,1,125.25
398,367,450461,2,0,P|429:331|425:289,1,83.5
370,131,451261,1,0,0:0:0:0:
372,211,451461,1,0,0:0:0:0:
439,168,451661,1,0,0:0:0:0:
298,171,452061,2,0,L|205:158,1,83.5
148,203,452661,1,0,0:0:0:0:
110,43,452861,6,0,P|70:93|99:160,1,125.25
148,203,453661,2,0,P|162:261|134:294,1,83.5
57,357,454461,1,0,0:0:0:0:
52,321,454661,1,0,0:0:0:0:
85,334,454861,1,0,0:0:0:0:
225,335,455261,2,0,L|333:324,1,83.5
385,350,455861,1,0,0:0:0:0:
456,300,456061,6,0,P|484:258|448:174,1,125.25
408,132,456861,2,0,P|403:85|432:48,1,83.5
505,33,457461,1,0,0:0:0:0:
505,33,457561,1,0,0:0:0:0:
505,33,457661,2,0,P|507:61|503:77,2,41.75
323,51,458461,2,0,L|190:40,1,125.25
121,13,459261,6,0,P|81:63|103:132,1,125.25
157,175,460061,2,0,P|171:217|156:268,1,83.5
20,369,460861,1,0,0:0:0:0:
40,281,461061,1,0,0:0:0:0:
104,341,461261,1,0,0:0:0:0:
270,323,461661,2,0,B|352:308|312:357|408:336,1,125.25
460,295,462461,6,0,P|494:238|456:160,1,125.25
425,128,463261,2,0,P|399:179|408:215,1,83.5
503,112,463861,1,0,0:0:0:0:
503,112,463961,1,0,0:0:0:0:
503,112,464061,1,0,0:0:0:0:
425,129,464261,1,0,0:0:0:0:
480,183,464461,1,0,0:0:0:0:
440,48,464861,2,0,B|371:31|386:77|305:54,1,125.25
244,25,465661,6,0,P|222:63|223:109,1,83.5
95,235,466461,2,0,P|93:193|72:158,1,83.5
80,81,467061,1,0,0:0:0:0:
148,126,467261,1,0,0:0:0:0:
221,101,467461,2,0,P|227:82|229:64,2,20.875
148,126,467861,1,0,0:0:0:0:
80,81,468061,5,0,0:0:0:0:
148,126,468261,1,0,0:0:0:0:
172,205,468461,1,0,0:0:0:0:
163,285,468661,1,0,0:0:0:0:
114,354,468861,6,0,B|186:334|165:379|245:355,1,125.25
299,309,469661,2,0,P|334:284|390:295,1,83.5
508,364,470461,1,0,0:0:0:0:
431,345,470661,1,0,0:0:0:0:
489,283,470861,1,0,0:0:0:0:
429,133,471261,2,0,P|405:100|415:39,1,83.5
485,74,471861,1,0,0:0:0:0:
325,109,472061,6,0,B|256:93|275:137|194:117,1,125.25
148,60,472861,2,0,P|113:41|50:57,1,83.5
54,196,473661,1,0,0:0:0:0:
99,125,474061,1,0,0:0:0:0:
16,119,474461,1,0,0:0:0:0:
54,196,474861,1,0,0:0:0:0:
11,332,475261,6,0,B|81:309|70:359|138:338,1,125.25
196,289,476061,2,0,P|240:284|288:323,1,83.5
477,330,476661,1,0,0:0:0:0:
477,330,476761,1,0,0:0:0:0:
477,330,476861,1,0,0:0:0:0:
409,377,477061,1,0,0:0:0:0:
330,369,477261,1,0,0:0:0:0:
258,208,477661,2,0,L|270:108,1,83.5
207,55,478261,1,0,0:0:0:0:
121,37,478461,6,0,P|81:87|110:154,1,125.25
149,203,479261,2,0,P|163:261|135:294,1,83.5
57,356,479861,1,0,0:0:0:0:
57,356,479961,1,0,0:0:0:0:
57,356,480061,1,0,0:0:0:0:
52,320,480261,1,0,0:0:0:0:
85,333,480461,1,0,0:0:0:0:
57,356,480661,1,0,0:0:0:0:
225,334,480861,2,0,L|333:323,1,83.5
385,349,481461,1,0,0:0:0:0:
456,299,481661,6,0,P|484:257|448:173,1,125.25
408,131,482461,2,0,P|403:84|432:47,1,83.5
505,32,483061,1,0,0:0:0:0:
505,32,483161,1,0,0:0:0:0:
505,32,483261,2,0,P|507:60|503:76,2,41.75
323,50,484061,2,0,L|190:39,1,125.25
121,12,484861,6,0,P|81:62|103:131,1,125.25
157,174,485661,2,0,P|171:216|156:267,1,83.5
20,368,486461,1,0,0:0:0:0:
40,280,486661,1,0,0:0:0:0:
104,340,486861,1,0,0:0:0:0:
270,322,487261,2,0,B|352:307|312:356|408:335,1,125.25
460,294,488061,6,0,P|494:237|456:159,1,125.25
425,127,488861,2,0,P|399:178|408:214,1,83.5
503,111,489461,1,0,0:0:0:0:
503,111,489561,1,0,0:0:0:0:
503,111,489661,1,0,0:0:0:0:
425,128,489861,1,0,0:0:0:0:
480,182,490061,1,0,0:0:0:0:
440,47,490461,2,0,B|371:30|386:76|305:53,1,125.25
248,22,491261,6,0,P|173:16|121:97,1,167
85,155,492261,2,0,L|99:251,1,83.5
154,304,492861,1,0,0:0:0:0:
422,353,494061,6,0,B|459:259|388:269|444:173,1,167
256,192,495061,12,0,497661,0:0:0:0:
170,90,509960,6,0,P|147:157|169:212,1,91.8500028030396
166,203,510322,1,0,0:0:0:0:
189,225,510443,2,0,L|315:189,1,91.8500028030396
345,266,510927,1,0,0:0:0:0:
372,112,511169,1,0,0:0:0:0:
375,120,511290,1,0,0:0:0:0:
379,128,511411,2,0,L|399:28,1,91.8500028030396
449,186,511895,5,0,0:0:0:0:
272,78,512137,1,0,0:0:0:0:
272,78,512258,1,0,0:0:0:0:
272,78,512379,1,0,0:0:0:0:
308,258,512621,2,0,L|288:158,1,91.8500028030396
174,284,513105,1,0,0:0:0:0:
163,298,513226,1,0,0:0:0:0:
153,313,513347,2,0,P|199:315|282:294,1,91.8500028030396
440,358,513830,6,0,P|402:331|321:303,1,91.8500028030396
338,319,514193,1,0,0:0:0:0:
338,319,514314,1,0,0:0:0:0:
481,230,514556,2,0,B|491:164|491:164|482:112|482:112|497:36,1,183.700005606079
276,123,515282,1,0,0:0:0:0:
343,30,515524,1,0,0:0:0:0:
363,232,515766,5,0,0:0:0:0:
258,138,516008,1,0,0:0:0:0:
258,138,516129,1,0,0:0:0:0:
258,138,516250,1,0,0:0:0:0:
169,338,516492,1,0,0:0:0:0:
269,248,516734,5,0,0:0:0:0:
140,316,516976,1,0,0:0:0:0:
140,316,517097,1,0,0:0:0:0:
140,316,517218,1,0,0:0:0:0:
348,372,517460,1,0,0:0:0:0:
288,158,517701,6,0,P|277:202|269:248,1,91.8500028030396
280,278,518064,1,0,0:0:0:0:
280,278,518185,2,0,P|230:257|157:239,1,91.8500028030396
113,346,518669,1,0,0:0:0:0:
44,209,518911,1,0,0:0:0:0:
41,217,519032,1,0,0:0:0:0:
38,225,519153,2,0,L|148:196,1,91.8500028030396
212,32,519637,5,0,0:0:0:0:
91,102,519879,1,0,0:0:0:0:
91,102,520000,1,0,0:0:0:0:
91,102,520121,1,0,0:0:0:0:
291,226,520363,2,0,B|269:118|269:118|277:76|315:54,1,183.700005606079
393,211,521089,2,0,P|383:258|364:321,1,91.8500028030396
291,226,521572,5,0,0:0:0:0:
456,290,521814,1,0,0:0:0:0:
456,290,521935,1,0,0:0:0:0:
456,290,522056,1,0,0:0:0:0:
222,369,522298,1,0,0:0:0:0:
367,352,522540,5,0,0:0:0:0:
279,204,522782,1,0,0:0:0:0:
279,204,522903,1,0,0:0:0:0:
279,204,523024,1,0,0:0:0:0:
489,276,523266,1,0,0:0:0:0:
414,89,523508,6,0,P|401:133|391:195,1,91.8500028030396
399,197,523871,1,0,0:0:0:0:
399,197,523992,1,0,0:0:0:0:
246,116,524234,1,0,0:0:0:0:
287,302,524476,5,0,0:0:0:0:
287,302,524597,1,0,0:0:0:0:
258,88,524839,1,0,0:0:0:0:
258,88,524960,1,0,0:0:0:0:
134,216,525201,1,0,0:0:0:0:
387,173,525443,6,0,P|430:184|483:206,1,91.8500028030396
489,224,525806,1,0,0:0:0:0:
489,224,525927,1,0,0:0:0:0:
365,355,526169,2,0,L|342:242,1,91.8500028030396
247,147,526653,1,0,0:0:0:0:
247,147,526774,1,0,0:0:0:0:
247,147,526895,2,0,L|265:237,1,91.8500028030396
164,348,527379,5,0,0:0:0:0:
255,255,527621,1,0,0:0:0:0:
80,197,527863,1,0,0:0:0:0:
156,68,528105,2,0,B|146:141|146:141|185:200|144:254,1,183.700005606079
0,322,528830,2,0,P|57:313|100:292,1,91.8500028030396
264,262,529314,6,0,L|168:233,1,91.8500028030396
144,243,529677,1,0,0:0:0:0:
144,243,529798,1,0,0:0:0:0:
25,92,530040,2,0,L|55:209,1,91.8500028030396
145,97,530524,1,0,0:0:0:0:
151,103,530645,1,0,0:0:0:0:
157,109,530766,2,0,P|238:98|281:83,1,91.8500028030396
349,250,531250,5,0,0:0:0:0:
213,202,531492,1,0,0:0:0:0:
213,202,531613,1,0,0:0:0:0:
213,202,531734,1,0,0:0:0:0:
415,133,531976,1,0,0:0:0:0:
258,79,532218,5,0,0:0:0:0:
340,228,532460,1,0,0:0:0:0:
340,228,532580,1,0,0:0:0:0:
340,228,532701,1,0,0:0:0:0:
473,45,532943,1,0,0:0:0:0:
310,142,533185,6,0,P|353:127|398:122,1,91.8500028030396
415,133,533548,1,0,0:0:0:0:
415,133,533669,1,0,0:0:0:0:
461,299,533911,1,0,0:0:0:0:
340,228,534153,1,0,0:0:0:0:
512,190,534395,1,0,0:0:0:0:
512,190,534516,1,0,0:0:0:0:
512,190,534637,2,0,L|486:298,1,91.8500028030396
340,347,535121,6,0,P|323:304|323:258,1,91.8500028030396
340,228,535484,1,0,0:0:0:0:
340,228,535605,1,0,0:0:0:0:
198,328,535847,2,0,B|131:313|131:313|89:321|89:321|-3:298,1,183.700005606079
182,203,536572,2,0,P|226:191|272:186,1,91.8500028030396
79,141,537056,6,0,L|95:243,1,91.8500028030396
97,257,537419,1,0,0:0:0:0:
97,257,537540,1,0,0:0:0:0:
157,101,537782,2,0,P|85:56|-5:124,1,183.700005606079
5,98,538387,1,0,0:0:0:0:
5,98,538508,1,0,0:0:0:0:
93,231,538750,1,0,0:0:0:0:
227,58,538992,5,0,0:0:0:0:
79,141,539234,1,0,0:0:0:0:
79,141,539355,1,0,0:0:0:0:
79,141,539476,1,0,0:0:0:0:
110,173,539596,1,0,0:0:0:0:
154,186,539717,1,0,0:0:0:0:
198,175,539838,1,0,0:0:0:0:
230,143,539960,6,0,L|198:304,1,137.775004204559
233,351,540443,2,0,L|228:252,1,91.8500028030396
58,304,540927,1,0,0:0:0:0:
58,304,541411,5,0,0:0:0:0:
127,218,541653,1,0,0:0:0:0:
18,201,541895,1,0,0:0:0:0:
18,201,542863,5,0,0:0:0:0:
104,253,543105,1,0,0:0:0:0:
203,233,543347,1,0,0:0:0:0:
279,166,543589,1,0,0:0:0:0:
277,65,543830,1,0,0:0:0:0:
277,65,544314,6,0,P|285:118|294:158,1,91.8500028030396
364,227,544798,1,0,0:0:0:0:
359,245,545766,5,0,0:0:0:0:
