osu file format v14

[General]
AudioFilename: Asaeda Jun x Yanaginagi - Last Smile.mp3
AudioLeadIn: 0
PreviewTime: 94282
Countdown: 0
SampleSet: Soft
StackLeniency: 0.7
Mode: 0
LetterboxInBreaks: 1
WidescreenStoryboard: 1

[Editor]
DistanceSpacing: 0.8
BeatDivisor: 4
GridSize: 4
TimelineZoom: 1.1

[Metadata]
Title:Last Smile
TitleUnicode:Last Smile
Artist:Jun Maeda x yanaginagi
ArtistUnicode:Jun Maeda x yanaginagi
Creator:ARTPHONEY
Version:Normal
Source:
Tags:j終わりの惑星の love song owari no hoshi no flaming june
BeatmapID:450996
BeatmapSetID:189261

[Difficulty]
HPDrainRate:5
CircleSize:3
OverallDifficulty:5
ApproachRate:4
SliderMultiplier:1.60000000596046
SliderTickRate:2

[Events]
//Background and Video events
0,0,"smile.jpg",0,0
//Break Periods
//Storyboard Layer 0 (Background)
//Storyboard Layer 1 (Fail)
//Storyboard Layer 2 (Pass)
//Storyboard Layer 3 (Foreground)
//Storyboard Layer 4 (Overlay)
//Storyboard Sound Samples

[TimingPoints]
1458,800.213390237397,4,2,1,45,1,0
1591,-100,4,2,1,45,0,0
29865,-100,4,2,2,45,0,0
94282,-100,4,2,1,45,0,1
120689,-100,4,2,1,30,0,1
121089,-100,4,2,1,20,0,1
121490,-100,4,2,1,10,0,1
121890,-100,4,2,1,5,0,1
122290,-100,4,2,1,5,0,0

[Colours]
Combo1 : 128,64,64
Combo2 : 128,64,64
Combo3 : 128,0,0
Combo4 : 64,0,0

[HitObjects]
288,160,1591,5,2,0:0:0:0:
172,196,4792,5,2,0:0:0:0:
92,308,7459,6,0,L|184:272,1,80.000000298023,2|2,0:0|0:0,0:0:0:0:
116,284,11193,5,2,0:0:0:0:
260,96,14261,5,2,0:0:0:0:
184,152,14661,1,0,0:0:0:0:
108,216,15061,1,0,0:0:0:0:
184,264,15461,2,0,L|272:256,2,80.000000298023,0|0|0,0:0|0:0|0:0,0:0:0:0:
352,252,16662,1,0,0:0:0:0:
292,188,17062,1,0,0:0:0:0:
228,252,17462,5,2,0:0:0:0:
296,312,17862,1,0,0:0:0:0:
392,296,18262,1,0,0:0:0:0:
432,192,18662,2,0,L|332:224,2,80.000000298023
324,136,19862,1,0,0:0:0:0:
424,84,20263,5,0,0:0:0:0:
328,72,20663,1,2,0:0:0:0:
240,120,21063,1,0,0:0:0:0:
280,196,21463,1,0,0:0:0:0:
384,300,21863,2,0,L|300:272,2,80.000000298023
356,136,23063,1,0,0:0:0:0:
280,200,23463,5,0,0:0:0:0:
208,156,23863,1,2,0:0:0:0:
184,232,24264,1,0,0:0:0:0:
120,292,24664,2,0,L|52:220,2,80.000000298023,0|0|0,0:0|0:0|0:0,0:0:0:0:
176,216,25864,2,0,L|264:200,1,80.000000298023
304,272,26664,1,0,0:0:0:0:
376,320,27064,1,2,0:0:0:0:
256,192,27464,12,0,29865,0:0:0:0:
324,112,30265,5,2,0:0:0:0:
352,192,30665,1,0,0:0:0:0:
392,264,31065,1,0,0:0:0:0:
260,276,33066,5,2,0:0:0:0:
208,216,33466,1,2,0:0:0:0:
168,148,33866,1,0,0:0:0:0:
132,80,34266,1,0,0:0:0:0:
104,316,36667,5,2,0:0:0:0:
176,260,37067,1,0,0:0:0:0:
248,308,37467,1,0,0:0:0:0:
304,184,39468,5,2,0:0:0:0:
360,136,39868,1,2,0:0:0:0:
292,96,40268,1,0,0:0:0:0:
356,48,40668,1,0,0:0:0:0:
136,48,43069,5,2,0:0:0:0:
96,120,43469,1,0,0:0:0:0:
48,56,43869,1,0,0:0:0:0:
88,240,45869,5,2,0:0:0:0:
136,276,46269,1,2,0:0:0:0:
200,260,46669,1,0,0:0:0:0:
240,296,47069,1,0,0:0:0:0:
216,172,49470,5,2,0:0:0:0:
152,228,49870,1,0,0:0:0:0:
224,272,50271,1,0,0:0:0:0:
296,296,52271,5,2,0:0:0:0:
336,216,52671,1,2,0:0:0:0:
280,160,53071,1,0,0:0:0:0:
216,112,53471,1,0,0:0:0:0:
152,156,53871,1,0,0:0:0:0:
164,164,55872,5,2,0:0:0:0:
216,240,56272,1,0,0:0:0:0:
296,292,56672,1,0,0:0:0:0:
360,232,57472,1,0,0:0:0:0:
296,176,57873,2,0,L|356:104,1,80.000000298023
364,280,58673,5,2,0:0:0:0:
432,224,59073,1,2,0:0:0:0:
384,152,59473,1,0,0:0:0:0:
300,184,59873,1,0,0:0:0:0:
248,112,60673,2,0,L|152:112,1,80.000000298023
188,196,61474,2,0,L|140:268,1,80.000000298023
152,124,62274,5,2,0:0:0:0:
220,192,62674,1,0,0:0:0:0:
288,252,63074,1,0,0:0:0:0:
372,252,63874,1,0,0:0:0:0:
392,172,64274,2,0,L|332:108,1,80.000000298023
248,172,65074,5,2,0:0:0:0:
164,220,65475,1,2,0:0:0:0:
88,276,65875,1,0,0:0:0:0:
68,192,66275,1,0,0:0:0:0:
108,104,67075,2,0,L|188:120,1,80.000000298023
208,204,67875,2,0,L|264:276,1,80.000000298023
308,152,68675,5,2,0:0:0:0:
272,236,69076,1,0,0:0:0:0:
328,300,69476,1,0,0:0:0:0:
248,328,70276,1,0,0:0:0:0:
136,248,70676,2,0,L|160:324,1,80.000000298023
80,208,71476,5,2,0:0:0:0:
44,120,71876,1,2,0:0:0:0:
136,108,72276,1,0,0:0:0:0:
208,168,72676,1,0,0:0:0:0:
280,332,73477,2,0,L|224:264,1,80.000000298023
124,328,74277,2,0,L|188:280,1,80.000000298023
188,204,75077,5,2,0:0:0:0:
144,136,75477,1,0,0:0:0:0:
188,60,75877,1,0,0:0:0:0:
272,40,76678,1,0,0:0:0:0:
308,120,77078,2,0,L|396:164,1,80.000000298023
332,224,77878,5,2,0:0:0:0:
244,248,78278,1,2,0:0:0:0:
172,304,78678,1,0,0:0:0:0:
120,216,79078,1,0,0:0:0:0:
192,148,79878,2,0,L|276:160,1,80.000000298023
332,232,80679,2,0,L|376:160,1,80.000000298023
248,284,81479,5,2,0:0:0:0:
176,320,81879,1,0,0:0:0:0:
92,304,82279,1,0,0:0:0:0:
128,224,82679,1,0,0:0:0:0:
168,144,83079,1,0,0:0:0:0:
252,104,83479,2,0,L|336:88,1,80.000000298023
280,200,84680,5,2,0:0:0:0:
196,228,85080,1,0,0:0:0:0:
108,240,85480,1,0,0:0:0:0:
88,320,85880,1,0,0:0:0:0:
172,324,86280,1,0,0:0:0:0:
272,300,86680,2,0,L|208:244,1,80.000000298023,0|0,0:0|0:0,0:0:0:0:
132,208,87881,5,2,0:0:0:0:
68,144,88281,1,0,0:0:0:0:
112,76,88681,1,0,0:0:0:0:
196,76,89081,2,0,L|200:164,1,80.000000298023
176,232,89881,2,0,L|44:128,1,160.000000596046
84,52,91081,2,0,B|120:92|60:104|128:156|16:208|136:224|32:308|96:344|208:324|420:320,1,560.000002086161,2|0,0:0|0:0,0:0:0:0:
360,280,94282,6,0,L|261:215,1,80.000000298023,2|0,0:0|0:0,0:0:0:0:
263,158,95082,1,0,0:0:0:0:
314,113,95483,1,0,0:0:0:0:
360,56,95883,1,0,0:0:0:0:
272,100,96283,1,2,0:0:0:0:
188,140,96683,1,2,0:0:0:0:
100,204,97083,5,2,0:0:0:0:
100,284,97483,1,2,0:0:0:0:
44,336,97883,1,0,0:0:0:0:
44,256,98283,2,0,L|56:164,1,80.000000298023
132,156,99084,1,0,0:0:0:0:
200,96,99484,1,2,0:0:0:0:
128,52,99884,1,2,0:0:0:0:
64,104,100284,5,2,0:0:0:0:
80,188,100684,1,2,0:0:0:0:
144,240,101084,1,0,0:0:0:0:
188,160,101484,2,0,L|244:224,1,80.000000298023
60,224,102284,1,0,0:0:0:0:
140,188,102684,2,0,L|220:188,1,80.000000298023,2|2,0:0|0:0,0:0:0:0:
224,280,103485,6,0,L|144:280,1,80.000000298023,2|2,0:0|0:0,0:0:0:0:
64,280,104285,1,0,0:0:0:0:
128,212,104685,2,0,L|184:148,1,80.000000298023,0|0,0:0|0:0,0:0:0:0:
248,100,105485,2,0,L|304:168,1,80.000000298023,0|0,0:0|0:0,0:0:0:0:
340,232,106285,2,0,L|260:268,1,80.000000298023,0|0,0:0|0:0,0:0:0:0:
226,215,107086,6,0,L|146:142,1,80.000000298023,2|0,0:0|0:0,0:0:0:0:
159,90,107886,1,0,0:0:0:0:
219,71,108286,1,0,0:0:0:0:
224,136,108686,1,0,0:0:0:0:
312,168,109086,1,2,0:0:0:0:
304,80,109486,1,2,0:0:0:0:
232,72,109886,5,2,0:0:0:0:
168,128,110287,1,2,0:0:0:0:
80,172,110687,1,0,0:0:0:0:
104,248,111087,2,0,L|188:276,1,80.000000298023
232,324,111887,1,0,0:0:0:0:
248,236,112287,1,2,0:0:0:0:
188,168,112687,1,2,0:0:0:0:
260,128,113087,5,2,0:0:0:0:
340,176,113487,1,2,0:0:0:0:
408,120,113887,1,0,0:0:0:0:
412,40,114288,2,0,L|328:40,1,80.000000298023
104,88,115088,1,0,0:0:0:0:
188,108,115488,2,0,L|268:84,1,80.000000298023
264,168,116288,2,0,L|236:256,1,80.000000298023
212,316,117088,2,0,L|120:304,1,80.000000298023
184,228,117889,5,0,0:0:0:0:
272,268,118289,1,0,0:0:0:0:
272,184,118689,1,0,0:0:0:0:
344,220,119089,1,0,0:0:0:0:
296,308,119489,1,0,0:0:0:0:
256,192,120289,12,0,123090,0:0:0:0:
