osu file format v14

[General]
AudioFilename: Asaeda Jun x Yanaginagi - Last Smile.mp3
AudioLeadIn: 0
PreviewTime: 94282
Countdown: 0
SampleSet: Soft
StackLeniency: 0.7
Mode: 0
LetterboxInBreaks: 1
WidescreenStoryboard: 1

[Editor]
DistanceSpacing: 0.8
BeatDivisor: 4
GridSize: 4
TimelineZoom: 1.1

[Metadata]
Title:Last Smile
TitleUnicode:Last Smile
Artist:Jun Maeda x yanaginagi
ArtistUnicode:Jun Maeda x yanaginagi
Creator:ARTPHONEY
Version:Insane
Source:
Tags:j終わりの惑星の love song owari no hoshi no flaming june
BeatmapID:2545847
BeatmapSetID:189261

[Difficulty]
HPDrainRate:7
CircleSize:3
OverallDifficulty:8
ApproachRate:8
SliderMultiplier:1.60000000596046
SliderTickRate:2

[Events]
//Background and Video events
0,0,"smile.jpg",0,0
//Break Periods
2,2057,3742
2,8726,10143
//Storyboard Layer 0 (Background)
//Storyboard Layer 1 (Fail)
//Storyboard Layer 2 (Pass)
//Storyboard Layer 3 (Foreground)
//Storyboard Layer 4 (Overlay)
//Storyboard Sound Samples

[TimingPoints]
1458,800.213390237397,4,2,1,45,1,0
1591,-100,4,2,1,45,0,0
29865,-100,4,2,2,45,0,0
94282,-100,4,2,1,45,0,1
120689,-100,4,2,1,30,0,1
121089,-100,4,2,1,20,0,1
121490,-100,4,2,1,10,0,1
121890,-100,4,2,1,5,0,1
122290,-100,4,2,1,5,0,0

[Colours]
Combo1 : 128,64,64
Combo2 : 128,64,64
Combo3 : 128,0,0
Combo4 : 64,0,0

[HitObjects]
89,65,1591,6,0,L|155:65,1,53.3333335320153,2|0,0:0|0:0,0:0:0:0:
455,332,4792,6,0,L|389:332,1,53.3333335320153,2|0,0:0|0:0,0:0:0:0:
224,29,7592,5,0,0:0:0:0:
306,78,7726,1,0,0:0:0:0:
248,153,7993,2,0,L|186:134,1,53.3333335320153,2|0,0:0|0:0,0:0:0:0:
134,88,8526,1,0,0:0:0:0:
110,160,11193,6,0,L|111:221,1,53.3333335320153,2|0,0:0|0:0,0:0:0:0:
178,278,11760,1,0,0:0:0:0:
256,192,12660,12,0,13861,0:0:0:0:
104,108,14261,5,2,0:0:0:0:
160,192,14661,1,0,0:0:0:0:
88,272,15061,1,0,0:0:0:0:
192,296,15461,2,0,L|280:288,2,80.000000298023
230,207,16462,1,0,0:0:0:0:
328,208,16662,1,0,0:0:0:0:
416,231,16862,1,0,0:0:0:0:
408,152,17062,1,0,0:0:0:0:
320,112,17262,5,0,0:0:0:0:
244,59,17462,1,2,0:0:0:0:
212,144,17862,1,0,0:0:0:0:
112,168,18262,1,0,0:0:0:0:
216,240,18662,2,0,L|116:272,2,80.000000298023
142,330,19662,1,0,0:0:0:0:
60,292,19862,1,0,0:0:0:0:
60,208,20062,1,0,0:0:0:0:
136,216,20263,5,0,0:0:0:0:
212,264,20463,1,0,0:0:0:0:
282,307,20663,1,2,0:0:0:0:
312,236,21063,1,0,0:0:0:0:
368,312,21463,1,0,0:0:0:0:
264,152,21863,2,0,L|180:124,2,80.000000298023
339,216,22863,1,0,0:0:0:0:
356,136,23063,1,0,0:0:0:0:
419,87,23263,1,0,0:0:0:0:
280,200,23463,5,0,0:0:0:0:
392,240,23663,1,0,0:0:0:0:
364,272,23863,1,2,0:0:0:0:
272,292,24264,1,0,0:0:0:0:
180,296,24664,2,0,L|112:224,2,80.000000298023,0|0|0,0:0|0:0|0:0,0:0:0:0:
264,239,25864,1,0,0:0:0:0:
352,186,26064,2,0,L|306:151,1,40.0000001490115
376,96,26464,2,0,L|421:128,1,40.0000001490115
308,111,26864,1,0,0:0:0:0:
368,160,27064,1,2,0:0:0:0:
256,192,27464,12,0,29865,0:0:0:0:
148,152,30265,5,2,0:0:0:0:
188,232,30665,1,0,0:0:0:0:
276,248,31065,2,0,L|376:272,1,80.000000298023
435,204,31866,1,0,0:0:0:0:
439,306,32266,1,0,0:0:0:0:
360,253,32666,1,0,0:0:0:0:
240,196,33066,6,0,L|152:176,1,80.000000298023,2|2,0:0|0:0,0:0:0:0:
236,100,33866,1,0,0:0:0:0:
152,140,34266,1,0,0:0:0:0:
112,224,34666,1,0,0:0:0:0:
214,155,35066,2,0,L|172:118,2,40.0000001490115
250,60,35667,2,0,L|288:95,2,40.0000001490115
118,91,36267,1,0,0:0:0:0:
193,152,36467,1,0,0:0:0:0:
404,72,36667,5,2,0:0:0:0:
348,148,37067,1,0,0:0:0:0:
232,76,37467,2,0,L|256:164,1,80.000000298023
368,161,38267,1,0,0:0:0:0:
266,225,38667,1,0,0:0:0:0:
241,321,39068,1,0,0:0:0:0:
84,288,39468,6,0,L|184:272,1,80.000000298023,2|2,0:0|0:0,0:0:0:0:
244,312,40268,1,0,0:0:0:0:
344,340,40668,1,0,0:0:0:0:
424,288,41068,1,0,0:0:0:0:
313,293,41468,2,0,L|313:243,1,40.0000001490115
203,253,41868,2,0,L|205:300,1,40.0000001490115
91,298,42268,2,0,L|90:244,1,40.0000001490115
380,107,42668,1,0,0:0:0:0:
454,167,42869,1,0,0:0:0:0:
376,172,43069,5,2,0:0:0:0:
284,136,43469,1,0,0:0:0:0:
196,192,43869,2,0,L|104:208,1,80.000000298023
167,294,44669,1,0,0:0:0:0:
69,270,45069,1,0,0:0:0:0:
69,182,45469,1,0,0:0:0:0:
304,324,45869,6,0,L|340:236,1,80.000000298023,2|2,0:0|0:0,0:0:0:0:
436,216,46670,1,0,0:0:0:0:
364,148,47070,1,0,0:0:0:0:
264,164,47470,1,0,0:0:0:0:
158,292,47870,2,0,L|121:258,1,40.0000001490115
59,216,48270,1,0,0:0:0:0:
131,163,48470,2,0,L|179:137,1,40.0000001490115
236,95,48870,1,0,0:0:0:0:
320,44,49070,1,0,0:0:0:0:
412,40,49270,1,0,0:0:0:0:
216,172,49470,5,2,0:0:0:0:
124,216,49870,1,0,0:0:0:0:
72,304,50271,2,0,L|168:328,1,80.000000298023
134,232,51071,1,0,0:0:0:0:
219,269,51471,1,0,0:0:0:0:
309,192,51871,1,0,0:0:0:0:
408,320,52271,6,0,L|344:244,1,80.000000298023,2|2,0:0|0:0,0:0:0:0:
384,184,53071,1,0,0:0:0:0:
304,128,53471,1,0,0:0:0:0:
376,68,53871,1,0,0:0:0:0:
255,62,54272,2,0,L|256:114,3,40.0000001490115
175,148,55072,2,0,L|134:170,1,40.0000001490115
220,74,55472,1,0,0:0:0:0:
298,127,55672,1,0,0:0:0:0:
164,164,55872,5,2,0:0:0:0:
88,228,56272,1,0,0:0:0:0:
48,308,56672,1,0,0:0:0:0:
140,316,57072,1,0,0:0:0:0:
154,229,57272,1,0,0:0:0:0:
224,276,57472,1,0,0:0:0:0:
296,339,57873,2,0,L|338:339,1,40.0000001490115
416,340,58273,1,0,0:0:0:0:
364,280,58673,5,2,0:0:0:0:
432,224,59073,1,2,0:0:0:0:
384,152,59473,1,0,0:0:0:0:
300,184,59873,1,0,0:0:0:0:
244,120,60273,1,0,0:0:0:0:
141,169,60473,1,0,0:0:0:0:
168,52,60673,2,0,L|96:100,1,80.000000298023
199,123,61273,1,0,0:0:0:0:
112,168,61474,2,0,L|188:216,1,80.000000298023
248,267,62074,1,0,0:0:0:0:
108,276,62274,5,2,0:0:0:0:
204,296,62674,1,0,0:0:0:0:
296,260,63074,1,0,0:0:0:0:
356,320,63474,1,0,0:0:0:0:
360,238,63674,1,0,0:0:0:0:
432,260,63874,1,0,0:0:0:0:
392,172,64274,2,0,L|354:130,1,40.0000001490115
321,76,64674,1,0,0:0:0:0:
248,172,65074,5,2,0:0:0:0:
164,220,65475,1,2,0:0:0:0:
88,276,65875,1,0,0:0:0:0:
68,192,66275,1,0,0:0:0:0:
128,120,66675,1,0,0:0:0:0:
206,200,66875,1,0,0:0:0:0:
212,76,67075,2,0,L|268:144,1,80.000000298023
301,38,67675,1,0,0:0:0:0:
408,80,67875,2,0,L|348:136,1,80.000000298023
473,144,68475,1,0,0:0:0:0:
424,212,68675,5,2,0:0:0:0:
364,292,69076,1,0,0:0:0:0:
448,344,69476,1,0,0:0:0:0:
352,324,69876,1,0,0:0:0:0:
331,237,70076,1,0,0:0:0:0:
264,292,70276,1,0,0:0:0:0:
164,255,70676,2,0,L|121:227,1,40.0000001490115
60,185,71076,1,0,0:0:0:0:
80,208,71476,5,2,0:0:0:0:
44,120,71876,1,2,0:0:0:0:
136,108,72276,1,0,0:0:0:0:
208,168,72676,1,0,0:0:0:0:
152,248,73077,1,0,0:0:0:0:
252,191,73277,1,0,0:0:0:0:
280,332,73477,2,0,L|224:264,1,80.000000298023
203,348,74077,1,0,0:0:0:0:
124,328,74277,2,0,L|188:280,1,80.000000298023
284,244,75077,5,2,0:0:0:0:
364,180,75477,1,0,0:0:0:0:
280,120,75877,1,0,0:0:0:0:
192,92,76277,1,0,0:0:0:0:
231,63,76478,1,0,0:0:0:0:
272,40,76678,1,0,0:0:0:0:
166,123,77078,2,0,L|130:160,2,40.0000001490115
348,200,77878,5,2,0:0:0:0:
432,264,78278,1,2,0:0:0:0:
336,308,78678,1,0,0:0:0:0:
232,276,79078,1,0,0:0:0:0:
144,232,79478,1,0,0:0:0:0:
122,106,79678,1,0,0:0:0:0:
204,160,79878,2,0,L|280:128,1,80.000000298023
316,209,80479,1,0,0:0:0:0:
400,160,80679,2,0,L|312:120,1,80.000000298023
258,77,81279,1,0,0:0:0:0:
428,292,81479,5,2,0:0:0:0:
324,288,81879,1,0,0:0:0:0:
240,272,82279,1,0,0:0:0:0:
160,232,82679,1,0,0:0:0:0:
168,144,83079,1,0,0:0:0:0:
271,94,83479,2,2,L|308:128,5,40.0000001490115
416,184,84680,5,2,0:0:0:0:
356,112,85080,1,0,0:0:0:0:
256,88,85480,1,0,0:0:0:0:
200,168,85880,1,0,0:0:0:0:
124,104,86280,1,0,0:0:0:0:
212,177,86680,2,2,L|255:210,5,40.0000001490115
216,308,87881,5,2,0:0:0:0:
312,304,88281,1,0,0:0:0:0:
392,264,88681,1,0,0:0:0:0:
305,192,89081,2,2,L|263:168,2,40.0000001490115
247,233,89681,1,0,0:0:0:0:
200,269,89881,2,2,L|157:291,2,40.0000001490115
206,181,90481,1,0,0:0:0:0:
282,130,90681,1,0,0:0:0:0:
356,184,90881,1,2,0:0:0:0:
256,192,91081,12,0,94082,0:0:0:0:
158,252,94282,6,0,L|221:189,1,80.000000298023
301,166,94882,1,0,0:0:0:0:
272,114,95082,2,0,L|166:105,1,80.000000298023
261,83,95683,1,0,0:0:0:0:
338,116,95883,1,0,0:0:0:0:
300,83,96083,1,0,0:0:0:0:
244,100,96283,1,2,0:0:0:0:
188,104,96483,1,2,0:0:0:0:
136,128,96683,1,2,0:0:0:0:
186,194,96883,1,0,0:0:0:0:
52,304,97083,1,2,0:0:0:0:
104,292,97283,1,2,0:0:0:0:
161,256,97483,6,0,L|271:237,1,80.000000298023,2|0,0:0|0:0,0:0:0:0:
318,212,98083,2,0,L|372:146,1,80.000000298023
389,87,98683,1,0,0:0:0:0:
349,132,98883,1,0,0:0:0:0:
440,112,99084,1,0,0:0:0:0:
254,122,99284,1,0,0:0:0:0:
328,64,99484,1,2,0:0:0:0:
328,64,99684,1,2,0:0:0:0:
328,64,99884,1,2,0:0:0:0:
344,154,100084,1,0,0:0:0:0:
256,200,100284,1,2,0:0:0:0:
256,200,100484,1,2,0:0:0:0:
184,152,100684,6,0,L|271:99,1,80.000000298023,2|0,0:0|0:0,0:0:0:0:
172,156,101484,2,0,L|96:104,1,80.000000298023
136,231,102084,1,0,0:0:0:0:
56,188,102284,1,0,0:0:0:0:
122,223,102484,1,0,0:0:0:0:
80,300,102684,2,0,L|120:300,2,40.0000001490115,2|2|2,0:0|0:0|0:0,0:0:0:0:
81,217,103285,1,0,0:0:0:0:
264,300,103485,2,0,L|212:300,2,40.0000001490115,2|2|2,0:0|0:0|0:0,0:0:0:0:
364,272,104285,5,0,0:0:0:0:
436,200,104685,2,0,L|356:148,1,80.000000298023
284,142,105285,1,0,0:0:0:0:
384,76,105485,2,0,L|300:64,1,80.000000298023,0|0,0:0|0:0,0:0:0:0:
220,89,106085,1,0,0:0:0:0:
276,152,106285,2,0,L|196:188,1,80.000000298023,0|0,0:0|0:0,0:0:0:0:
292,181,106886,1,0,0:0:0:0:
265,198,107086,6,0,L|175:255,1,80.000000298023,2|0,0:0|0:0,0:0:0:0:
229,244,107686,2,0,L|316:258,1,80.000000298023
224,136,108286,1,0,0:0:0:0:
259,82,108686,1,0,0:0:0:0:
387,80,108886,1,0,0:0:0:0:
304,80,109086,1,2,0:0:0:0:
352,80,109286,1,2,0:0:0:0:
304,80,109486,1,2,0:0:0:0:
109,65,109686,1,0,0:0:0:0:
152,72,109886,1,2,0:0:0:0:
182,67,110086,1,2,0:0:0:0:
152,72,110287,1,2,0:0:0:0:
88,152,110687,5,0,0:0:0:0:
104,248,111087,2,0,L|188:276,1,80.000000298023
206,248,111687,1,0,0:0:0:0:
232,324,111887,1,0,0:0:0:0:
310,320,112087,1,0,0:0:0:0:
288,248,112287,1,2,0:0:0:0:
304,216,112487,1,2,0:0:0:0:
324,188,112687,1,2,0:0:0:0:
358,263,112887,1,0,0:0:0:0:
448,192,113087,1,2,0:0:0:0:
436,224,113287,1,2,0:0:0:0:
420,256,113487,1,2,0:0:0:0:
320,304,113887,5,0,0:0:0:0:
228,296,114288,2,0,L|152:252,1,80.000000298023
71,286,114888,1,0,0:0:0:0:
80,200,115088,1,0,0:0:0:0:
169,248,115288,1,0,0:0:0:0:
168,152,115488,2,0,L|248:128,1,80.000000298023
250,217,116088,1,0,0:0:0:0:
328,172,116288,2,0,L|388:232,1,80.000000298023
432,296,116888,1,0,0:0:0:0:
368,324,117088,2,0,L|276:312,1,80.000000298023
343,252,117889,5,0,0:0:0:0:
366,311,118289,1,0,0:0:0:0:
370,163,118689,1,0,0:0:0:0:
229,237,119089,1,0,0:0:0:0:
292,235,119489,2,0,L|360:236,1,40.0000001490115
75,320,120289,2,0,B|109:254|200:115|239:54|521:29,1,560.000002086161
