osu file format v14

[General]
AudioFilename: Asaeda Jun x Yanaginagi - Last Smile.mp3
AudioLeadIn: 0
PreviewTime: 94282
Countdown: 0
SampleSet: Soft
StackLeniency: 0.7
Mode: 0
LetterboxInBreaks: 1
WidescreenStoryboard: 1

[Editor]
DistanceSpacing: 0.8
BeatDivisor: 4
GridSize: 4
TimelineZoom: 1.1

[Metadata]
Title:Last Smile
TitleUnicode:Last Smile
Artist:Jun Maeda x yanaginagi
ArtistUnicode:Jun Maeda x yanaginagi
Creator:ARTPHONEY
Version:Easy
Source:
Tags:j終わりの惑星の love song owari no hoshi no flaming june
BeatmapID:450994
BeatmapSetID:189261

[Difficulty]
HPDrainRate:3
CircleSize:2
OverallDifficulty:3
ApproachRate:2
SliderMultiplier:1.60000000596046
SliderTickRate:2

[Events]
//Background and Video events
0,0,"smile.jpg",0,0
//Break Periods
//Storyboard Layer 0 (Background)
//Storyboard Layer 1 (Fail)
//Storyboard Layer 2 (Pass)
//Storyboard Layer 3 (Foreground)
//Storyboard Layer 4 (Overlay)
//Storyboard Sound Samples

[TimingPoints]
1458,800.213390237397,4,2,1,45,1,0
13461,-100,4,2,1,45,0,0
29865,-100,4,2,2,45,0,0
94282,-100,4,2,1,45,0,1
120289,-100,4,2,1,37,0,1
120689,-100,4,2,1,30,0,1
121089,-100,4,2,1,20,0,1
121490,-100,4,2,1,10,0,1
121890,-100,4,2,1,5,0,1
122290,-100,4,2,1,5,0,0

[Colours]
Combo1 : 128,64,64
Combo2 : 128,64,64
Combo3 : 128,0,0
Combo4 : 64,0,0

[HitObjects]
256,192,11060,12,0,13861,0:0:0:0:
112,104,14261,5,2,0:0:0:0:
216,80,15061,1,0,0:0:0:0:
300,164,15861,2,0,L|428:292,1,160.000000596046
316,312,17462,5,2,0:0:0:0:
212,288,18262,1,0,0:0:0:0:
80,320,19062,2,0,L|164:148,1,160.000000596046
68,112,20663,5,2,0:0:0:0:
172,72,21463,1,0,0:0:0:0:
272,120,22263,2,0,L|368:288,1,160.000000596046
436,308,23863,5,2,0:0:0:0:
324,304,24664,1,0,0:0:0:0:
212,300,25464,2,0,L|308:160,1,160.000000596046
400,168,27064,1,2,0:0:0:0:
256,192,27464,12,0,29865,0:0:0:0:
324,112,30265,5,2,0:0:0:0:
260,116,30665,1,0,0:0:0:0:
200,120,31065,1,0,0:0:0:0:
124,216,33066,5,2,0:0:0:0:
120,260,33466,1,2,0:0:0:0:
148,296,34266,1,0,0:0:0:0:
288,272,36667,5,2,0:0:0:0:
284,232,37067,1,0,0:0:0:0:
312,200,37467,1,0,0:0:0:0:
420,200,39468,5,2,0:0:0:0:
436,232,39868,1,2,0:0:0:0:
424,296,40668,1,0,0:0:0:0:
272,272,43069,5,2,0:0:0:0:
240,240,43469,1,0,0:0:0:0:
240,200,43869,1,0,0:0:0:0:
136,148,45869,5,2,0:0:0:0:
104,164,46269,1,2,0:0:0:0:
60,200,47069,1,0,0:0:0:0:
88,280,49470,5,2,0:0:0:0:
128,276,49870,1,0,0:0:0:0:
168,288,50271,1,0,0:0:0:0:
308,328,52271,5,2,0:0:0:0:
292,288,52671,1,2,0:0:0:0:
296,204,53471,1,0,0:0:0:0:
316,168,53871,1,2,0:0:0:0:
164,240,55872,5,2,0:0:0:0:
264,264,56672,1,0,0:0:0:0:
352,200,57472,2,0,L|192:104,1,160.000000596046
184,208,59073,5,2,0:0:0:0:
76,152,59873,1,0,0:0:0:0:
112,248,60673,2,0,L|276:248,1,160.000000596046
348,168,62274,5,2,0:0:0:0:
244,196,63074,1,0,0:0:0:0:
160,248,63874,2,0,L|268:88,1,160.000000596046
248,172,65475,5,2,0:0:0:0:
176,244,66275,1,0,0:0:0:0:
284,288,67075,2,0,L|392:144,1,160.000000596046,0|0,0:0|0:0,0:0:0:0:
436,216,68675,5,2,0:0:0:0:
328,256,69476,1,0,0:0:0:0:
244,208,70276,2,0,L|72:292,1,160.000000596046
72,188,71876,5,2,0:0:0:0:
176,124,72676,1,0,0:0:0:0:
264,48,73477,2,0,L|264:232,1,160.000000596046
376,236,75077,5,2,0:0:0:0:
283,300,75877,1,0,0:0:0:0:
192,324,76678,2,0,L|20:324,1,160.000000596046
68,232,78278,5,2,0:0:0:0:
152,156,79078,1,0,0:0:0:0:
240,84,79878,2,0,L|360:224,2,160.000000596046
284,264,82279,5,0,0:0:0:0:
372,216,83079,1,0,0:0:0:0:
292,148,83879,1,0,0:0:0:0:
204,104,84680,5,2,0:0:0:0:
128,168,85480,2,0,L|32:312,2,160.000000596046
180,276,87881,5,2,0:0:0:0:
272,328,88681,1,0,0:0:0:0:
360,276,89481,1,0,0:0:0:0:
448,216,90281,1,0,0:0:0:0:
388,140,91081,2,0,L|192:160,2,160.000000596046,2|0|0,0:0|0:0|0:0,0:0:0:0:
384,144,93482,1,0,0:0:0:0:
261,182,94282,6,0,L|75:182,1,160.000000596046,2|0,0:0|0:0,0:0:0:0:
225,153,95883,1,0,0:0:0:0:
208,92,96683,1,0,0:0:0:0:
272,176,97483,5,2,0:0:0:0:
305,247,98283,1,0,0:0:0:0:
248,304,99084,2,0,L|136:288,1,80.000000298023
88,220,99884,1,0,0:0:0:0:
188,280,100684,5,2,0:0:0:0:
304,248,101484,1,0,0:0:0:0:
412,296,102284,2,0,L|448:200,1,80.000000298023
384,148,103085,1,0,0:0:0:0:
276,144,103885,5,2,0:0:0:0:
192,216,104685,1,0,0:0:0:0:
312,259,105485,2,0,L|438:159,1,160.000000596046
309,161,107086,6,0,L|140:160,1,160.000000596046,2|0,0:0|0:0,0:0:0:0:
160,144,108686,2,0,L|248:160,1,80.000000298023
336,160,109486,1,0,0:0:0:0:
304,276,110287,5,2,0:0:0:0:
200,216,111087,1,0,0:0:0:0:
236,116,111887,2,2,L|136:116,1,80.000000298023,0|0,0:0|0:0,0:0:0:0:
72,52,112687,1,0,0:0:0:0:
64,188,113487,5,2,0:0:0:0:
144,252,114288,1,0,0:0:0:0:
224,172,115088,1,0,0:0:0:0:
340,136,115888,1,0,0:0:0:0:
416,60,116688,2,0,B|416:148|352:216|196:56|104:48|52:116|56:304,1,560.000002086161,0|0,0:0|0:0,0:0:0:0:
256,192,120289,12,0,123090,0:0:0:0:
