osu file format v14

[General]
AudioFilename: 03 Killer Song.mp3
AudioLeadIn: 0
PreviewTime: 50103
Countdown: 0
SampleSet: Soft
StackLeniency: 0.7
Mode: 0
LetterboxInBreaks: 0
WidescreenStoryboard: 1

[Editor]
DistanceSpacing: 1.3
BeatDivisor: 4
GridSize: 4
TimelineZoom: 1.460481

[Metadata]
Title:Killer Song
TitleUnicode:Killer Song
Artist:Jun Maeda x yanaginagi
ArtistUnicode:麻枝 准×やなぎなぎ
Creator:Yohanes
Version:Edge
Source:
Tags:終わりの惑星の Love Song Owari no Hoshi no Flaming June Xinely Raose Pandiar yaldo_27
BeatmapID:974854
BeatmapSetID:454725

[Difficulty]
HPDrainRate:6.5
CircleSize:4.2
OverallDifficulty:8
ApproachRate:9
SliderMultiplier:1.9
SliderTickRate:1

[Events]
//Background and Video events
0,0,"BG.jpg",0,0
Video,-553,"Killer Song.avi"
//Break Periods
2,63496,72874
2,137411,142995
2,194836,199697
//Storyboard Layer 0 (Background)
//Storyboard Layer 1 (Fail)
//Storyboard Layer 2 (Pass)
//Storyboard Layer 3 (Foreground)
//Storyboard Sound Samples

[TimingPoints]
585,361.44578313253,4,2,1,60,1,0
4200,361.44578313253,4,2,1,60,1,0
15766,-100,4,2,1,45,0,0
27332,-100,4,2,1,55,0,0
43236,-100,4,2,1,60,0,0
50284,-100,4,2,1,70,0,1
62031,-100,4,2,1,70,0,0
73597,-100,4,2,1,45,0,0
76850,-100,4,2,1,55,0,0
84440,-66.6666666666667,4,2,1,55,0,0
84531,-100,4,2,1,15,0,0
84621,-100,4,2,1,60,0,0
101067,-100,4,2,1,60,0,0
108115,-100,4,2,1,70,0,1
119501,-100,4,2,1,70,0,0
119681,-100,4,2,1,70,0,1
131428,-200,4,2,1,90,0,0
134320,-200,4,2,1,50,0,0
137212,-200,4,2,1,40,0,0
141195,600,4,2,1,60,1,0
143594,413.793103448276,4,2,1,30,1,0
143594,-125,4,2,1,30,0,0
156835,-111.111111111111,4,2,1,50,0,0
170059,361.44578313253,4,2,1,60,1,0
200420,-100,4,2,1,45,0,0
203312,-133.333333333333,4,2,1,55,0,0
208914,-100,4,2,1,70,0,1
220299,-100,4,2,1,70,0,0
220480,-100,4,2,1,70,0,1
231866,-100,4,2,1,70,0,0
232046,-86.9565217391304,4,2,1,75,0,1
243432,-86.9565217391304,4,2,1,75,0,0
243613,-76.9230769230769,4,2,1,80,0,1
255360,-200,4,2,1,90,0,0
258251,-100,4,2,1,50,0,0
261143,-100,4,2,1,40,0,0

[Colours]
Combo1 : 255,94,55
Combo2 : 173,255,95
Combo3 : 17,254,176
Combo4 : 255,88,100

[HitObjects]
256,192,585,12,8,3476,0:0:0:0:
256,192,3657,5,2,0:0:0:0:
256,192,4200,5,6,0:0:0:0:
244,92,4380,1,2,0:0:0:0:
164,152,4561,1,8,0:0:0:0:
332,240,4742,2,0,P|346:191|324:132,1,95,2|0,0:0|0:0,0:0:0:0:
164,152,5103,1,2,0:0:0:0:
328,68,5284,1,8,0:0:0:0:
164,152,5465,6,0,P|144:108|152:48,1,95,2|0,0:0|0:0,0:0:0:0:
256,192,5826,2,0,P|258:239|238:281,1,95,2|8,0:0|0:0,0:0:0:0:
88,348,6187,2,0,L|200:348,1,95,2|0,0:0|0:0,0:0:0:0:
388,352,6549,1,2,0:0:0:0:
332,268,6730,1,8,0:0:0:0:
432,261,6910,1,2,0:0:0:0:
388,352,7091,6,0,P|320:360|272:336,1,95,2|0,0:0|0:0,0:0:0:0:
215,189,7453,2,0,L|240:295,1,95,8|0,0:0|0:0,0:0:0:0:
236,281,7724,1,8,0:0:0:0:
236,281,7814,1,0,0:0:0:0:
312,184,7995,5,2,0:0:0:0:
183,348,8175,1,8,0:0:0:0:
426,261,8356,1,2,0:0:0:0:
426,261,8718,5,2,0:0:0:0:
313,355,8898,1,8,0:0:0:0:
426,261,9080,1,2,0:0:0:0:
332,149,9260,1,8,0:0:0:0:
426,261,9441,1,2,0:0:0:0:
248,244,9621,1,12,0:0:0:0:
426,261,9802,1,2,0:1:0:0:
426,261,9892,1,2,0:1:0:0:
426,261,9983,6,0,B|454:164,1,95,4|0,0:0|0:0,0:0:0:0:
390,36,10344,1,8,0:0:0:0:
468,92,10525,2,0,P|488:44|468:-16,1,95,2|0,0:0|0:0,0:0:0:0:
390,36,10886,1,2,0:0:0:0:
332,149,11067,1,8,0:0:0:0:
216,54,11247,6,0,L|310:69,1,95,2|0,0:0|0:0,0:0:0:0:
426,261,11609,2,0,L|332:246,1,95,2|8,0:0|0:0,0:0:0:0:
154,280,11971,2,0,P|138:216|154:164,1,95,2|0,0:0|0:0,0:0:0:0:
309,68,12332,1,2,0:0:0:0:
214,104,12513,1,8,0:0:0:0:
230,3,12693,1,2,0:0:0:0:
378,120,12874,6,0,P|394:76|382:28,1,95,2|0,0:0|0:0,0:0:0:0:
214,104,13236,2,0,L|234:212,1,95,8|0,0:0|0:0,0:0:0:0:
231,197,13507,1,8,0:0:0:0:
231,197,13597,1,0,0:0:0:0:
309,68,13778,5,2,0:0:0:0:
90,152,13959,1,8,0:0:0:0:
334,248,14139,1,2,0:0:0:0:
334,248,14501,5,2,0:0:0:0:
312,147,14681,1,8,0:0:0:0:
334,248,14862,1,2,0:0:0:0:
257,313,15042,1,8,0:0:0:0:
334,248,15224,1,2,0:0:0:0:
427,279,15404,1,8,0:3:0:0:
312,147,15585,1,8,0:0:0:0:
257,313,15766,6,0,P|204:318|150:293,1,95,4|0,0:0|0:0,0:0:0:0:
122,112,16127,1,2,0:0:0:0:
143,201,16308,1,0,0:0:0:0:
54,175,16489,2,0,P|32:134|34:87,1,95,2|0,0:0|0:0,0:0:0:0:
195,71,16850,1,2,0:0:0:0:
113,35,17031,1,0,0:0:0:0:
267,18,17212,5,2,0:0:0:0:
205,160,17392,1,0,0:0:0:0:
113,35,17573,1,2,0:0:0:0:
267,18,17754,1,0,0:0:0:0:
205,160,17934,2,0,P|152:172|112:160,1,95,2|0,0:0|0:0,0:0:0:0:
113,35,18296,1,2,0:0:0:0:
195,71,18477,1,0,0:0:0:0:
267,18,18657,6,0,L|372:18,1,95,4|0,0:0|0:0,0:0:0:0:
372,110,19019,2,0,L|267:110,1,95,2|0,0:0|0:0,0:0:0:0:
445,156,19380,2,0,P|456:101|438:56,1,95,2|0,0:0|0:0,0:0:0:0:
323,185,19742,2,0,P|311:230|323:275,1,95,2|0,0:0|0:0,0:0:0:0:
445,156,20103,5,2,0:0:0:0:
484,236,20284,1,0,0:0:0:0:
395,231,20465,1,2,0:0:0:0:
445,156,20646,1,0,0:0:0:0:
484,236,20826,2,0,L|467:338,1,95,2|0,0:0|0:0,0:0:0:0:
383,363,21187,1,2,0:1:0:0:
354,363,21277,1,2,0:1:0:0:
326,363,21367,1,2,0:1:0:0:
297,363,21458,1,2,0:1:0:0:
269,363,21549,6,0,P|195:337|169:265,2,142.5,4|0|0,0:0|0:1|0:1,0:0:0:0:
95,335,22272,2,0,P|80:257|129:199,2,142.5,2|0|0,0:0|0:1|0:1,0:0:0:0:
31,170,22995,2,0,P|90:118|165:132,2,142.5,2|0|0,0:0|0:1|0:0,0:0:0:0:
113,208,23718,6,0,L|229:208,1,95,2|0,0:0|0:0,0:0:0:0:
290,244,24079,2,0,P|310:201|303:148,1,95,2|0,0:0|0:0,0:0:0:0:
261,11,24440,6,0,P|241:54|248:107,1,95,2|0,0:0|0:0,0:0:0:0:
397,292,24802,1,2,0:0:0:0:
53,176,25163,1,2,0:0:0:0:
414,131,25525,1,2,0:0:0:0:
109,328,25886,1,2,0:0:0:0:
298,18,26248,1,2,0:0:0:0:
262,379,26609,1,2,0:0:0:0:
138,38,26971,1,12,0:0:0:0:
239,196,27332,6,0,P|291:204|339:192,1,95,6|0,0:0|0:0,0:0:0:0:
415,160,27693,1,2,0:0:0:0:
342,104,27874,1,0,0:0:0:0:
404,251,28055,2,0,P|465:236|491:208,1,95,2|0,0:0|0:0,0:0:0:0:
415,160,28416,1,2,0:0:0:0:
501,124,28597,1,0,0:0:0:0:
486,214,28778,5,2,0:0:0:0:
426,68,28959,1,0,0:0:0:0:
486,214,29139,1,2,0:0:0:0:
512,32,29320,1,0,0:0:0:0:
486,214,29501,2,0,P|446:245|389:246,1,95,2|0,0:0|0:0,0:0:0:0:
343,103,29862,2,0,P|383:72|440:71,1,95,8|0,0:0|0:0,0:0:0:0:
329,195,30224,6,0,L|213:176,1,95,2|0,0:0|0:0,0:0:0:0:
192,352,30585,1,2,0:0:0:0:
105,302,30766,1,0,0:0:0:0:
192,251,30947,1,2,0:0:0:0:
192,352,31127,1,0,0:0:0:0:
116,220,31308,2,0,P|64:212|4:224,1,95,2|0,0:0|0:0,0:0:0:0:
105,302,31669,5,2,0:0:0:0:
219,156,31850,1,0,0:0:0:0:
36,130,32031,1,2,0:0:0:0:
105,302,32212,1,0,0:0:0:0:
300,200,32392,6,0,P|308:144|284:92,1,95,2|0,0:0|0:0,0:0:0:0:
219,156,32754,1,2,0:0:0:0:
417,120,32934,1,8,0:0:0:0:
356,300,33115,6,0,P|268:307|208:263,2,142.5,4|0|0,0:0|0:1|0:0,0:0:0:0:
184,355,33838,2,0,P|147:274|168:203,2,142.5,2|0|0,0:0|0:1|0:0,0:0:0:0:
72,211,34561,2,0,P|134:149|209:144,2,142.5,2|0|0,0:0|0:1|0:0,0:0:0:0:
268,190,35284,6,0,P|280:142|268:94,1,95,2|0,0:0|0:0,0:0:0:0:
187,48,35645,2,0,P|175:93|184:139,1,95,8|0,0:0|0:0,0:0:0:0:
268,190,36007,5,2,0:0:0:0:
413,109,36187,1,0,0:0:0:0:
364,191,36368,1,2,0:0:0:0:
317,108,36549,1,0,0:0:0:0:
460,193,36730,1,2,0:0:0:0:
366,26,36910,1,2,0:0:0:0:
366,26,37001,1,2,0:0:0:0:
366,26,37091,1,8,0:0:0:0:
268,190,37272,1,2,0:1:0:0:
460,193,37453,5,2,0:0:0:0:
317,108,37633,1,0,0:0:0:0:
364,191,37814,1,2,0:0:0:0:
413,109,37995,1,0,0:0:0:0:
268,190,38175,1,2,0:0:0:0:
366,26,38356,1,2,0:0:0:0:
366,26,38447,1,2,0:0:0:0:
366,26,38537,1,8,0:0:0:0:
460,193,38718,1,2,0:1:0:0:
317,108,38898,6,0,P|265:95|208:113,1,95,2|0,0:0|0:0,0:0:0:0:
176,185,39260,2,0,P|228:198|285:180,1,95,2|0,0:0|0:0,0:0:0:0:
108,132,39621,2,0,P|92:192|108:240,1,95,2|0,0:0|0:0,0:0:0:0:
248,351,39983,1,2,0:0:0:0:
222,253,40163,1,0,0:0:0:0:
151,325,40344,6,0,P|85:324|47:304,1,95,6|0,0:0|0:0,0:0:0:0:
108,132,40706,2,0,P|174:133|212:153,1,95,2|0,0:0|0:0,0:0:0:0:
24,211,41067,2,0,L|0:95,1,95,2|0,0:0|0:0,0:0:0:0:
222,253,41428,5,2,0:0:0:0:
304,178,41609,1,2,0:0:0:0:
199,144,41790,1,6,0:0:0:0:
222,253,41971,5,2,0:0:0:0:
270,94,42151,1,2,0:0:0:0:
108,132,42332,1,8,0:0:0:0:
222,253,42513,5,2,0:0:0:0:
180,47,42693,1,8,0:0:0:0:
23,187,42874,1,2,0:0:0:0:
222,253,43055,1,8,0:3:0:0:
99,41,43236,6,0,P|91:87|107:131,1,95,6|0,0:0|0:0,0:0:0:0:
222,253,43597,1,2,0:0:0:0:
176,176,43778,2,0,P|227:166|280:184,1,95,0|2,0:0|0:0,0:0:0:0:
222,253,44139,1,0,0:0:0:0:
107,131,44320,2,0,P|96:184|132:244,1,95,8|0,0:0|0:0,0:0:0:0:
176,176,44681,5,2,0:0:0:0:
34,287,44862,1,0,0:0:0:0:
8,109,45043,1,2,0:0:0:0:
176,176,45224,1,0,0:0:0:0:
34,287,45404,2,0,P|12:240|20:180,1,95,2|0,0:0|0:0,0:0:0:0:
130,54,45766,1,2,0:1:0:0:
157,76,45856,1,0,0:0:0:0:
175,107,45946,1,2,0:0:0:0:
182,141,46037,1,0,0:0:0:0:
176,176,46127,6,0,L|156:272,1,95,6|0,0:0|0:0,0:0:0:0:
96,136,46489,1,2,0:0:0:0:
252,228,46669,2,0,P|296:240|352:228,1,95,0|2,0:0|0:0,0:0:0:0:
307,60,47031,2,0,P|295:104|307:160,1,95,0|8,0:0|0:0,0:0:0:0:
392,312,47392,1,2,0:0:0:0:
510,172,47573,6,0,L|404:191,1,95,6|0,0:0|0:0,0:0:0:0:
252,228,47935,1,8,0:0:0:0:
217,238,48025,1,2,0:0:0:0:
182,232,48116,1,2,0:0:0:0:
148,220,48206,1,2,0:0:0:0:
119,197,48296,5,8,0:0:0:0:
85,184,48387,1,2,0:0:0:0:
49,190,48477,1,2,0:0:0:0:
20,211,48568,1,2,0:0:0:0:
4,243,48658,1,8,0:0:0:0:
1,278,48748,1,2,0:0:0:0:
11,312,48839,1,2,0:0:0:0:
34,339,48929,1,2,0:0:0:0:
63,359,49019,6,0,P|121:369|176:352,1,95,12|0,0:0|0:0,0:0:0:0:
284,107,49380,1,8,0:0:0:0:
268,319,49561,1,2,0:0:0:0:
93,199,49742,1,8,0:0:0:0:
284,107,49922,1,6,0:0:0:0:
284,107,50284,6,0,P|296:165|280:209,1,95,6|0,0:0|0:0,0:0:0:0:
187,152,50645,1,2,0:0:0:0:
268,319,50826,1,8,0:0:0:0:
82,355,51007,2,0,L|193:333,1,95,2|0,0:0|0:0,0:0:0:0:
268,319,51368,5,2,0:0:0:0:
93,199,51549,1,8,0:0:0:0:
185,260,51730,2,0,P|201:216|189:168,1,95,2|0,0:0|0:0,0:0:0:0:
93,199,52091,5,2,0:0:0:0:
286,198,52272,1,8,0:0:0:0:
189,32,52453,1,2,0:0:0:0:
93,199,52633,2,0,L|63:96,1,95,2|0,0:0|0:0,0:0:0:0:
39,15,52995,1,8,0:0:0:0:
156,130,53175,6,0,P|203:132|247:116,1,95,4|0,0:0|0:0,0:0:0:0:
369,7,53537,2,0,P|343:46|334:93,1,95,2|8,0:0|0:0,0:0:0:0:
368,253,53898,2,0,P|344:210|309:180,1,95,2|0,0:0|0:0,0:0:0:0:
267,274,54260,5,2,0:0:0:0:
411,152,54440,1,8,0:0:0:0:
267,274,54621,2,0,P|195:276|155:256,1,95,2|0,0:0|0:0,0:0:0:0:
195,100,54983,5,2,0:0:0:0:
227,196,55163,1,8,0:0:0:0:
127,175,55344,1,2,0:0:0:0:
284,109,55525,5,2,0:0:0:0:
174,268,55706,1,2,0:0:0:0:
91,93,55886,1,8,0:0:0:0:
335,204,56067,6,0,B|395:120|335:8,1,190,4|2,0:0|0:0,0:0:0:0:
195,100,56609,1,8,0:0:0:0:
419,204,56790,2,0,P|439:144|431:84,1,95,2|0,0:0|0:0,0:0:0:0:
195,100,57151,5,2,0:0:0:0:
227,196,57332,1,8,0:0:0:0:
244,32,57513,2,0,P|188:20|136:36,1,95,2|0,0:0|0:0,0:0:0:0:
91,268,57874,5,2,0:0:0:0:
11,196,58055,1,8,0:0:0:0:
113,162,58236,1,2,0:0:0:0:
72,348,58416,2,0,P|12:348|-24:332,1,95,2|0,0:0|0:0,0:0:0:0:
11,196,58778,1,8,0:0:0:0:
184,353,58959,6,0,B|247:276|199:174,1,190,4|2,0:0|0:0,0:0:0:0:
151,28,59501,1,8,0:0:0:0:
387,72,59681,1,0,0:0:0:0:
291,120,59862,5,2,0:0:0:0:
297,12,60043,1,0,0:0:0:0:
387,72,60224,1,8,0:0:0:0:
291,120,60404,1,2,0:0:0:0:
451,19,60585,6,0,P|465:64|459:111,1,95,12|2,0:0|0:0,0:0:0:0:
224,170,60946,2,0,P|210:125|219:79,1,95,8|2,0:0|0:1,0:0:0:0:
408,292,61308,1,8,0:3:0:0:
387,72,61489,5,2,0:0:0:0:
387,72,61579,1,2,0:0:0:0:
387,72,61669,1,8,0:0:0:0:
283,280,61850,1,2,0:0:0:0:
512,176,62031,1,6,0:0:0:0:
256,192,62121,12,2,63296,0:0:0:0:
128,252,73597,6,0,P|112:200|124:144,1,95,2|0,0:1|0:0,0:0:0:0:
200,120,73959,1,0,0:0:0:0:
284,152,74139,1,0,0:0:0:0:
366,111,74320,2,0,P|371:64|356:20,1,95,2|0,0:1|0:0,0:0:0:0:
200,120,74681,2,0,P|195:166|210:211,1,95,0|0,0:1|0:0,0:0:0:0:
283,152,75043,5,2,0:1:0:0:
314,340,75224,1,0,0:0:0:0:
225,305,75404,1,0,0:0:0:0:
299,246,75585,1,0,0:0:0:0:
388,281,75766,2,0,P|440:284|488:268,1,95,2|0,0:1|0:0,0:0:0:0:
376,142,76127,2,0,P|329:139|284:152,1,95,6|0,0:1|0:0,0:0:0:0:
452,188,76489,6,0,P|464:140|440:84,1,95,2|0,0:1|0:0,0:0:0:0:
280,48,76850,1,2,0:0:0:0:
376,142,77031,1,0,0:0:0:0:
204,200,77212,2,0,P|192:150|206:101,1,95,2|0,0:1|0:0,0:0:0:0:
283,152,77573,2,0,P|295:202|281:251,1,95,2|0,0:0|0:0,0:0:0:0:
168,364,77934,5,2,0:1:0:0:
212,284,78115,1,0,0:0:0:0:
259,362,78296,1,2,0:0:0:0:
168,364,78477,1,0,0:0:0:0:
88,320,78657,2,0,P|76:268|108:204,1,95,2|0,0:1|0:0,0:0:0:0:
142,151,79019,1,2,0:1:0:0:
177,142,79109,1,0,0:0:0:0:
212,139,79199,1,2,0:1:0:0:
248,143,79290,1,0,0:0:0:0:
282,152,79380,6,0,P|301:95|281:8,2,142.5,4|0|0,0:0|0:1|0:0,0:0:0:0:
343,204,80103,2,0,P|376:141|381:71,2,142.5,2|0|0,0:0|0:1|0:1,0:1:0:0:
404,260,80826,2,0,P|452:176|460:128,2,142.5,2|0|0,0:0|0:1|0:0,0:0:0:0:
320,296,81549,6,0,L|216:296,1,95,2|0,0:0|0:0,0:0:0:0:
160,360,81910,2,0,P|140:324|156:240,1,95,2|0,0:0|0:0,0:0:0:0:
196,120,82272,5,2,0:0:0:0:
212,212,82453,1,0,0:0:0:0:
124,179,82633,1,2,0:0:0:0:
196,120,82814,1,0,0:0:0:0:
284,153,82995,2,0,P|300:112|288:64,1,95,2|0,0:1|0:0,0:0:0:0:
201,22,83356,1,2,0:0:0:0:
56,104,83537,5,2,0:1:0:0:
36,136,83627,1,0,0:0:0:0:
28,172,83717,1,2,0:0:0:0:
32,208,83808,1,0,0:0:0:0:
44,239,83898,1,2,0:1:0:0:
70,264,83988,1,0,0:0:0:0:
102,279,84079,1,2,0:0:0:0:
137,279,84169,1,0,0:0:0:0:
170,267,84259,1,2,0:0:0:0:
197,244,84350,1,0,0:0:0:0:
212,212,84440,6,0,L|208:136,1,71.2500027179719,8|0,0:0|0:0,0:0:0:0:
201,22,84621,1,2,0:1:0:0:
201,22,85163,6,0,L|308:56,1,95,6|0,0:0|0:0,0:0:0:0:
496,116,85525,1,2,0:0:0:0:
388,20,85706,1,0,0:0:0:0:
388,208,85886,2,0,P|372:156|392:104,1,95,2|0,0:0|0:0,0:0:0:0:
388,208,86248,2,0,P|404:260|384:312,1,95,2|0,0:0|0:0,0:0:0:0:
309,258,86609,5,2,0:0:0:0:
504,320,86790,1,0,0:0:0:0:
496,116,86971,1,2,0:0:0:0:
501,218,87151,1,0,0:0:0:0:
382,118,87332,2,0,L|258:126,1,95,2|0,0:0|0:0,0:0:0:0:
214,264,87693,2,0,L|338:256,1,95,2|0,0:0|0:0,0:0:0:0:
204,78,88055,6,0,P|191:133|220:188,1,95,2|0,0:0|0:0,0:0:0:0:
287,124,88416,1,2,0:0:0:0:
214,264,88597,1,0,0:0:0:0:
40,224,88778,2,0,L|140:247,1,95,2|0,0:0|0:0,0:0:0:0:
203,168,89139,2,0,P|152:141|104:144,1,95,2|0,0:0|0:0,0:0:0:0:
132,245,89501,5,2,0:0:0:0:
287,124,89681,1,0,0:0:0:0:
105,51,89862,1,2,0:0:0:0:
132,245,90043,1,0,0:0:0:0:
287,124,90224,6,0,P|294:78|279:34,1,95,2|0,0:0|0:0,0:0:0:0:
200,80,90585,1,2,0:0:0:0:
368,152,90766,1,2,0:1:0:0:
368,152,90856,1,2,0:1:0:0:
368,152,90946,6,0,P|376:70|350:-3,2,142.5,6|0|0,0:0|0:1|0:0,0:0:0:0:
381,270,91669,2,0,P|433:207|455:131,2,142.5,2|0|0,0:0|0:1|0:0,0:0:0:0:
323,374,92392,2,0,P|402:352|462:303,2,142.5,2|0|0,0:0|0:1|0:0,0:0:0:0:
244,328,93115,6,0,P|188:312|136:324,1,95,2|0,0:0|0:0,0:0:0:0:
72,364,93477,2,0,L|40:264,1,95,2|0,0:0|0:0,0:0:0:0:
14,182,93838,5,6,0:0:0:0:
172,132,94019,1,0,0:0:0:0:
108,203,94199,1,2,0:0:0:0:
79,112,94380,1,0,0:0:0:0:
201,223,94561,1,2,0:0:0:0:
143,41,94742,1,2,0:0:0:0:
143,41,94832,1,2,0:0:0:0:
143,41,94922,1,8,0:0:0:0:
14,182,95103,1,2,0:1:0:0:
201,223,95284,5,2,0:0:0:0:
79,112,95465,1,0,0:0:0:0:
172,132,95646,1,2,0:0:0:0:
108,203,95826,1,0,0:0:0:0:
143,41,96007,1,2,0:0:0:0:
201,223,96187,1,2,0:0:0:0:
201,223,96277,1,2,0:0:0:0:
201,223,96367,1,8,0:0:0:0:
14,182,96549,1,2,0:1:0:0:
172,132,96730,6,0,L|268:132,1,95,2|0,0:0|0:0,0:0:0:0:
352,85,97091,2,0,P|366:137|348:185,1,95,2|0,0:0|0:0,0:0:0:0:
276,320,97453,2,0,P|262:268|280:220,1,95,2|0,0:0|0:0,0:0:0:0:
361,273,97814,1,2,0:0:0:0:
267,132,97995,1,0,0:0:0:0:
354,175,98175,6,0,P|414:183|454:167,1,95,6|0,0:0|0:0,0:0:0:0:
416,11,98537,2,0,P|398:55|395:103,1,95,2|0,0:0|0:0,0:0:0:0:
473,332,98898,2,0,P|491:281|491:233,1,95,2|0,0:0|0:0,0:0:0:0:
267,132,99260,5,2,0:0:0:0:
272,232,99440,1,2,0:0:0:0:
354,175,99621,1,8,0:0:0:0:
185,189,99802,5,8,0:3:0:0:
361,273,99983,1,2,0:0:0:0:
346,79,100163,1,2,0:0:0:0:
196,280,100344,5,2,0:0:0:0:
435,217,100525,1,2,0:0:0:0:
435,217,100615,1,2,0:0:0:0:
435,217,100706,2,0,P|443:173|423:113,1,95,12|0,0:0|0:0,0:0:0:0:
262,40,101067,6,0,P|254:84|274:144,1,95,4|0,0:0|0:0,0:0:0:0:
361,273,101428,1,2,0:0:0:0:
346,79,101609,2,0,P|358:124|350:170,1,95,0|2,0:0|0:0,0:0:0:0:
291,310,101971,1,0,0:0:0:0:
173,113,102151,2,0,L|266:131,1,95,8|0,0:0|0:0,0:0:0:0:
435,217,102513,5,2,0:0:0:0:
346,79,102693,1,0,0:0:0:0:
510,70,102874,1,2,0:0:0:0:
435,217,103055,1,0,0:0:0:0:
346,79,103236,2,0,P|332:24|340:-12,1,95,2|0,0:0|0:0,0:0:0:0:
510,70,103597,1,2,0:1:0:0:
512,105,103687,1,0,0:0:0:0:
503,139,103777,1,2,0:0:0:0:
481,166,103868,1,0,0:0:0:0:
450,183,103959,6,0,L|338:200,1,95,6|0,0:0|0:0,0:0:0:0:
189,222,104320,1,2,0:0:0:0:
266,131,104501,2,0,P|282:187|258:243,1,95,0|2,0:0|0:0,0:0:0:0:
144,348,104862,2,0,L|268:328,1,95,0|8,0:0|0:0,0:0:0:0:
360,310,105224,1,0,0:0:0:0:
408,128,105404,6,0,P|428:176|420:224,1,95,6|0,0:0|0:0,0:0:0:0:
360,310,105766,1,8,0:0:0:0:
324,305,105856,1,2,0:0:0:0:
289,301,105946,1,2,0:0:0:0:
253,297,106037,1,2,0:0:0:0:
218,293,106127,5,8,0:0:0:0:
189,313,106217,1,2,0:0:0:0:
155,324,106307,1,2,0:0:0:0:
120,324,106398,1,2,0:0:0:0:
86,313,106488,1,8,0:0:0:0:
57,292,106578,1,2,0:0:0:0:
37,263,106669,1,2,0:0:0:0:
26,230,106759,1,2,0:0:0:0:
25,194,106850,6,0,L|52:90,1,95,12|0,0:0|0:0,0:0:0:0:
333,48,107212,1,8,0:0:0:0:
212,232,107392,1,2,0:0:0:0:
113,35,107572,1,8,0:0:0:0:
333,48,107754,1,6,0:0:0:0:
333,48,108115,6,0,L|224:104,1,95,6|0,0:0|0:0,0:0:0:0:
455,183,108477,2,0,P|463:132|439:76,1,95,2|8,0:0|0:0,0:0:0:0:
272,221,108838,2,0,P|264:272|288:328,1,95,2|0,0:0|0:0,0:0:0:0:
357,267,109199,5,2,0:0:0:0:
184,320,109380,1,8,0:0:0:0:
357,267,109561,2,0,P|365:216|341:160,1,95,2|0,0:0|0:0,0:0:0:0:
147,176,109922,5,2,0:0:0:0:
272,221,110103,1,8,0:0:0:0:
248,91,110284,1,2,0:0:0:0:
134,258,110465,2,0,P|86:231|64:160,1,95,2|0,0:0|0:0,0:0:0:0:
101,86,110826,1,8,0:0:0:0:
272,221,111007,6,0,L|355:176,1,95,6|0,0:0|0:0,0:0:0:0:
276,36,111368,2,0,P|272:96|296:140,1,95,2|8,0:0|0:0,0:0:0:0:
455,213,111730,2,0,P|459:153|435:109,1,95,2|0,0:0|0:0,0:0:0:0:
200,92,112091,5,2,0:0:0:0:
355,175,112272,1,8,0:0:0:0:
213,273,112453,2,0,P|195:223|211:167,1,95,2|0,0:0|0:0,0:0:0:0:
283,125,112814,5,2,0:0:0:0:
377,260,112995,1,8,0:0:0:0:
213,273,113175,1,2,0:0:0:0:
360,96,113356,5,2,0:0:0:0:
304,304,113537,1,2,0:0:0:0:
151,151,113718,1,8,0:0:0:0:
435,137,113898,6,0,P|444:91|431:47,1,95,6|0,0:0|0:0,0:0:0:0:
306,215,114260,2,0,P|290:259|304:304,1,95,2|8,0:0|0:0,0:0:0:0:
462,299,114621,2,0,L|377:259,1,95,2|0,0:0|0:0,0:0:0:0:
151,151,114983,5,2,0:0:0:0:
283,125,115163,1,8,0:0:0:0:
80,196,115344,2,0,P|67:150|81:105,1,95,2|0,0:0|0:0,0:0:0:0:
357,149,115706,5,2,0:0:0:0:
225,177,115886,1,8,0:0:0:0:
266,48,116067,1,2,0:0:0:0:
425,196,116248,2,0,P|435:149|424:104,1,95,2|0,0:0|0:0,0:0:0:0:
283,125,116609,1,8,0:0:0:0:
488,60,116790,6,0,P|512:188|484:252,1,190,6|2,0:0|0:0,0:0:0:0:
270,307,117332,1,8,0:0:0:0:
304,209,117513,1,0,0:0:0:0:
371,287,117693,1,2,0:0:0:0:
212,232,117874,5,2,0:0:0:0:
397,196,118055,1,8,0:0:0:0:
335,374,118236,1,2,0:0:0:0:
238,140,118416,5,12,0:0:0:0:
178,330,118597,1,2,0:0:0:0:
304,209,118778,5,8,0:0:0:0:
109,252,118959,1,2,0:0:0:0:
270,307,119139,5,12,0:0:0:0:
135,159,119320,1,8,0:3:0:0:
178,330,119501,1,8,0:3:0:0:
238,140,119681,6,0,P|288:116|341:121,1,95,4|0,0:0|0:0,0:0:0:0:
440,227,120043,2,0,L|468:127,1,95,2|8,0:0|0:0,0:0:0:0:
352,25,120404,2,0,L|324:125,1,95,2|0,0:0|0:0,0:0:0:0:
270,307,120766,5,2,0:0:0:0:
304,209,120946,1,8,0:0:0:0:
427,364,121127,2,0,P|382:378|335:374,1,95,2|0,0:0|0:0,0:0:0:0:
110,251,121489,5,2,0:0:0:0:
212,232,121669,1,8,0:0:0:0:
178,330,121850,1,2,0:0:0:0:
144,153,122031,5,0,0:0:0:0:
178,330,122212,1,2,0:0:0:0:
43,173,122392,1,8,0:0:0:0:
178,330,122573,6,0,P|240:329|296:296,1,95,6|0,0:0|0:0,0:0:0:0:
339,121,122934,2,0,P|308:175|304:239,1,95,2|12,0:0|0:0,0:0:0:0:
430,360,123296,2,0,P|398:306|344:271,1,95,2|0,0:0|0:0,0:0:0:0:
212,232,123657,5,2,0:0:0:0:
390,200,123838,1,8,0:0:0:0:
144,283,124019,2,0,P|129:238|136:192,1,95,2|0,0:0|0:0,0:0:0:0:
281,46,124380,5,2,0:0:0:0:
238,140,124561,1,8,0:0:0:0:
177,56,124741,1,2,0:0:0:0:
339,121,124922,5,2,0:0:0:0:
136,191,125103,1,2,0:0:0:0:
302,206,125284,1,8,0:0:0:0:
78,125,125465,6,0,B|24:220|76:312,1,190,6|2,0:0|0:0,0:0:0:0:
269,316,126007,1,8,0:0:0:0:
136,191,126187,2,0,B|120:248|152:284|152:284,1,95,2|0,0:0|0:0,0:0:0:0:
390,200,126549,5,2,0:0:0:0:
229,153,126730,1,8,0:0:0:0:
269,316,126910,2,0,P|328:320|384:300,1,95,2|0,0:0|0:0,0:0:0:0:
498,126,127272,5,2,0:0:0:0:
390,200,127452,1,8,0:0:0:0:
508,256,127633,1,2,0:0:0:0:
399,109,127814,2,0,P|349:103|295:121,1,95,2|0,0:0|0:0,0:0:0:0:
136,191,128175,1,8,0:0:0:0:
200,28,128356,6,0,P|235:126|199:226,1,190,6|2,0:0|0:0,0:0:0:0:
103,259,128898,5,8,0:0:0:0:
332,206,129079,1,2,0:0:0:0:
103,154,129260,5,8,0:0:0:0:
287,301,129440,1,2,0:0:0:0:
185,89,129621,5,8,0:0:0:0:
185,324,129802,1,2,0:0:0:0:
287,112,129983,5,12,0:0:0:0:
213,205,130163,1,2,0:0:0:0:
391,266,130344,5,8,0:0:0:0:
213,205,130525,1,2,0:0:0:0:
274,27,130706,5,8,0:3:0:0:
213,205,130886,1,2,0:0:0:0:
213,205,130977,1,2,0:0:0:0:
213,205,131067,1,8,0:0:0:0:
399,109,131248,1,8,0:3:0:0:
143,41,131428,6,0,P|81:260|444:188,1,760,4|0,0:0|0:0,0:0:0:0:
256,192,134410,12,4,137211,0:0:0:0:
296,220,143595,6,0,P|348:232|416:212,2,114,2|0|0,0:1|0:0|0:0,0:0:0:0:
212,164,144421,2,0,P|160:152|92:172,2,114,2|0|0,0:1|0:0|0:0,0:0:0:0:
296,220,145249,2,0,L|316:144,1,76,2|0,0:1|0:0,0:0:0:0:
416,152,145662,2,0,L|395:76,1,76,0|0,0:1|0:0,0:0:0:0:
308,24,146076,2,0,P|228:20|152:48,1,152,2|2,0:1|0:1,0:0:0:0:
52,220,146904,6,0,P|42:277|77:341,2,114,2|0|0,0:1|0:0|0:0,0:0:0:0:
144,264,147731,2,0,P|200:276|272:248,2,114,2|0|0,0:1|0:0|0:0,0:0:0:0:
120,168,148559,2,0,L|92:36,2,101.333333333333,2|0|0,0:1|0:1|0:0,0:0:0:0:
240,172,149387,2,0,B|328:136|404:196,1,152,2|2,0:1|0:1,0:0:0:0:
172,228,150214,6,0,P|112:212|52:228,2,114,2|0|0,0:1|0:0|0:0,0:0:0:0:
256,284,151042,2,0,P|309:278|361:239,2,114,2|0|0,0:1|0:0|0:0,0:0:0:0:
181,136,151869,5,2,0:1:0:0:
256,284,152145,1,0,0:0:0:0:
331,136,152421,1,0,0:0:0:0:
116,216,152697,5,2,0:1:0:0:
256,284,152973,1,0,0:0:0:0:
396,216,153249,1,0,0:0:0:0:
181,136,153525,5,2,0:1:0:0:
256,284,153801,1,0,0:0:0:0:
331,136,154076,1,0,0:0:0:0:
116,216,154352,5,2,0:1:0:0:
256,284,154628,1,0,0:0:0:0:
396,216,154904,1,0,0:0:0:0:
256,79,155180,5,2,0:1:0:0:
256,79,155904,6,0,L|256:32,2,25.3333333333333,2|2|2,0:1|0:1|0:1,0:0:0:0:
255,284,156835,6,0,P|204:321|132:320,2,128.249996086121,4|0|0,0:0|0:0|0:0,0:0:0:0:
172,224,157662,2,0,P|124:186|112:100,2,128.249996086121,2|0|0,0:1|0:0|0:0,0:0:0:0:
266,182,158490,1,2,0:1:0:0:
350,242,158697,1,0,0:0:0:0:
444,204,158904,2,0,P|458:245|452:287,1,85.4999973907472
350,242,159318,2,0,L|360:72,1,170.999994781494,2|2,0:1|0:1,0:0:0:0:
172,224,160145,6,0,P|96:224|48:192,2,128.249996086121,2|0|0,0:1|0:0|0:0,0:0:0:0:
266,182,160973,2,0,L|296:48,2,128.249996086121,2|0|0,0:1|0:0|0:0,0:0:0:0:
332,261,161800,2,0,P|400:294|457:286,2,128.249996086121,2|0|0,0:1|0:0|0:0,0:0:0:0:
266,182,162628,2,0,B|208:92|272:8|272:8,1,170.999994781494,2|2,0:1|0:1,0:0:0:0:
266,182,163456,6,0,P|184:188|136:168,2,128.249996086121,2|0|0,0:1|0:0|0:0,0:0:0:0:
335,94,164283,2,0,P|274:75|212:84,2,128.249996086121,2|0|0,0:1|0:0|0:0,0:0:0:0:
142,171,165111,5,2,0:1:0:0:
256,312,165387,1,0,0:0:0:0:
370,171,165662,1,0,0:0:0:0:
212,84,165938,5,2,0:1:0:0:
256,312,166214,1,0,0:0:0:0:
440,258,166490,1,0,0:0:0:0:
142,171,166766,5,2,0:1:0:0:
256,312,167042,1,0,0:0:0:0:
370,171,167318,1,0,0:0:0:0:
72,258,167594,5,2,0:1:0:0:
256,312,167870,1,0,0:0:0:0:
300,84,168145,1,0,0:0:0:0:
256,208,168421,5,4,0:0:0:0:
256,208,169145,6,0,L|256:168,2,32.0624990215302,2|2|2,0:1|0:1|0:1,0:0:0:0:
205,174,170059,5,6,0:0:0:0:
257,300,170239,1,2,0:0:0:0:
288,282,170329,1,2,0:0:0:0:
314,259,170419,1,8,0:0:0:0:
332,229,170510,1,2,0:0:0:0:
340,193,170600,1,8,0:3:0:0:
340,158,170690,1,2,0:0:0:0:
330,124,170781,1,8,0:0:0:0:
230,50,170962,1,6,0:0:0:0:
230,50,171324,6,0,L|132:72,1,95,6|0,0:0|0:0,0:0:0:0:
21,95,171685,1,2,0:0:0:0:
92,236,171866,2,0,P|112:193|106:147,1,95,8|0,0:0|0:0,0:0:0:0:
106,147,172137,1,8,0:0:0:0:
106,147,172227,1,2,0:0:0:0:
12,172,172408,1,2,0:0:0:0:
125,31,172589,1,8,0:0:0:0:
191,199,172769,6,0,P|264:200|304:180,1,95,2|0,0:0|0:0,0:0:0:0:
452,128,173131,1,2,0:0:0:0:
364,87,173312,2,0,P|357:144|380:192,1,95,8|0,0:0|0:0,0:0:0:0:
369,178,173583,1,8,0:0:0:0:
369,178,173673,1,2,0:0:0:0:
442,32,173854,1,2,0:0:0:0:
279,104,174034,1,8,0:0:0:0:
249,98,174124,1,0,0:0:0:0:
220,93,174214,1,0,0:1:0:0:
191,88,174305,1,0,0:0:0:0:
162,83,174396,6,0,L|40:84,1,95,6|0,0:0|0:0,0:0:0:0:
0,208,174757,1,8,0:0:0:0:
141,204,174938,1,0,0:0:0:0:
141,204,175028,1,8,0:0:0:0:
141,204,175119,1,2,0:0:0:0:
67,83,175299,1,2,0:0:0:0:
0,208,175480,1,8,0:0:0:0:
212,158,175661,6,0,P|222:223|198:269,1,95,6|0,0:0|0:0,0:0:0:0:
67,83,176022,1,2,0:0:0:0:
141,204,176203,1,8,0:0:0:0:
232,72,176384,1,2,0:0:0:0:
265,60,176474,1,8,0:0:0:0:
300,54,176564,1,0,0:0:0:0:
336,55,176655,1,8,0:0:0:0:
371,62,176745,1,2,0:0:0:0:
480,112,176926,2,0,P|493:160|484:208,1,95,12|0,0:0|0:0,0:0:0:0:
407,289,177287,5,4,0:0:0:0:
375,272,177377,1,0,0:0:0:0:
341,264,177467,1,2,0:0:0:0:
305,264,177558,1,0,0:0:0:0:
270,272,177648,1,8,0:0:0:0:
237,283,177739,1,0,0:0:0:0:
202,288,177829,1,2,0:0:0:0:
166,287,177920,1,8,0:0:0:0:
131,280,178010,6,0,L|56:256,1,47.5,2|0,0:0|0:0,0:0:0:0:
8,180,178191,2,0,L|83:204,1,47.5,2|0,0:0|0:0,0:0:0:0:
163,159,178372,2,0,L|88:135,1,47.5,8|0,0:0|0:0,0:0:0:0:
36,52,178552,2,0,L|111:76,1,47.5,2|0,0:0|0:0,0:0:0:0:
163,159,178733,6,0,B|256:160|236:76|328:76,1,190,2|8,0:1|0:0,0:0:0:0:
447,50,179275,1,2,0:0:0:0:
447,50,179366,2,0,P|447:108|411:159,1,95,8|8,0:0|0:0,0:0:0:0:
400,176,179637,2,0,L|292:168,1,95,2|8,0:0|0:0,0:0:0:0:
496,184,179998,1,2,0:0:0:0:
412,312,180179,5,2,0:1:0:0:
378,325,180269,1,0,0:0:0:0:
343,330,180359,1,2,0:0:0:0:
308,324,180450,1,0,0:0:0:0:
276,310,180540,1,8,0:0:0:0:
242,297,180630,1,0,0:0:0:0:
207,293,180721,1,2,0:0:0:0:
172,298,180811,1,8,0:0:0:0:
138,310,180902,5,2,0:0:0:0:
103,312,180992,1,0,0:0:0:0:
71,298,181082,1,2,0:0:0:0:
49,270,181173,1,0,0:0:0:0:
42,236,181263,1,8,0:0:0:0:
51,202,181353,1,0,0:0:0:0:
74,176,181444,2,0,P|104:88|52:-4,1,190,6|2,0:0|0:0,0:0:0:0:
74,176,181986,6,0,P|116:188|178:176,1,95,12|0,0:0|0:0,0:0:0:0:
309,41,182348,1,8,0:0:0:0:
280,64,182438,1,2,0:0:0:0:
260,93,182528,1,2,0:0:0:0:
252,127,182619,1,2,0:0:0:0:
253,163,182709,1,8,0:0:0:0:
265,196,182799,1,8,0:0:0:0:
287,224,182890,1,8,0:3:0:0:
463,140,183071,6,0,L|359:140,1,95,6|2,0:0|0:1,0:0:0:0:
376,118,183342,1,0,0:0:0:0:
384,96,183432,1,8,0:0:0:0:
392,74,183523,1,0,0:0:0:0:
400,51,183613,1,0,0:0:0:0:
409,29,183703,1,8,0:0:0:0:
417,7,183794,1,2,0:0:0:0:
260,93,183974,1,2,0:0:0:0:
463,140,184155,1,8,0:0:0:0:
260,93,184336,6,0,B|192:168|236:280,1,190,6|0,0:0|0:0,0:0:0:0:
332,356,184878,1,8,0:0:0:0:
407,271,185059,2,0,P|366:247|319:242,1,95,2|0,0:0|0:0,0:0:0:0:
160,368,185420,2,0,L|253:349,1,95,2|8,0:0|0:0,0:0:0:0:
67,245,185781,2,0,P|64:292|83:337,1,95,2|0,0:0|0:0,0:0:0:0:
253,348,186143,5,2,0:0:0:0:
144,192,186324,1,8,0:0:0:0:
322,264,186504,2,0,P|335:218|323:173,1,95,2|0,0:0|0:0,0:0:0:0:
227,224,186866,5,2,0:0:0:0:
280,64,187046,1,8,0:0:0:0:
433,208,187227,2,0,P|463:118|439:27,1,190,2|2,0:0|0:0,0:0:0:0:
280,64,187769,6,0,P|344:72|396:56,1,95,8|0,0:0|0:0,0:0:0:0:
200,32,188131,2,0,P|136:24|84:40,1,95,2|2,0:0|0:0,0:0:0:0:
19,83,188492,2,0,P|5:175|50:256,1,190,12|2,0:0|0:0,0:0:0:0:
227,224,189034,5,2,0:1:0:0:
211,207,189125,1,0,0:0:0:0:
191,193,189215,1,8,0:0:0:0:
169,185,189305,1,0,0:0:0:0:
146,182,189396,1,0,0:0:0:0:
122,184,189486,1,8,0:0:0:0:
99,192,189577,2,0,P|84:152|100:96,1,95,2|2,0:0|0:0,0:0:0:0:
280,64,189938,1,8,0:0:0:0:
227,224,190119,6,0,P|184:136|216:24,1,190,6|0,0:0|0:0,0:0:0:0:
373,59,190661,1,8,0:0:0:0:
373,59,190841,2,0,P|327:67|280:64,1,95,2|0,0:0|0:0,0:0:0:0:
133,228,191203,2,0,P|181:219|229:223,1,95,2|8,0:0|0:0,0:0:0:0:
324,280,191565,1,2,0:0:0:0:
324,280,191655,1,8,0:0:0:0:
324,280,191745,6,0,P|339:232|323:171,1,95,2|0,0:0|0:0,0:0:0:0:
279,63,192107,1,8,0:0:0:0:
145,184,192287,2,0,P|237:203|331:188,1,190,2|2,0:0|0:0,0:0:0:0:
279,63,192830,1,8,0:0:0:0:
96,268,193010,6,0,P|59:183|71:83,1,190,6|2,0:0|0:0,0:0:0:0:
279,63,193552,1,8,0:0:0:0:
312,71,193642,1,0,0:0:0:0:
341,90,193732,1,2,0:0:0:0:
362,119,193823,1,0,0:0:0:0:
370,154,193913,5,8,0:0:0:0:
366,189,194003,1,0,0:0:0:0:
349,220,194094,1,2,0:0:0:0:
322,243,194184,1,0,0:0:0:0:
289,256,194274,1,8,0:0:0:0:
254,255,194365,1,0,0:0:0:0:
221,243,194455,1,8,0:3:0:0:
195,219,194546,1,0,0:0:0:0:
179,188,194636,1,4,0:0:0:0:
256,52,200420,5,2,0:1:0:0:
63,272,200781,2,0,P|112:264|160:272,1,95,8|0,0:0|0:0,0:0:0:0:
171,277,201052,1,8,0:0:0:0:
185,283,201143,2,0,L|336:224,1,142.5,2|0,0:0|0:0,0:0:0:0:
348,218,201504,2,0,B|460:224|480:340,1,190,8|2,0:0|0:0,0:0:0:0:
449,112,202227,6,0,P|400:120|352:112,1,95,8|0,0:0|0:0,0:0:0:0:
341,107,202498,1,8,0:0:0:0:
327,101,202589,2,0,L|176:160,1,142.5,2|0,0:0|0:0,0:0:0:0:
164,166,202950,2,0,B|52:160|32:44,1,190,8|2,0:0|0:0,0:0:0:0:
240,54,203492,5,2,0:1:0:0:
164,166,203673,1,2,0:0:0:0:
119,18,203854,1,8,0:0:0:0:
119,18,203944,1,8,0:0:0:0:
119,18,204034,1,2,0:0:0:0:
408,340,204576,5,2,0:1:0:0:
348,218,204757,1,2,0:0:0:0:
272,330,204938,1,2,0:1:0:0:
408,340,205119,1,8,0:0:0:0:
427,310,205209,1,0,0:0:0:0:
440,277,205299,1,2,0:0:0:0:
447,242,205390,1,0,0:0:0:0:
447,206,205480,5,8,0:0:0:0:
440,171,205571,1,0,0:0:0:0:
427,138,205661,1,2,0:0:0:0:
408,109,205751,1,0,0:0:0:0:
383,83,205842,1,8,0:0:0:0:
351,68,205932,1,0,0:0:0:0:
316,60,206022,1,8,0:0:0:0:
280,60,206113,1,8,0:0:0:0:
246,67,206203,6,0,P|226:162|297:125,2,213.750008153916,2|2|2,0:1|0:1|0:1,0:0:0:0:
320,64,208372,5,8,0:0:0:0:
184,288,208552,1,2,0:0:0:0:
184,288,208914,6,0,L|320:276,1,95,6|0,0:0|0:0,0:0:0:0:
436,104,209275,1,2,0:0:0:0:
384,268,209456,1,12,0:0:0:0:
320,64,209637,2,0,P|304:108|324:172,1,95,2|0,0:0|0:0,0:0:0:0:
409,117,209998,5,2,0:0:0:0:
236,212,210179,1,8,0:0:0:0:
409,117,210360,2,0,P|448:104|504:108,1,95,2|0,0:0|0:0,0:0:0:0:
320,64,210721,5,0,0:0:0:0:
378,219,210902,1,8,0:0:0:0:
215,191,211083,1,2,0:0:0:0:
320,64,211264,5,0,0:0:0:0:
286,268,211444,1,2,0:0:0:0:
416,120,211625,1,8,0:0:0:0:
286,268,211805,6,0,P|230:274|188:260,1,95,6|0,0:0|0:0,0:0:0:0:
227,58,212167,2,0,P|283:52|325:66,1,95,2|8,0:0|0:0,0:0:0:0:
378,262,212528,2,0,P|332:273|285:267,1,95,2|0,0:0|0:0,0:0:0:0:
132,148,212890,5,2,0:0:0:0:
244,352,213071,1,8,0:0:0:0:
344,208,213251,2,0,P|368:256|360:304,1,95,2|0,0:0|0:0,0:0:0:0:
193,262,213613,5,2,0:0:0:0:
307,132,213793,1,8,0:0:0:0:
363,295,213974,1,2,0:0:0:0:
193,262,214155,5,8,0:0:0:0:
384,136,214336,1,2,0:0:0:0:
397,364,214516,1,8,0:0:0:0:
193,262,214697,6,0,P|179:217|187:171,1,95,6|0,0:0|0:0,0:0:0:0:
384,136,215059,1,2,0:0:0:0:
280,211,215239,1,12,0:0:0:0:
471,85,215420,2,0,P|485:130|477:176,1,95,2|0,0:0|0:0,0:0:0:0:
363,295,215781,5,2,0:0:0:0:
384,136,215962,1,8,0:0:0:0:
193,262,216143,2,0,P|123:260|80:228,1,95,2|0,0:0|0:0,0:0:0:0:
104,44,216504,5,2,0:0:0:0:
160,184,216685,1,8,0:0:0:0:
10,162,216866,1,0,0:0:0:0:
188,56,217046,2,0,P|247:46|292:54,1,95,2|0,0:0|0:0,0:0:0:0:
476,176,217408,1,8,0:0:0:0:
377,34,217589,6,0,P|361:126|400:212,1,190,6|2,0:0|0:0,0:0:0:0:
476,296,218131,1,8,0:0:0:0:
294,330,218312,2,0,L|387:311,1,95,2|0,0:0|0:0,0:0:0:0:
294,194,218673,5,2,0:0:0:0:
294,330,218854,1,8,0:0:0:0:
177,261,219035,1,2,0:0:0:0:
294,194,219215,5,12,0:0:0:0:
187,374,219396,1,2,0:0:0:0:
294,194,219577,1,8,0:0:0:0:
84,192,219758,1,2,0:0:0:0:
294,194,219938,5,2,0:0:0:0:
309,159,220028,1,2,0:0:0:0:
312,120,220118,1,2,0:0:0:0:
300,84,220209,1,2,0:0:0:0:
275,54,220299,1,8,0:0:0:0:
84,192,220480,6,0,P|116:204|196:204,1,95,6|0,0:0|0:0,0:0:0:0:
294,194,220842,1,2,0:0:0:0:
188,288,221022,1,12,0:0:0:0:
372,138,221203,2,0,P|389:200|369:250,1,95,2|0,0:0|0:0,0:0:0:0:
294,194,221565,5,2,0:0:0:0:
468,248,221745,1,8,0:0:0:0:
428,72,221926,2,0,P|384:54|331:60,1,95,2|0,0:0|0:0,0:0:0:0:
160,184,222287,5,2,0:0:0:0:
294,194,222468,1,8,0:0:0:0:
235,72,222649,1,2,0:0:0:0:
107,245,222830,2,0,P|82:200|103:121,1,95,2|0,0:0|0:0,0:0:0:0:
235,72,223191,1,8,0:0:0:0:
374,246,223372,6,0,P|420:256|467:247,1,95,6|0,0:0|0:0,0:0:0:0:
420,59,223733,2,0,P|411:105|420:152,1,95,2|12,0:0|0:0,0:0:0:0:
466,340,224095,2,0,P|475:293|466:247,1,95,2|0,0:0|0:0,0:0:0:0:
272,332,224456,5,2,0:0:0:0:
374,246,224637,1,8,0:0:0:0:
249,201,224818,2,0,L|136:200,1,95,2|0,0:0|0:0,0:0:0:0:
351,115,225179,5,2,0:0:0:0:
374,246,225360,1,8,0:0:0:0:
249,201,225540,1,2,0:0:0:0:
436,168,225721,5,2,0:0:0:0:
272,332,225902,1,2,0:0:0:0:
351,115,226083,1,8,0:0:0:0:
272,332,226263,6,0,P|164:336|80:272,1,190,6|2,0:0|0:0,0:0:0:0:
44,184,226805,1,8,0:0:0:0:
204,268,226986,2,0,P|216:212|196:164,1,95,2|0,0:0|0:0,0:0:0:0:
76,44,227348,1,2,0:0:0:0:
44,184,227528,1,8,0:0:0:0:
180,44,227709,2,0,P|236:40|288:56,1,95,2|0,0:0|0:0,0:0:0:0:
452,228,228071,5,2,0:0:0:0:
316,168,228251,1,8,0:0:0:0:
435,80,228432,1,2,0:0:0:0:
496,304,228613,2,0,P|436:312|384:288,1,95,2|0,0:0|0:0,0:0:0:0:
204,177,228974,1,8,0:0:0:0:
284,340,229155,6,0,P|330:259|316:168,1,190,6|2,0:0|0:0,0:0:0:0:
112,244,229697,5,8,0:0:0:0:
150,25,229878,1,2,0:0:0:0:
39,200,230058,5,8,0:0:0:0:
222,71,230239,1,2,0:0:0:0:
21,116,230420,5,8,0:0:0:0:
240,155,230601,1,2,0:0:0:0:
67,44,230781,5,12,0:0:0:0:
196,228,230962,1,8,0:3:0:0:
193,269,231052,1,2,0:1:0:0:
173,304,231142,1,2,0:0:0:0:
137,326,231233,1,0,0:0:0:0:
96,328,231323,1,2,0:1:0:0:
59,312,231413,1,0,0:0:0:0:
33,279,231504,1,8,0:0:0:0:
26,239,231594,1,0,0:0:0:0:
39,200,231685,2,0,L|137:176,1,95,2|8,0:0|0:0,0:0:0:0:
280,292,232046,6,0,P|223:187|256:60,1,218.500004167557,6|2,0:0|0:1,0:0:0:0:
392,88,232589,1,8,0:0:0:0:
164,240,232769,2,0,B|138:176|156:128|156:128,1,109.250002083778,2|0,0:0|0:0,0:0:0:0:
392,88,233131,1,2,0:0:0:0:
365,233,233312,1,8,0:0:0:0:
338,28,233492,6,0,P|413:16|458:41,1,109.250002083778,2|0,0:0|0:0,0:0:0:0:
464,252,233854,1,2,0:0:0:0:
392,88,234034,1,8,0:0:0:0:
464,252,234214,1,2,0:0:0:0:
300,96,234396,2,0,P|235:87|175:99,1,109.250002083778,2|0,0:1|0:0,0:0:0:0:
96,204,234757,1,8,0:0:0:0:
0,36,234938,6,0,L|16:144,1,109.250002083778,6|0,0:0|0:0,0:0:0:0:
208,299,235299,2,0,L|192:192,1,109.250002083778,2|8,0:0|0:0,0:0:0:0:
366,52,235661,2,0,P|382:103|368:156,1,109.250002083778,6|0,0:0|0:0,0:0:0:0:
272,104,236022,5,2,0:0:0:0:
424,264,236203,1,8,0:0:0:0:
493,65,236384,2,0,P|505:139|464:200,1,109.250002083778,2|0,0:0|0:0,0:0:0:0:
208,299,236745,5,2,0:0:0:0:
336,244,236926,1,8,0:0:0:0:
319,382,237107,1,2,0:0:0:0:
208,204,237287,5,8,0:0:0:0:
384,320,237468,1,2,0:0:0:0:
397,110,237649,1,8,0:0:0:0:
208,204,237830,6,0,B|80:260|-24:148,1,218.500004167557,6|2,0:0|0:0,0:0:0:0:
152,64,238372,1,8,0:0:0:0:
276,269,238552,2,0,P|297:215|280:151,1,109.250002083778,6|0,0:0|0:0,0:0:0:0:
56,232,238914,5,2,0:0:0:0:
208,204,239095,1,8,0:0:0:0:
156,349,239275,2,0,P|106:363|26:331,1,109.250002083778,2|0,0:0|0:0,0:0:0:0:
208,204,239637,5,2,0:0:0:0:
442,246,239818,1,8,0:0:0:0:
304,342,239998,1,2,0:0:0:0:
346,108,240179,2,0,P|290:96|218:112,1,109.250002083778,2|0,0:0|0:0,0:0:0:0:
208,204,240540,1,8,0:0:0:0:
433,40,240721,6,0,P|469:141|442:246,1,218.500004167557,6|2,0:0|0:0,0:0:0:0:
252,48,241264,5,8,0:0:0:0:
228,318,241443,1,2,0:0:0:0:
153,79,241625,5,8,0:0:0:0:
328,288,241805,1,2,0:0:0:0:
104,172,241987,5,8,0:0:0:0:
375,195,242166,1,2,0:0:0:0:
136,271,242348,5,12,0:0:0:0:
344,96,242528,1,2,0:0:0:0:
228,318,242709,5,8,0:0:0:0:
189,345,242799,1,2,0:0:0:0:
143,356,242889,1,2,0:0:0:0:
96,348,242980,1,2,0:0:0:0:
56,323,243070,1,8,0:0:0:0:
28,284,243160,1,8,0:3:0:0:
18,238,243251,1,8,0:3:0:0:
26,191,243341,1,8,0:3:0:0:
52,151,243431,1,8,0:0:0:0:
252,48,243613,6,0,P|308:180|268:300,1,246.999988693238,6|2,0:0|0:0,0:0:0:0:
260,302,244065,1,2,0:0:0:0:
228,318,244155,2,0,P|160:324|88:286,1,123.499994346619,12|0,0:0|0:0,0:0:0:0:
284,64,244516,2,0,P|352:58|424:96,1,123.499994346619,8|0,0:0|0:0,0:0:0:0:
129,164,244878,6,0,P|124:96|162:24,1,123.499994346619,8|0,0:0|0:0,0:0:0:0:
382,220,245239,2,0,P|388:288|350:360,1,123.499994346619,8|0,0:0|0:0,0:0:0:0:
284,65,245601,1,8,0:0:0:0:
228,318,245781,1,0,0:0:0:0:
130,164,245962,5,8,0:0:0:0:
382,220,246142,1,0,0:0:0:0:
284,65,246324,1,8,0:0:0:0:
432,280,246504,6,0,P|482:154|444:48,1,246.999988693238,6|2,0:0|0:0,0:0:0:0:
130,164,247046,1,12,0:0:0:0:
382,219,247227,2,0,P|404:164|384:100,1,123.499994346619,2|0,0:0|0:0,0:0:0:0:
130,164,247589,2,0,P|108:219|128:283,1,123.499994346619,2|8,0:0|0:0,0:0:0:0:
256,140,247950,6,0,L|236:12,1,123.499994346619,2|0,0:0|0:0,0:0:0:0:
130,164,248312,1,2,0:0:0:0:
382,219,248492,1,8,0:0:0:0:
124,278,248673,1,2,0:0:0:0:
387,104,248854,1,2,0:0:0:0:
428,132,248944,1,2,0:0:0:0:
454,174,249034,1,2,0:0:0:0:
460,224,249125,1,2,0:0:0:0:
446,271,249215,1,8,0:0:0:0:
130,164,249396,6,0,P|252:151|360:207,1,246.999988693238,6|2,0:0|0:0,0:0:0:0:
124,278,249938,1,12,0:0:0:0:
274,56,250119,2,0,P|334:72|387:104,1,123.499994346619,2|0,0:0|0:0,0:0:0:0:
446,271,250480,1,2,0:0:0:0:
228,148,250661,1,8,0:0:0:0:
358,324,250842,6,0,P|374:265|359:205,1,123.499994346619,2|0,0:0|0:0,0:0:0:0:
274,56,251203,1,2,0:0:0:0:
248,264,251384,1,8,0:0:0:0:
387,104,251565,1,2,0:0:0:0:
187,330,251745,2,0,P|160:268|180:196,1,123.499994346619,2|0,0:0|0:0,0:0:0:0:
446,271,252107,1,8,0:0:0:0:
304,144,252287,6,0,P|168:128|36:196,1,246.999988693238,6|2,0:0|0:0,0:0:0:0:
187,330,252830,5,8,0:0:0:0:
120,56,253010,1,2,0:0:0:0:
256,288,253191,5,8,0:0:0:0:
256,24,253372,1,2,0:0:0:0:
325,330,253552,5,8,0:0:0:0:
392,56,253732,1,2,0:0:0:0:
112,244,253914,5,12,0:0:0:0:
392,272,254095,1,2,0:0:0:0:
136,164,254275,5,8,0:0:0:0:
420,164,254456,1,2,0:0:0:0:
112,84,254637,5,8,0:3:0:0:
392,56,254818,1,2,0:0:0:0:
392,56,254908,1,2,0:0:0:0:
392,56,254998,1,8,0:0:0:0:
195,261,255179,1,8,0:3:0:0:
264,4,255360,6,0,B|320:84|320:84|216:192|324:308|324:308|264:372|264:372|124:212|224:68,1,760,4|0,0:0|0:0,0:0:0:0:
256,192,258342,12,4,261143,0:0:0:0:
