osu file format v14

[General]
AudioFilename: audio.mp3
AudioLeadIn: 0
PreviewTime: 135542
Countdown: 1
SampleSet: Soft
StackLeniency: 0.7
Mode: 0
LetterboxInBreaks: 0
WidescreenStoryboard: 1

[Editor]
Bookmarks: 247205
DistanceSpacing: 1.2
BeatDivisor: 4
GridSize: 8
TimelineZoom: 1

[Metadata]
Title:Dango Daikazoku
TitleUnicode:だんご大家族
Artist:Jun Maeda
ArtistUnicode:Jun Maeda
Creator:Wyatt
Version:Ushio
Source:クラナド
Tags:Clannad, Dango
BeatmapID:1017668
BeatmapSetID:476450

[Difficulty]
HPDrainRate:2
CircleSize:2.7
OverallDifficulty:2
ApproachRate:3
SliderMultiplier:1.4
SliderTickRate:1

[Events]
//Background and Video events
0,0,"Ushio 2.jpg",0,0
//Break Periods
2,84517,99761
2,168705,188457
//Storyboard Layer 0 (Background)
//Storyboard Layer 1 (Fail)
//Storyboard Layer 2 (Pass)
//Storyboard Layer 3 (Foreground)
//Storyboard Sound Samples

[TimingPoints]
1028,521.739130434783,4,2,0,58,1,0
1058,-133.333333333333,4,2,1,100,0,0
17256,-133.333333333333,4,2,1,75,0,0
32185,-200,4,1,0,100,0,0
34139,-100,4,2,1,100,0,0
189897,-100,4,2,1,83,0,1
202158,-100,4,2,1,81,0,0
206462,-100,4,2,1,100,0,1
218854,-100,4,2,1,83,0,0
222542,-200,4,2,0,100,0,0
226324,-100,4,2,1,72,0,0
234767,535.714285714286,4,2,1,58,1,0
237974,545.454545454546,4,2,1,58,1,0
238846,-200,4,1,0,100,0,0
239064,576.923076923077,4,2,1,22,1,0
240217,722.89156626506,4,2,1,19,1,0
241662,606.060606060606,4,2,1,19,1,0
242268,1034.48275862069,4,2,1,19,1,0
242526,1263.15789473684,4,2,1,19,1,0
242841,1038.96103896104,4,2,1,19,1,0
243100,1188.11881188119,4,2,1,19,1,0
243397,1333.33333333333,4,2,1,19,1,0
243730,1666.66666666667,4,2,1,19,1,0
244146,3000,4,2,1,19,1,0

[HitObjects]
264,120,1028,6,0,B|192:32|146:75|146:75|131:73,2,140
368,176,2594,5,0,2:0:0:0:
280,256,3114,2,0,B|160:264|80:192,1,210.000008010865
88,104,4680,1,0,2:0:0:0:
152,40,5201,2,0,B|256:48|336:144,1,210.000008010865
336,224,6767,5,0,2:0:0:0:
248,272,7288,2,0,P|216:216|216:160,1,105.000004005432
208,80,8332,2,0,P|264:72|320:88,1,105.000004005432
328,184,9375,6,0,P|304:216|408:240,1,210.000008010865
464,152,10941,5,0,2:0:0:0:
408,72,11462,6,0,P|398:33|313:97,1,210.000008010865
272,184,13028,5,0,2:0:0:0:
280,280,13549,2,0,P|224:280|168:248,1,105.000004005432,0|0,2:0|2:0,2:0:0:0:
152,168,14593,2,0,P|192:128|240:104,1,105.000004005432,0|0,2:0|2:0,2:0:0:0:
328,104,15636,1,2,2:0:0:0:
328,104,17723,6,0,L|232:192,1,105.000004005432,0|0,2:0|2:0,2:0:0:0:
176,232,18767,1,2,2:0:0:0:
145,131,19288,1,0,2:0:0:0:
80,72,19810,6,0,P|56:136|72:184,1,105.000004005432,0|0,2:0|2:0,2:0:0:0:
72,264,20854,2,0,P|120:288|179:280,1,105.000004005432
232,216,21897,6,0,P|272:176|320:152,1,105.000004005432
400,112,22941,1,0,0:0:0:0:
328,64,23462,1,0,0:0:0:0:
232,64,23984,2,0,L|120:120,2,105.000004005432
368,80,26071,6,0,P|400:144|400:200,1,105.000004005432,0|0,2:0|2:0,2:0:0:0:
312,232,27114,1,2,2:0:0:0:
280,136,27636,1,0,2:0:0:0:
184,80,28158,2,0,P|120:56|72:64,1,105.000004005432
56,160,29201,2,0,P|52:228|80:272,1,105.000004005432
112,344,30245,2,0,P|160:288|152:240,1,105.000004005432
232,176,31288,1,0,0:0:0:0:
328,120,31810,1,0,0:0:0:0:
424,208,32332,6,0,B|448:272|408:304|408:304|352:312|312:264,1,210,0|0,2:0|2:0,2:0:0:0:
235,163,34419,2,0,P|299:212|314:268,1,140
200,272,35462,2,0,P|144:256|80:176,1,140
96,96,36506,2,0,L|240:16,2,140
48,200,38071,1,0,0:0:0:0:
104,312,38593,2,0,P|192:312|248:264,1,140
216,192,39636,2,0,P|296:216|328:272,1,140
232,280,40680,1,2,2:0:0:0:
224,288,42767,6,0,P|236:191|192:142,1,140
144,216,43810,2,0,P|132:119|176:70,1,140
215,159,44854,2,0,L|351:111,2,140
128,184,46419,5,0,2:0:0:0:
80,280,46941,2,0,P|122:349|203:362,1,140,0|0,2:0|2:0,2:0:0:0:
168,272,47984,6,0,P|113:201|52:193,1,140
80,280,49028,2,0,L|16:344,2,70,0|0|0,2:0|2:0|2:0,2:0:0:0:
64,184,50071,2,0,P|80:128|152:96,1,140
152,184,51114,6,0,P|152:264|96:320,2,140
150,95,52680,2,0,P|212:60|289:81,1,140
224,152,53723,1,2,0:0:0:0:
224,248,54245,6,0,P|304:232|320:152,1,140
344,96,55288,2,0,P|281:102|216:176,2,140
325,184,56854,1,0,0:0:0:0:
272,280,57375,6,0,P|208:256|152:200,1,140
128,96,58419,2,0,B|56:128|35:214,1,140
156,207,59462,2,0,L|298:137,2,140,0|0|0,2:0|2:0|2:0,2:0:0:0:
48,152,61028,2,0,B|88:152|88:152|136:120,1,70
152,96,61549,2,0,B|176:64|176:64|224:48,1,70
264,56,62071,2,0,B|304:64|304:64|344:104,1,70
344,128,62593,6,0,L|433:235,2,140,2|0|2,2:0|2:0|2:0,2:0:0:0:
264,256,64680,5,0,2:0:0:0:
120,224,65201,2,0,B|224:104|392:168,1,280
376,304,66767,6,0,L|240:264,1,140,0|0,2:0|2:0,2:0:0:0:
120,224,67810,2,0,P|48:168|80:120,1,140
168,64,68854,2,0,L|312:56,1,140
416,112,69897,5,0,0:0:0:0:
344,216,70419,1,0,2:0:0:0:
216,208,70941,1,0,0:0:0:0:
120,200,71462,2,0,P|144:272|200:304,1,140
216,208,72506,6,0,B|288:200|288:200|368:232,1,140,0|0,2:0|2:0,2:0:0:0:
344,312,73549,1,0,1:0:0:0:
224,312,74071,2,0,P|168:288|128:208,3,140,0|0|0|0,2:0|2:0|2:0|2:0,2:0:0:0:
144,104,76158,1,0,0:0:0:0:
264,72,76680,6,0,P|320:136|288:200,1,140
304,280,77723,2,0,B|264:280|264:280|216:248,1,70
208,224,78245,2,0,B|208:184|208:184|224:152,1,70
208,120,78767,2,0,B|192:80|192:80|152:48,1,70
112,64,79288,5,0,2:0:0:0:
72,168,79810,1,0,0:0:0:0:
184,256,80332,2,0,P|96:264|48:320,1,140
144,352,81375,2,0,P|272:328|288:304,1,140
184,256,82419,2,0,L|288:144,2,140,0|0|0,2:0|2:0|2:0,2:0:0:0:
160,144,101201,6,0,B|136:168|136:168|120:208,1,70,0|0,2:0|2:0,2:0:0:0:
152,256,101723,1,0,0:0:0:0:
304,304,102245,1,0,0:0:0:0:
416,184,102767,6,0,L|328:160,1,70,0|0,2:0|2:0,2:0:0:0:
160,128,103810,2,0,L|120:160,2,35
288,152,104593,2,0,L|216:208,1,70,0|0,2:0|2:0,2:0:0:0:
88,296,105375,1,0,2:0:0:0:
32,280,105636,6,0,L|-24:312,2,35,0|0|0,2:0|2:0|2:0,2:0:0:0:
24,232,106158,2,0,B|32:192|32:192|56:144,1,70
96,120,106680,1,0,2:0:0:0:
152,88,106941,6,0,B|192:72|192:72|248:88,1,70,0|0,2:0|2:0,2:0:0:0:
272,104,107462,2,0,L|296:72,2,35,0|0|0,2:0|2:0|2:0,2:0:0:0:
280,152,107984,2,0,P|319:225|308:293,1,140,0|0,2:0|2:0,2:0:0:0:
232,232,109028,1,0,2:0:0:0:
136,136,109549,6,0,L|120:232,2,70,0|0|0,2:0|2:0|2:0,2:0:0:0:
160,88,110332,2,0,B|200:104|200:104|248:96,1,70
296,96,110854,2,0,B|320:64|320:64|376:56,1,70
416,80,111375,1,0,2:0:0:0:
400,152,111636,6,0,L|280:256,1,140,0|0,2:0|2:0,2:0:0:0:
136,280,112680,2,0,P|112:184|152:136,1,140
264,48,113723,1,0,2:0:0:0:
336,96,113984,2,0,P|384:168|400:232,1,140
344,256,114767,5,0,2:0:0:0:
288,232,115028,2,0,P|264:176|168:168,1,140
136,176,115810,1,0,2:0:0:0:
136,176,116854,6,0,L|288:128,2,140,0|0|0,2:0|2:0|2:0,2:0:0:0:
104,136,119984,6,0,L|240:216,1,140,0|0,2:0|2:0,2:0:0:0:
371,283,121288,2,0,L|451:331,2,70,0|0|0,2:0|2:0|2:0,2:0:0:0:
328,248,122071,1,0,0:0:0:0:
240,176,122593,2,0,P|224:248|152:296,2,140
152,200,124158,2,0,P|104:133|112:48,1,140,0|0,2:0|2:0,2:0:0:0:
136,0,125201,2,0,P|192:58|184:144,1,140,0|0,2:0|2:0,2:0:0:0:
96,216,126245,1,0,0:0:0:0:
392,112,128332,6,0,P|376:184|312:224,1,140,0|0,2:0|2:0,2:0:0:0:
304,136,129375,2,0,P|262:86|186:46,1,140
200,152,130419,1,0,0:0:0:0:
144,224,130941,2,0,L|32:344,2,140
216,128,132506,6,0,P|232:56|248:40,1,70
368,104,133288,2,0,P|392:72|448:72,1,70,0|0,2:0|2:0,2:0:0:0:
488,192,134071,1,0,2:0:0:0:
416,288,134593,2,0,P|375:337|289:336,1,140
200,248,135636,2,0,P|168:192|200:112,1,140
312,200,136680,6,0,P|312:280|256:336,2,140
248,112,138245,2,0,P|219:173|239:251,1,140
304,312,139288,1,0,0:0:0:0:
424,304,139810,2,0,P|440:264|416:160,1,140
336,144,140854,6,0,P|424:80|456:88,2,140
272,192,142158,2,0,B|256:224|256:224|192:240,1,70,0|0,2:0|2:0,2:0:0:0:
176,224,142680,2,0,B|144:216|144:216|96:248,1,70,0|0,2:0|2:0,2:0:0:0:
304,320,143984,6,0,P|304:248|256:184,1,140
200,104,145028,1,0,0:0:0:0:
320,88,145549,2,0,P|392:112|400:192,1,140
488,272,146593,6,0,P|432:327|375:297,1,140,0|0,2:0|2:0,2:0:0:0:
280,224,147636,2,0,P|208:200|176:128,1,140,0|0,2:0|2:0,2:0:0:0:
144,64,148680,5,0,2:0:0:0:
232,16,149201,2,0,P|280:80|248:152,1,140,0|0,2:0|2:0,2:0:0:0:
184,120,150245,2,0,P|200:184|264:216,1,140,0|0,2:0|2:0,2:0:0:0:
360,176,151288,2,0,L|424:144,2,70,0|0|0,2:0|2:0|2:0,2:0:0:0:
256,200,152332,2,0,P|210:143|130:138,1,140,0|0,2:0|2:0,2:0:0:0:
160,224,153375,6,0,P|80:214|31:151,2,140
224,144,154941,1,0,2:0:0:0:
312,208,155462,2,0,P|336:280|416:280,1,140,0|0,2:0|2:0,2:0:0:0:
408,200,156506,6,0,P|432:107|387:61,1,140,0|0,2:0|2:0,2:0:0:0:
344,144,157549,1,0,0:0:0:0:
288,232,158071,2,0,L|240:304,1,70,0|0,2:0|2:0,2:0:0:0:
120,312,158854,2,0,L|32:336,2,70,0|0|0,2:0|2:0|2:0,2:0:0:0:
176,272,159636,6,0,L|88:160,3,140,0|0|0|0,2:0|2:0|2:0|2:0,2:0:0:0:
0,144,161723,6,0,P|48:80|126:69,2,140
104,160,163288,1,0,0:0:0:0:
200,184,163810,2,0,P|160:232|64:248,1,140
40,336,164854,2,0,P|0:264|24:192,1,140
87,251,165897,2,0,P|119:171|87:123,1,140
200,104,166941,6,0,L|272:152,2,70,0|0|0,2:0|2:0|2:0,2:0:0:0:
176,208,167984,2,0,L|104:256,2,70,0|0|0,2:0|2:0|2:0,2:0:0:0:
400,264,189897,6,0,L|256:184,1,140,0|0,2:0|2:0,2:0:0:0:
184,176,190941,6,0,P|192:128|272:104,1,140
383,160,191984,1,2,0:0:0:0:
288,240,192506,2,0,L|152:320,2,140,0|0|0,2:0|2:0|2:0,2:0:0:0:
290,103,194071,2,0,L|360:56,2,70,0|0|0,2:0|2:0|2:0,2:0:0:0:
184,176,195114,6,0,P|176:240|232:328,1,140,0|0,2:0|2:0,2:0:0:0:
80,328,196158,1,2,0:0:0:0:
40,208,196680,1,0,0:0:0:0:
144,128,197201,2,0,P|176:192|264:224,1,140
304,280,198245,6,0,P|319:193|272:136,1,140,0|0,2:0|2:0,2:0:0:0:
232,104,199028,1,0,0:0:0:0:
152,80,199288,6,0,P|240:16|272:24,2,140
128,160,200854,2,0,P|160:288|312:336,1,280,0|0,2:0|2:0,2:0:0:0:
368,256,202419,2,0,P|466:218|483:181,1,140
384,160,203462,2,0,P|286:198|269:235,1,140
192,184,204506,2,0,P|232:112|291:89,1,140
384,160,205549,1,0,0:0:0:0:
384,160,206593,6,0,L|328:80,1,70,0|0,2:0|2:0,2:0:0:0:
272,144,207114,2,0,L|312:208,1,70
280,280,207636,6,0,P|192:344|160:336,2,140
168,216,209201,1,0,0:0:0:0:
152,88,209723,2,0,L|40:192,1,140,0|0,2:0|2:0,2:0:0:0:
136,288,210767,6,0,L|216:224,1,70,0|0,2:0|2:0,2:0:0:0:
288,272,211288,2,0,L|224:336,1,70,0|0,2:0|2:0,2:0:0:0:
168,368,211810,6,0,P|60:351|43:322,2,140
216,256,213375,1,0,0:0:0:0:
232,128,213897,2,0,P|176:144|96:96,1,140
32,216,214941,2,0,L|0:288,1,70,0|0,2:0|2:0,2:0:0:0:
88,336,215462,2,0,L|128:248,1,70,0|0,2:0|2:0,2:0:0:0:
152,192,215984,6,0,P|240:128|272:136,2,140
208,304,217549,1,0,0:0:0:0:
328,280,218071,2,0,P|408:272|424:192,1,140
376,128,219114,2,0,P|288:112|224:112,1,140
112,136,220158,6,0,P|128:224|160:296,1,140
240,192,221201,2,0,P|248:80|288:56,1,140
384,80,222245,1,0,0:0:0:0:
328,192,222767,2,0,B|288:280|400:320|400:320|520:272|464:184,1,350
272,88,226419,6,0,P|187:91|130:148,1,140,0|0,2:0|2:0,2:0:0:0:
232,184,227462,2,0,P|208:240|112:256,1,140
40,184,228506,2,0,L|40:88,2,70
144,256,229549,2,0,L|96:320,2,70
160,152,230593,6,0,P|232:176|280:240,1,140
240,328,231636,2,0,P|312:320|368:256,1,140,0|0,2:0|2:0,2:0:0:0:
416,160,232680,2,0,P|400:72|344:32,1,140
296,144,233723,1,0,2:0:0:0:
56,208,234767,6,0,L|128:256,2,70,0|0|0,2:0|2:0|2:0,2:0:0:0:
136,128,235838,2,0,L|216:88,2,70,0|0|0,2:0|2:0|2:0,2:0:0:0:
224,216,236909,2,0,L|264:288,2,70
336,160,237974,6,0,L|400:120,2,70
232,136,239064,2,0,P|224:88|304:56,1,140
384,128,240217,1,0,0:0:0:0:
384,128,240939,2,0,P|392:176|360:192,1,70
320,248,241662,1,0,0:0:0:0:
248,208,241965,1,0,0:0:0:0:
256,160,242268,6,0,L|192:136,1,35,0|0,2:0|2:0,2:0:0:0:
184,120,242841,2,0,L|216:64,1,35,0|0,2:0|2:0,2:0:0:0:
232,64,243397,1,0,2:0:0:0:
264,64,243730,1,0,2:0:0:0:
288,72,244146,2,0,P|351:99|394:153,1,140
