osu file format v14

[General]
AudioFilename: audio.mp3
AudioLeadIn: 0
PreviewTime: 67478
Countdown: 0
SampleSet: Soft
StackLeniency: 0.7
Mode: 3
LetterboxInBreaks: 0
SpecialStyle: 0
WidescreenStoryboard: 1

[Editor]
DistanceSpacing: 0.8
BeatDivisor: 4
GridSize: 8
TimelineZoom: 1.5

[Metadata]
Title:Terpsichore
TitleUnicode:Terpsichore
Artist:Jun Kuroda
ArtistUnicode:Jun Kuroda
Creator:Madoka2574
Version:Stream Another
Source:
Tags:
BeatmapID:1828109
BeatmapSetID:873443

[Difficulty]
HPDrainRate:8
CircleSize:7
OverallDifficulty:9
ApproachRate:5
SliderMultiplier:1.4
SliderTickRate:1

[Events]
//Background and Video events
0,0,"Terpsichore.jpg",0,0
//Break Periods
//Storyboard Layer 0 (Background)
//Storyboard Layer 1 (Fail)
//Storyboard Layer 2 (Pass)
//Storyboard Layer 3 (Foreground)
//Storyboard Sound Samples

[TimingPoints]
19,324.324324324324,4,2,0,5,1,0
37640,-100,4,2,0,5,0,1
48018,-100,4,2,0,5,0,0
68775,-100,4,2,0,5,0,1
90829,-100,4,2,0,5,0,0
92127,-100,4,2,0,5,0,1
93424,-100,4,2,0,5,0,0
94721,-100,4,2,0,5,0,1
99910,-100,4,2,0,5,0,0
120667,-105.263157894737,4,2,0,5,0,0
121964,-111.111111111111,4,2,0,5,0,0
123262,-117.647058823529,4,2,0,5,0,0
124559,-125,4,2,0,5,0,0
125856,-117.647058823529,4,2,0,5,0,0
126505,-111.111111111111,4,2,0,5,0,0
127154,-105.263157894737,4,2,0,5,0,0
127802,-100,4,2,0,5,0,0
128451,-200,4,2,0,5,0,0
129424,-333.333333333333,4,2,0,5,0,0
129586,-500,4,2,0,5,0,0
129748,-100,4,2,0,5,0,0

[HitObjects]
36,192,1316,5,0,0:0:0:0:
475,192,1316,1,0,0:0:0:0:
109,192,1478,1,0,0:0:0:0:
182,192,1640,1,0,0:0:0:0:
256,192,1802,1,0,0:0:0:0:
329,192,1964,1,0,0:0:0:0:
475,192,1964,1,0,0:0:0:0:
256,192,2289,1,0,0:0:0:0:
402,192,2289,1,0,0:0:0:0:
182,192,2613,1,0,0:0:0:0:
36,192,2613,1,0,0:0:0:0:
256,192,2775,1,0,0:0:0:0:
329,192,2937,1,0,0:0:0:0:
402,192,3100,1,0,0:0:0:0:
475,192,3262,1,0,0:0:0:0:
182,192,3262,1,0,0:0:0:0:
402,192,3586,1,0,0:0:0:0:
109,192,3586,1,0,0:0:0:0:
329,192,3910,1,0,0:0:0:0:
36,192,3910,1,0,0:0:0:0:
109,192,4073,1,0,0:0:0:0:
182,192,4235,1,0,0:0:0:0:
402,192,4235,1,0,0:0:0:0:
256,192,4397,1,0,0:0:0:0:
475,192,4559,1,0,0:0:0:0:
329,192,4559,1,0,0:0:0:0:
182,192,4721,1,0,0:0:0:0:
402,192,4883,1,0,0:0:0:0:
256,192,5046,1,0,0:0:0:0:
109,192,5208,1,0,0:0:0:0:
475,192,5208,1,0,0:0:0:0:
36,192,5208,1,0,0:0:0:0:
182,192,5370,1,0,0:0:0:0:
256,192,5532,1,0,0:0:0:0:
329,192,5694,1,0,0:0:0:0:
402,192,5856,1,0,0:0:0:0:
36,192,5856,1,0,0:0:0:0:
256,192,6018,1,0,0:0:0:0:
475,192,6181,1,0,0:0:0:0:
109,192,6181,1,0,0:0:0:0:
329,192,6343,1,0,0:0:0:0:
182,192,6505,1,0,0:0:0:0:
36,192,6505,1,0,0:0:0:0:
402,192,6667,1,0,0:0:0:0:
256,192,6829,1,0,0:0:0:0:
402,192,6991,1,0,0:0:0:0:
475,192,7154,1,0,0:0:0:0:
329,192,7154,1,0,0:0:0:0:
36,192,7316,1,0,0:0:0:0:
329,192,7478,1,0,0:0:0:0:
182,192,7478,1,0,0:0:0:0:
36,192,7640,1,0,0:0:0:0:
256,192,7802,1,0,0:0:0:0:
475,192,7802,1,0,0:0:0:0:
109,192,7964,1,0,0:0:0:0:
402,192,8127,1,0,0:0:0:0:
329,192,8127,1,0,0:0:0:0:
109,192,8289,1,0,0:0:0:0:
256,192,8451,1,0,0:0:0:0:
36,192,8451,1,0,0:0:0:0:
475,192,8613,1,0,0:0:0:0:
329,192,8775,1,0,0:0:0:0:
109,192,8775,1,0,0:0:0:0:
475,192,8937,1,0,0:0:0:0:
36,192,9100,1,0,0:0:0:0:
256,192,9100,1,0,0:0:0:0:
109,192,9262,1,0,0:0:0:0:
329,192,9262,1,0,0:0:0:0:
182,192,9424,1,0,0:0:0:0:
402,192,9424,1,0,0:0:0:0:
256,192,9586,1,0,0:0:0:0:
475,192,9586,1,0,0:0:0:0:
329,192,9748,1,0,0:0:0:0:
36,192,9748,1,0,0:0:0:0:
182,192,9910,1,0,0:0:0:0:
402,192,10073,1,0,0:0:0:0:
256,192,10073,1,0,0:0:0:0:
109,192,10235,1,0,0:0:0:0:
182,192,10397,1,0,0:0:0:0:
475,192,10397,1,0,0:0:0:0:
36,192,10397,1,0,0:0:0:0:
402,192,10559,1,0,0:0:0:0:
256,192,10721,1,0,0:0:0:0:
109,192,10721,1,0,0:0:0:0:
36,192,10721,1,0,0:0:0:0:
329,192,10883,1,0,0:0:0:0:
182,192,11046,1,0,0:0:0:0:
402,192,11046,1,0,0:0:0:0:
475,192,11046,1,0,0:0:0:0:
329,192,11208,1,0,0:0:0:0:
36,192,11370,1,0,0:0:0:0:
475,192,11370,1,0,0:0:0:0:
109,192,11370,1,0,0:0:0:0:
256,192,11370,1,0,0:0:0:0:
182,192,11532,1,0,0:0:0:0:
329,192,11532,1,0,0:0:0:0:
36,192,11694,1,0,0:0:0:0:
402,192,11694,1,0,0:0:0:0:
475,192,11694,1,0,0:0:0:0:
109,192,11694,1,0,0:0:0:0:
256,192,11694,1,0,0:0:0:0:
182,192,11856,1,0,0:0:0:0:
402,192,11856,1,0,0:0:0:0:
109,192,12018,1,0,0:0:0:0:
329,192,12018,1,0,0:0:0:0:
256,192,12181,1,0,0:0:0:0:
36,192,12181,1,0,0:0:0:0:
182,192,12262,1,0,0:0:0:0:
475,192,12343,1,0,0:0:0:0:
109,192,12343,1,0,0:0:0:0:
402,192,12383,1,0,0:0:0:0:
329,192,12424,1,0,0:0:0:0:
256,192,12464,1,0,0:0:0:0:
36,192,12505,1,0,0:0:0:0:
109,192,12546,1,0,0:0:0:0:
182,192,12586,1,0,0:0:0:0:
256,192,12627,1,0,0:0:0:0:
329,192,12667,1,0,0:0:0:0:
475,192,12667,1,0,0:0:0:0:
182,192,12829,1,0,0:0:0:0:
402,192,12829,1,0,0:0:0:0:
109,192,12910,1,0,0:0:0:0:
36,192,12991,1,0,0:0:0:0:
256,192,12991,1,0,0:0:0:0:
329,192,13032,1,0,0:0:0:0:
402,192,13073,1,0,0:0:0:0:
475,192,13113,1,0,0:0:0:0:
109,192,13154,1,0,0:0:0:0:
182,192,13154,1,0,0:0:0:0:
475,192,13316,1,0,0:0:0:0:
402,192,13316,1,0,0:0:0:0:
36,192,13316,1,0,0:0:0:0:
182,192,13316,1,0,0:0:0:0:
402,192,13397,1,0,0:0:0:0:
475,192,13397,1,0,0:0:0:0:
109,192,13478,1,0,0:0:0:0:
256,192,13478,1,0,0:0:0:0:
402,192,13559,1,0,0:0:0:0:
475,192,13559,1,0,0:0:0:0:
329,192,13640,1,0,0:0:0:0:
36,192,13640,1,0,0:0:0:0:
109,192,13694,1,0,0:0:0:0:
182,192,13748,1,0,0:0:0:0:
256,192,13802,1,0,0:0:0:0:
402,192,13802,1,0,0:0:0:0:
475,192,13964,1,0,0:0:0:0:
36,192,13964,1,0,0:0:0:0:
402,192,14005,1,0,0:0:0:0:
329,192,14046,1,0,0:0:0:0:
256,192,14086,1,0,0:0:0:0:
182,192,14127,1,0,0:0:0:0:
109,192,14127,1,0,0:0:0:0:
475,192,14208,1,0,0:0:0:0:
36,192,14289,1,0,0:0:0:0:
329,192,14289,1,0,0:0:0:0:
402,192,14451,1,0,0:0:0:0:
109,192,14451,1,0,0:0:0:0:
182,192,14613,1,0,0:0:0:0:
475,192,14613,1,0,0:0:0:0:
36,192,14775,1,0,0:0:0:0:
329,192,14775,1,0,0:0:0:0:
402,192,14856,1,0,0:0:0:0:
109,192,14937,1,0,0:0:0:0:
475,192,14937,1,0,0:0:0:0:
182,192,14978,1,0,0:0:0:0:
256,192,15018,1,0,0:0:0:0:
329,192,15059,1,0,0:0:0:0:
402,192,15100,1,0,0:0:0:0:
36,192,15100,1,0,0:0:0:0:
109,192,15140,1,0,0:0:0:0:
182,192,15181,1,0,0:0:0:0:
256,192,15221,1,0,0:0:0:0:
329,192,15262,1,0,0:0:0:0:
475,192,15262,1,0,0:0:0:0:
36,192,15424,1,0,0:0:0:0:
402,192,15424,1,0,0:0:0:0:
329,192,15505,1,0,0:0:0:0:
256,192,15586,1,0,0:0:0:0:
475,192,15586,1,0,0:0:0:0:
182,192,15627,1,0,0:0:0:0:
109,192,15667,1,0,0:0:0:0:
36,192,15708,1,0,0:0:0:0:
329,192,15748,1,0,0:0:0:0:
402,192,15748,1,0,0:0:0:0:
109,192,15910,1,0,0:0:0:0:
36,192,15910,1,0,0:0:0:0:
475,192,15910,1,0,0:0:0:0:
329,192,15910,1,0,0:0:0:0:
109,192,15991,1,0,0:0:0:0:
36,192,15991,1,0,0:0:0:0:
256,192,16073,1,0,0:0:0:0:
402,192,16073,1,0,0:0:0:0:
109,192,16154,1,0,0:0:0:0:
36,192,16154,1,0,0:0:0:0:
475,192,16235,1,0,0:0:0:0:
182,192,16235,1,0,0:0:0:0:
402,192,16289,1,0,0:0:0:0:
329,192,16343,1,0,0:0:0:0:
256,192,16397,1,0,0:0:0:0:
36,192,16397,1,0,0:0:0:0:
109,192,16437,1,0,0:0:0:0:
182,192,16478,1,0,0:0:0:0:
256,192,16518,1,0,0:0:0:0:
475,192,16559,1,0,0:0:0:0:
329,192,16559,1,0,0:0:0:0:
402,192,16721,1,0,0:0:0:0:
36,192,16721,1,0,0:0:0:0:
329,192,16762,1,0,0:0:0:0:
256,192,16802,1,0,0:0:0:0:
182,192,16843,1,0,0:0:0:0:
109,192,16883,1,0,0:0:0:0:
475,192,16883,1,0,0:0:0:0:
402,192,17046,1,0,0:0:0:0:
182,192,17046,1,0,0:0:0:0:
109,192,17208,1,0,0:0:0:0:
329,192,17208,1,0,0:0:0:0:
36,192,17370,1,0,0:0:0:0:
475,192,17370,1,0,0:0:0:0:
182,192,17451,1,0,0:0:0:0:
329,192,17532,1,0,0:0:0:0:
402,192,17532,1,0,0:0:0:0:
256,192,17573,1,0,0:0:0:0:
182,192,17613,1,0,0:0:0:0:
109,192,17654,1,0,0:0:0:0:
36,192,17694,1,0,0:0:0:0:
475,192,17694,1,0,0:0:0:0:
402,192,17735,1,0,0:0:0:0:
329,192,17775,1,0,0:0:0:0:
256,192,17816,1,0,0:0:0:0:
182,192,17856,1,0,0:0:0:0:
36,192,17856,1,0,0:0:0:0:
109,192,18018,1,0,0:0:0:0:
329,192,18018,1,0,0:0:0:0:
402,192,18100,1,0,0:0:0:0:
475,192,18181,1,0,0:0:0:0:
36,192,18181,1,0,0:0:0:0:
109,192,18221,1,0,0:0:0:0:
182,192,18262,1,0,0:0:0:0:
256,192,18302,1,0,0:0:0:0:
329,192,18343,1,0,0:0:0:0:
402,192,18343,1,0,0:0:0:0:
182,192,18505,1,0,0:0:0:0:
36,192,18505,1,0,0:0:0:0:
475,192,18505,1,0,0:0:0:0:
402,192,18505,1,0,0:0:0:0:
36,192,18586,1,0,0:0:0:0:
182,192,18586,1,0,0:0:0:0:
475,192,18667,1,0,0:0:0:0:
329,192,18667,1,0,0:0:0:0:
36,192,18748,1,0,0:0:0:0:
182,192,18748,1,0,0:0:0:0:
256,192,18829,1,0,0:0:0:0:
109,192,18829,1,0,0:0:0:0:
329,192,18883,1,0,0:0:0:0:
402,192,18937,1,0,0:0:0:0:
475,192,18991,1,0,0:0:0:0:
182,192,18991,1,0,0:0:0:0:
329,192,19154,1,0,0:0:0:0:
475,192,19154,1,0,0:0:0:0:
256,192,19194,1,0,0:0:0:0:
182,192,19235,1,0,0:0:0:0:
109,192,19275,1,0,0:0:0:0:
36,192,19316,1,0,0:0:0:0:
402,192,19316,1,0,0:0:0:0:
329,192,19397,1,0,0:0:0:0:
256,192,19478,1,0,0:0:0:0:
475,192,19478,1,0,0:0:0:0:
36,192,19478,1,0,0:0:0:0:
329,192,19640,1,0,0:0:0:0:
109,192,19640,1,0,0:0:0:0:
182,192,19802,1,0,0:0:0:0:
402,192,19802,1,0,0:0:0:0:
109,192,19964,1,0,0:0:0:0:
329,192,19964,1,0,0:0:0:0:
402,192,20046,1,0,0:0:0:0:
36,192,20127,1,0,0:0:0:0:
475,192,20127,1,0,0:0:0:0:
109,192,20167,1,0,0:0:0:0:
182,192,20208,1,0,0:0:0:0:
256,192,20248,1,0,0:0:0:0:
475,192,20289,1,0,0:0:0:0:
402,192,20329,1,0,0:0:0:0:
329,192,20370,1,0,0:0:0:0:
256,192,20410,1,0,0:0:0:0:
182,192,20451,1,0,0:0:0:0:
36,192,20451,1,0,0:0:0:0:
475,192,20613,1,0,0:0:0:0:
402,192,20613,1,0,0:0:0:0:
256,192,20694,1,0,0:0:0:0:
109,192,20775,1,0,0:0:0:0:
36,192,20775,1,0,0:0:0:0:
182,192,20816,1,0,0:0:0:0:
256,192,20856,1,0,0:0:0:0:
329,192,20897,1,0,0:0:0:0:
402,192,20937,1,0,0:0:0:0:
475,192,20937,1,0,0:0:0:0:
329,192,21100,1,0,0:0:0:0:
475,192,21100,1,0,0:0:0:0:
36,192,21100,1,0,0:0:0:0:
182,192,21100,1,0,0:0:0:0:
329,192,21181,1,0,0:0:0:0:
475,192,21181,1,0,0:0:0:0:
109,192,21262,1,0,0:0:0:0:
256,192,21262,1,0,0:0:0:0:
329,192,21343,1,0,0:0:0:0:
475,192,21343,1,0,0:0:0:0:
182,192,21424,1,0,0:0:0:0:
36,192,21424,1,0,0:0:0:0:
256,192,21478,1,0,0:0:0:0:
329,192,21532,1,0,0:0:0:0:
402,192,21586,1,0,0:0:0:0:
109,192,21586,1,0,0:0:0:0:
182,192,21640,1,0,0:0:0:0:
256,192,21694,1,0,0:0:0:0:
329,192,21748,1,0,0:0:0:0:
475,192,21748,1,0,0:0:0:0:
402,192,21910,1,0,0:0:0:0:
36,192,21910,1,0,0:0:0:0:
329,192,21951,1,0,0:0:0:0:
256,192,21991,1,0,0:0:0:0:
182,192,22032,1,0,0:0:0:0:
475,192,22073,1,0,0:0:0:0:
36,192,22073,1,0,0:0:0:0:
109,192,22073,1,0,0:0:0:0:
256,192,22235,1,0,0:0:0:0:
475,192,22397,1,0,0:0:0:0:
329,192,22397,1,0,0:0:0:0:
109,192,22559,1,0,0:0:0:0:
36,192,22559,1,0,0:0:0:0:
256,192,22721,1,0,0:0:0:0:
402,192,22883,1,0,0:0:0:0:
475,192,22883,1,0,0:0:0:0:
36,192,23046,1,0,0:0:0:0:
256,192,23046,1,0,0:0:0:0:
182,192,23289,1,0,0:0:0:0:
329,192,23329,1,0,0:0:0:0:
475,192,23370,128,0,24667:0:0:0:0:
256,192,23856,1,0,0:0:0:0:
182,192,23910,1,0,0:0:0:0:
109,192,23964,1,0,0:0:0:0:
36,192,24018,128,0,24667:0:0:0:0:
109,192,24667,1,0,0:0:0:0:
182,192,24667,1,0,0:0:0:0:
329,192,24667,1,0,0:0:0:0:
402,192,24667,1,0,0:0:0:0:
329,192,25964,1,0,0:0:0:0:
182,192,25964,1,0,0:0:0:0:
475,192,26005,1,0,0:0:0:0:
36,192,26613,1,0,0:0:0:0:
329,192,26613,1,0,0:0:0:0:
182,192,26654,1,0,0:0:0:0:
36,192,27262,1,0,0:0:0:0:
109,192,27262,1,0,0:0:0:0:
256,192,27262,1,0,0:0:0:0:
402,192,27262,1,0,0:0:0:0:
475,192,27262,1,0,0:0:0:0:
182,192,27343,1,0,0:0:0:0:
109,192,27424,1,0,0:0:0:0:
329,192,27424,1,0,0:0:0:0:
402,192,27505,1,0,0:0:0:0:
182,192,27505,1,0,0:0:0:0:
475,192,27586,1,0,0:0:0:0:
256,192,27586,1,0,0:0:0:0:
36,192,27586,1,0,0:0:0:0:
109,192,27667,1,0,0:0:0:0:
182,192,27748,1,0,0:0:0:0:
402,192,27748,1,0,0:0:0:0:
109,192,27829,1,0,0:0:0:0:
329,192,27829,1,0,0:0:0:0:
36,192,27910,1,0,0:0:0:0:
475,192,27910,1,0,0:0:0:0:
256,192,27910,1,0,0:0:0:0:
329,192,27991,1,0,0:0:0:0:
182,192,28073,1,0,0:0:0:0:
402,192,28073,1,0,0:0:0:0:
329,192,28154,1,0,0:0:0:0:
109,192,28154,1,0,0:0:0:0:
475,192,28235,1,0,0:0:0:0:
256,192,28235,1,0,0:0:0:0:
36,192,28235,1,0,0:0:0:0:
402,192,28316,1,0,0:0:0:0:
329,192,28397,1,0,0:0:0:0:
109,192,28397,1,0,0:0:0:0:
182,192,28478,1,0,0:0:0:0:
402,192,28478,1,0,0:0:0:0:
475,192,28559,1,0,0:0:0:0:
36,192,28559,1,0,0:0:0:0:
256,192,28559,1,0,0:0:0:0:
109,192,28640,1,0,0:0:0:0:
475,192,28721,1,0,0:0:0:0:
182,192,28721,1,0,0:0:0:0:
402,192,28802,1,0,0:0:0:0:
256,192,28802,1,0,0:0:0:0:
109,192,28883,1,0,0:0:0:0:
36,192,28883,1,0,0:0:0:0:
329,192,28883,1,0,0:0:0:0:
256,192,28964,1,0,0:0:0:0:
182,192,29046,1,0,0:0:0:0:
402,192,29046,1,0,0:0:0:0:
329,192,29127,1,0,0:0:0:0:
109,192,29127,1,0,0:0:0:0:
256,192,29208,1,0,0:0:0:0:
475,192,29208,1,0,0:0:0:0:
36,192,29208,1,0,0:0:0:0:
402,192,29289,1,0,0:0:0:0:
329,192,29370,1,0,0:0:0:0:
36,192,29370,1,0,0:0:0:0:
109,192,29451,1,0,0:0:0:0:
256,192,29451,1,0,0:0:0:0:
475,192,29532,1,0,0:0:0:0:
182,192,29532,1,0,0:0:0:0:
402,192,29532,1,0,0:0:0:0:
256,192,29613,1,0,0:0:0:0:
109,192,29694,1,0,0:0:0:0:
329,192,29694,1,0,0:0:0:0:
402,192,29775,1,0,0:0:0:0:
182,192,29775,1,0,0:0:0:0:
256,192,29856,1,0,0:0:0:0:
475,192,29856,1,0,0:0:0:0:
36,192,29856,1,0,0:0:0:0:
329,192,29937,1,0,0:0:0:0:
402,192,30018,1,0,0:0:0:0:
182,192,30018,1,0,0:0:0:0:
109,192,30100,1,0,0:0:0:0:
256,192,30100,1,0,0:0:0:0:
329,192,30181,1,0,0:0:0:0:
36,192,30181,1,0,0:0:0:0:
475,192,30181,1,0,0:0:0:0:
256,192,30262,1,0,0:0:0:0:
402,192,30343,1,0,0:0:0:0:
182,192,30343,1,0,0:0:0:0:
329,192,30424,1,0,0:0:0:0:
109,192,30424,1,0,0:0:0:0:
475,192,30505,1,0,0:0:0:0:
36,192,30505,1,0,0:0:0:0:
256,192,30505,1,0,0:0:0:0:
182,192,30586,1,0,0:0:0:0:
329,192,30667,1,0,0:0:0:0:
109,192,30667,1,0,0:0:0:0:
256,192,30748,1,0,0:0:0:0:
402,192,30748,1,0,0:0:0:0:
36,192,30829,1,0,0:0:0:0:
475,192,30829,1,0,0:0:0:0:
182,192,30829,1,0,0:0:0:0:
256,192,30910,1,0,0:0:0:0:
109,192,30991,1,0,0:0:0:0:
329,192,30991,1,0,0:0:0:0:
402,192,31073,1,0,0:0:0:0:
182,192,31073,1,0,0:0:0:0:
36,192,31154,1,0,0:0:0:0:
475,192,31154,1,0,0:0:0:0:
256,192,31154,1,0,0:0:0:0:
402,192,31235,1,0,0:0:0:0:
109,192,31235,1,0,0:0:0:0:
329,192,31316,1,0,0:0:0:0:
182,192,31316,1,0,0:0:0:0:
256,192,31397,1,0,0:0:0:0:
36,192,31397,1,0,0:0:0:0:
109,192,31478,1,0,0:0:0:0:
475,192,31478,1,0,0:0:0:0:
329,192,31478,1,0,0:0:0:0:
402,192,31559,1,0,0:0:0:0:
182,192,31559,1,0,0:0:0:0:
109,192,31640,1,0,0:0:0:0:
329,192,31640,1,0,0:0:0:0:
402,192,31721,1,0,0:0:0:0:
182,192,31721,1,0,0:0:0:0:
256,192,31802,1,0,0:0:0:0:
475,192,31802,1,0,0:0:0:0:
36,192,31802,1,0,0:0:0:0:
109,192,31883,1,0,0:0:0:0:
329,192,31883,1,0,0:0:0:0:
182,192,31964,1,0,0:0:0:0:
402,192,31964,1,0,0:0:0:0:
256,192,32046,1,0,0:0:0:0:
475,192,32046,1,0,0:0:0:0:
109,192,32127,1,0,0:0:0:0:
36,192,32127,1,0,0:0:0:0:
329,192,32127,1,0,0:0:0:0:
182,192,32208,1,0,0:0:0:0:
475,192,32208,1,0,0:0:0:0:
109,192,32289,1,0,0:0:0:0:
402,192,32289,1,0,0:0:0:0:
329,192,32370,1,0,0:0:0:0:
36,192,32451,1,0,0:0:0:0:
256,192,32451,1,0,0:0:0:0:
475,192,32451,1,0,0:0:0:0:
182,192,32532,1,0,0:0:0:0:
109,192,32613,1,0,0:0:0:0:
402,192,32613,1,0,0:0:0:0:
329,192,32694,1,0,0:0:0:0:
182,192,32694,1,0,0:0:0:0:
475,192,32775,1,0,0:0:0:0:
256,192,32775,1,0,0:0:0:0:
36,192,32775,1,0,0:0:0:0:
109,192,32856,1,0,0:0:0:0:
182,192,32937,1,0,0:0:0:0:
402,192,32937,1,0,0:0:0:0:
109,192,33018,1,0,0:0:0:0:
329,192,33018,1,0,0:0:0:0:
36,192,33100,1,0,0:0:0:0:
475,192,33100,1,0,0:0:0:0:
256,192,33100,1,0,0:0:0:0:
329,192,33181,1,0,0:0:0:0:
109,192,33262,1,0,0:0:0:0:
402,192,33262,1,0,0:0:0:0:
329,192,33343,1,0,0:0:0:0:
182,192,33343,1,0,0:0:0:0:
475,192,33424,1,0,0:0:0:0:
256,192,33424,1,0,0:0:0:0:
36,192,33424,1,0,0:0:0:0:
402,192,33505,1,0,0:0:0:0:
329,192,33586,1,0,0:0:0:0:
109,192,33586,1,0,0:0:0:0:
182,192,33667,1,0,0:0:0:0:
402,192,33667,1,0,0:0:0:0:
475,192,33748,1,0,0:0:0:0:
36,192,33748,1,0,0:0:0:0:
256,192,33748,1,0,0:0:0:0:
109,192,33829,1,0,0:0:0:0:
329,192,33910,1,0,0:0:0:0:
182,192,33910,1,0,0:0:0:0:
402,192,33991,1,0,0:0:0:0:
256,192,33991,1,0,0:0:0:0:
475,192,34073,1,0,0:0:0:0:
36,192,34073,1,0,0:0:0:0:
329,192,34073,1,0,0:0:0:0:
109,192,34154,1,0,0:0:0:0:
182,192,34235,1,0,0:0:0:0:
402,192,34235,1,0,0:0:0:0:
329,192,34316,1,0,0:0:0:0:
109,192,34316,1,0,0:0:0:0:
256,192,34397,1,0,0:0:0:0:
475,192,34397,1,0,0:0:0:0:
36,192,34397,1,0,0:0:0:0:
402,192,34478,1,0,0:0:0:0:
329,192,34559,1,0,0:0:0:0:
182,192,34559,1,0,0:0:0:0:
109,192,34640,1,0,0:0:0:0:
256,192,34640,1,0,0:0:0:0:
475,192,34721,1,0,0:0:0:0:
182,192,34721,1,0,0:0:0:0:
36,192,34721,1,0,0:0:0:0:
402,192,34802,1,0,0:0:0:0:
109,192,34883,1,0,0:0:0:0:
329,192,34883,1,0,0:0:0:0:
402,192,34964,1,0,0:0:0:0:
182,192,34964,1,0,0:0:0:0:
256,192,35046,1,0,0:0:0:0:
475,192,35046,1,0,0:0:0:0:
36,192,35046,1,0,0:0:0:0:
182,192,35127,1,0,0:0:0:0:
109,192,35208,1,0,0:0:0:0:
329,192,35208,1,0,0:0:0:0:
402,192,35289,1,0,0:0:0:0:
256,192,35289,1,0,0:0:0:0:
182,192,35370,1,0,0:0:0:0:
475,192,35370,1,0,0:0:0:0:
36,192,35370,1,0,0:0:0:0:
256,192,35451,1,0,0:0:0:0:
109,192,35532,1,0,0:0:0:0:
329,192,35532,1,0,0:0:0:0:
182,192,35613,1,0,0:0:0:0:
402,192,35613,1,0,0:0:0:0:
36,192,35694,1,0,0:0:0:0:
475,192,35694,1,0,0:0:0:0:
256,192,35694,1,0,0:0:0:0:
329,192,35775,1,0,0:0:0:0:
182,192,35856,1,0,0:0:0:0:
402,192,35856,1,0,0:0:0:0:
256,192,35937,1,0,0:0:0:0:
109,192,35937,1,0,0:0:0:0:
475,192,36018,1,0,0:0:0:0:
36,192,36018,1,0,0:0:0:0:
329,192,36018,1,0,0:0:0:0:
256,192,36100,1,0,0:0:0:0:
402,192,36181,1,0,0:0:0:0:
182,192,36181,1,0,0:0:0:0:
109,192,36262,1,0,0:0:0:0:
329,192,36262,1,0,0:0:0:0:
182,192,36343,1,0,0:0:0:0:
475,192,36343,1,0,0:0:0:0:
402,192,36343,1,0,0:0:0:0:
36,192,36343,1,0,0:0:0:0:
256,192,36505,1,0,0:0:0:0:
402,192,36505,1,0,0:0:0:0:
109,192,36505,1,0,0:0:0:0:
475,192,36505,1,0,0:0:0:0:
182,192,36667,1,0,0:0:0:0:
475,192,36667,1,0,0:0:0:0:
329,192,36667,1,0,0:0:0:0:
36,192,36667,1,0,0:0:0:0:
109,192,36829,1,0,0:0:0:0:
329,192,36829,1,0,0:0:0:0:
475,192,36829,1,0,0:0:0:0:
36,192,36829,1,0,0:0:0:0:
36,192,36991,1,0,0:0:0:0:
109,192,36991,1,0,0:0:0:0:
256,192,36991,1,0,0:0:0:0:
402,192,36991,1,0,0:0:0:0:
402,192,37154,1,0,0:0:0:0:
475,192,37154,1,0,0:0:0:0:
36,192,37154,1,0,0:0:0:0:
329,192,37154,1,0,0:0:0:0:
109,192,37194,1,0,0:0:0:0:
182,192,37235,1,0,0:0:0:0:
256,192,37275,1,0,0:0:0:0:
329,192,37316,1,0,0:0:0:0:
475,192,37316,1,0,0:0:0:0:
402,192,37316,1,0,0:0:0:0:
36,192,37316,1,0,0:0:0:0:
182,192,37397,1,0,0:0:0:0:
256,192,37397,1,0,0:0:0:0:
36,192,37478,1,0,0:0:0:0:
109,192,37478,1,0,0:0:0:0:
475,192,37478,1,0,0:0:0:0:
402,192,37478,1,0,0:0:0:0:
329,192,37559,1,0,0:0:0:0:
256,192,37559,1,0,0:0:0:0:
182,192,37640,1,0,0:0:0:0:
109,192,37640,1,0,0:0:0:0:
36,192,37640,1,0,0:0:0:0:
475,192,37640,1,0,0:0:0:0:
402,192,37640,1,0,0:0:0:0:
329,192,37721,1,0,0:0:0:0:
256,192,37802,1,0,0:0:0:0:
109,192,37802,1,0,0:0:0:0:
182,192,37883,1,0,0:0:0:0:
402,192,37883,1,0,0:0:0:0:
36,192,37964,1,0,0:0:0:0:
475,192,37964,1,0,0:0:0:0:
329,192,37964,1,0,0:0:0:0:
109,192,38046,1,0,0:0:0:0:
256,192,38046,1,0,0:0:0:0:
402,192,38127,1,0,0:0:0:0:
182,192,38127,1,0,0:0:0:0:
329,192,38208,1,0,0:0:0:0:
475,192,38289,1,0,0:0:0:0:
182,192,38289,1,0,0:0:0:0:
36,192,38289,1,0,0:0:0:0:
402,192,38329,1,0,0:0:0:0:
329,192,38370,1,0,0:0:0:0:
109,192,38370,1,0,0:0:0:0:
256,192,38410,1,0,0:0:0:0:
475,192,38451,1,0,0:0:0:0:
182,192,38451,1,0,0:0:0:0:
402,192,38491,1,0,0:0:0:0:
329,192,38532,1,0,0:0:0:0:
109,192,38532,1,0,0:0:0:0:
256,192,38573,1,0,0:0:0:0:
182,192,38613,1,0,0:0:0:0:
36,192,38613,1,0,0:0:0:0:
475,192,38613,1,0,0:0:0:0:
402,192,38694,1,0,0:0:0:0:
329,192,38775,1,0,0:0:0:0:
109,192,38775,1,0,0:0:0:0:
256,192,38856,1,0,0:0:0:0:
36,192,38937,1,0,0:0:0:0:
109,192,38937,1,0,0:0:0:0:
402,192,38937,1,0,0:0:0:0:
182,192,38978,1,0,0:0:0:0:
256,192,39018,1,0,0:0:0:0:
475,192,39018,1,0,0:0:0:0:
329,192,39059,1,0,0:0:0:0:
402,192,39100,1,0,0:0:0:0:
109,192,39100,1,0,0:0:0:0:
182,192,39181,1,0,0:0:0:0:
475,192,39262,1,0,0:0:0:0:
36,192,39262,1,0,0:0:0:0:
256,192,39262,1,0,0:0:0:0:
109,192,39343,1,0,0:0:0:0:
329,192,39343,1,0,0:0:0:0:
402,192,39424,1,0,0:0:0:0:
182,192,39505,1,0,0:0:0:0:
475,192,39505,1,0,0:0:0:0:
256,192,39586,1,0,0:0:0:0:
36,192,39586,1,0,0:0:0:0:
329,192,39640,1,0,0:0:0:0:
109,192,39667,1,0,0:0:0:0:
402,192,39694,1,0,0:0:0:0:
475,192,39748,1,0,0:0:0:0:
182,192,39748,1,0,0:0:0:0:
256,192,39829,1,0,0:0:0:0:
36,192,39910,1,0,0:0:0:0:
329,192,39910,1,0,0:0:0:0:
475,192,39910,1,0,0:0:0:0:
109,192,39951,1,0,0:0:0:0:
182,192,39991,1,0,0:0:0:0:
402,192,39991,1,0,0:0:0:0:
256,192,40032,1,0,0:0:0:0:
36,192,40073,1,0,0:0:0:0:
329,192,40073,1,0,0:0:0:0:
109,192,40154,1,0,0:0:0:0:
475,192,40235,1,0,0:0:0:0:
402,192,40235,1,0,0:0:0:0:
182,192,40235,1,0,0:0:0:0:
256,192,40316,1,0,0:0:0:0:
36,192,40316,1,0,0:0:0:0:
329,192,40397,1,0,0:0:0:0:
109,192,40397,1,0,0:0:0:0:
402,192,40478,1,0,0:0:0:0:
182,192,40478,1,0,0:0:0:0:
36,192,40559,1,0,0:0:0:0:
475,192,40559,1,0,0:0:0:0:
256,192,40559,1,0,0:0:0:0:
109,192,40640,1,0,0:0:0:0:
329,192,40640,1,0,0:0:0:0:
182,192,40721,1,0,0:0:0:0:
402,192,40721,1,0,0:0:0:0:
109,192,40802,1,0,0:0:0:0:
329,192,40883,1,0,0:0:0:0:
36,192,40883,1,0,0:0:0:0:
475,192,40883,1,0,0:0:0:0:
256,192,40924,1,0,0:0:0:0:
182,192,40964,1,0,0:0:0:0:
402,192,40964,1,0,0:0:0:0:
109,192,41005,1,0,0:0:0:0:
36,192,41046,1,0,0:0:0:0:
329,192,41046,1,0,0:0:0:0:
256,192,41086,1,0,0:0:0:0:
182,192,41127,1,0,0:0:0:0:
402,192,41127,1,0,0:0:0:0:
109,192,41167,1,0,0:0:0:0:
36,192,41208,1,0,0:0:0:0:
475,192,41208,1,0,0:0:0:0:
182,192,41289,1,0,0:0:0:0:
256,192,41370,1,0,0:0:0:0:
402,192,41370,1,0,0:0:0:0:
36,192,41451,1,0,0:0:0:0:
329,192,41451,1,0,0:0:0:0:
109,192,41532,1,0,0:0:0:0:
182,192,41532,1,0,0:0:0:0:
475,192,41532,1,0,0:0:0:0:
402,192,41613,1,0,0:0:0:0:
256,192,41613,1,0,0:0:0:0:
329,192,41694,1,0,0:0:0:0:
109,192,41694,1,0,0:0:0:0:
182,192,41775,1,0,0:0:0:0:
402,192,41775,1,0,0:0:0:0:
36,192,41856,1,0,0:0:0:0:
475,192,41856,1,0,0:0:0:0:
256,192,41856,1,0,0:0:0:0:
109,192,41937,1,0,0:0:0:0:
329,192,41937,1,0,0:0:0:0:
256,192,42018,1,0,0:0:0:0:
475,192,42100,1,0,0:0:0:0:
182,192,42100,1,0,0:0:0:0:
36,192,42181,1,0,0:0:0:0:
402,192,42181,1,0,0:0:0:0:
109,192,42235,1,0,0:0:0:0:
329,192,42262,1,0,0:0:0:0:
182,192,42289,1,0,0:0:0:0:
256,192,42343,1,0,0:0:0:0:
475,192,42343,1,0,0:0:0:0:
36,192,42343,1,0,0:0:0:0:
402,192,42383,1,0,0:0:0:0:
329,192,42424,1,0,0:0:0:0:
109,192,42424,1,0,0:0:0:0:
256,192,42464,1,0,0:0:0:0:
402,192,42505,1,0,0:0:0:0:
475,192,42505,1,0,0:0:0:0:
182,192,42505,1,0,0:0:0:0:
329,192,42586,1,0,0:0:0:0:
36,192,42667,1,0,0:0:0:0:
256,192,42667,1,0,0:0:0:0:
109,192,42708,1,0,0:0:0:0:
182,192,42748,1,0,0:0:0:0:
256,192,42789,1,0,0:0:0:0:
475,192,42829,1,0,0:0:0:0:
402,192,42829,1,0,0:0:0:0:
36,192,42829,1,0,0:0:0:0:
329,192,42910,1,0,0:0:0:0:
109,192,42910,1,0,0:0:0:0:
182,192,42991,1,0,0:0:0:0:
402,192,42991,1,0,0:0:0:0:
256,192,43073,1,0,0:0:0:0:
109,192,43073,1,0,0:0:0:0:
475,192,43154,1,0,0:0:0:0:
329,192,43154,1,0,0:0:0:0:
36,192,43154,1,0,0:0:0:0:
109,192,43235,1,0,0:0:0:0:
256,192,43235,1,0,0:0:0:0:
182,192,43316,1,0,0:0:0:0:
402,192,43316,1,0,0:0:0:0:
256,192,43397,1,0,0:0:0:0:
36,192,43478,1,0,0:0:0:0:
329,192,43478,1,0,0:0:0:0:
475,192,43478,1,0,0:0:0:0:
109,192,43518,1,0,0:0:0:0:
182,192,43559,1,0,0:0:0:0:
402,192,43559,1,0,0:0:0:0:
256,192,43600,1,0,0:0:0:0:
36,192,43640,1,0,0:0:0:0:
329,192,43640,1,0,0:0:0:0:
109,192,43681,1,0,0:0:0:0:
182,192,43721,1,0,0:0:0:0:
402,192,43721,1,0,0:0:0:0:
256,192,43762,1,0,0:0:0:0:
329,192,43802,1,0,0:0:0:0:
475,192,43802,1,0,0:0:0:0:
36,192,43802,1,0,0:0:0:0:
109,192,43883,1,0,0:0:0:0:
182,192,43964,1,0,0:0:0:0:
402,192,43964,1,0,0:0:0:0:
256,192,44046,1,0,0:0:0:0:
475,192,44127,1,0,0:0:0:0:
402,192,44127,1,0,0:0:0:0:
109,192,44127,1,0,0:0:0:0:
329,192,44167,1,0,0:0:0:0:
256,192,44208,1,0,0:0:0:0:
36,192,44208,1,0,0:0:0:0:
182,192,44248,1,0,0:0:0:0:
109,192,44289,1,0,0:0:0:0:
402,192,44289,1,0,0:0:0:0:
329,192,44370,1,0,0:0:0:0:
36,192,44451,1,0,0:0:0:0:
475,192,44451,1,0,0:0:0:0:
256,192,44451,1,0,0:0:0:0:
402,192,44532,1,0,0:0:0:0:
182,192,44532,1,0,0:0:0:0:
109,192,44613,1,0,0:0:0:0:
329,192,44694,1,0,0:0:0:0:
36,192,44694,1,0,0:0:0:0:
256,192,44775,1,0,0:0:0:0:
475,192,44775,1,0,0:0:0:0:
182,192,44829,1,0,0:0:0:0:
402,192,44856,1,0,0:0:0:0:
109,192,44883,1,0,0:0:0:0:
36,192,44937,1,0,0:0:0:0:
329,192,44937,1,0,0:0:0:0:
256,192,45018,1,0,0:0:0:0:
475,192,45100,1,0,0:0:0:0:
182,192,45100,1,0,0:0:0:0:
36,192,45100,1,0,0:0:0:0:
402,192,45140,1,0,0:0:0:0:
329,192,45181,1,0,0:0:0:0:
109,192,45181,1,0,0:0:0:0:
256,192,45221,1,0,0:0:0:0:
475,192,45262,1,0,0:0:0:0:
182,192,45262,1,0,0:0:0:0:
402,192,45343,1,0,0:0:0:0:
109,192,45424,1,0,0:0:0:0:
36,192,45424,1,0,0:0:0:0:
256,192,45424,1,0,0:0:0:0:
329,192,45424,1,0,0:0:0:0:
475,192,45505,1,0,0:0:0:0:
36,192,45586,1,0,0:0:0:0:
109,192,45586,1,0,0:0:0:0:
402,192,45586,1,0,0:0:0:0:
182,192,45586,1,0,0:0:0:0:
329,192,45667,1,0,0:0:0:0:
36,192,45748,1,0,0:0:0:0:
109,192,45748,1,0,0:0:0:0:
256,192,45748,1,0,0:0:0:0:
475,192,45748,1,0,0:0:0:0:
402,192,45829,1,0,0:0:0:0:
36,192,45910,1,0,0:0:0:0:
109,192,45910,1,0,0:0:0:0:
182,192,45910,1,0,0:0:0:0:
329,192,45910,1,0,0:0:0:0:
256,192,45991,1,0,0:0:0:0:
402,192,46073,1,0,0:0:0:0:
475,192,46073,1,0,0:0:0:0:
36,192,46073,1,0,0:0:0:0:
329,192,46073,1,0,0:0:0:0:
109,192,46113,1,0,0:0:0:0:
182,192,46154,1,0,0:0:0:0:
256,192,46194,1,0,0:0:0:0:
475,192,46235,1,0,0:0:0:0:
402,192,46235,1,0,0:0:0:0:
36,192,46235,1,0,0:0:0:0:
329,192,46235,1,0,0:0:0:0:
109,192,46275,1,0,0:0:0:0:
182,192,46316,1,0,0:0:0:0:
256,192,46356,1,0,0:0:0:0:
402,192,46397,1,0,0:0:0:0:
475,192,46397,1,0,0:0:0:0:
329,192,46397,1,0,0:0:0:0:
36,192,46397,1,0,0:0:0:0:
109,192,46478,1,0,0:0:0:0:
402,192,46559,1,0,0:0:0:0:
182,192,46559,1,0,0:0:0:0:
475,192,46559,1,0,0:0:0:0:
256,192,46559,1,0,0:0:0:0:
329,192,46640,1,0,0:0:0:0:
109,192,46640,1,0,0:0:0:0:
402,192,46721,1,0,0:0:0:0:
475,192,46721,1,0,0:0:0:0:
36,192,46721,1,0,0:0:0:0:
256,192,46721,1,0,0:0:0:0:
182,192,46802,1,0,0:0:0:0:
329,192,46802,1,0,0:0:0:0:
109,192,46883,1,0,0:0:0:0:
475,192,46883,1,0,0:0:0:0:
36,192,46883,1,0,0:0:0:0:
402,192,46964,1,0,0:0:0:0:
256,192,46964,1,0,0:0:0:0:
109,192,47046,1,0,0:0:0:0:
182,192,47046,1,0,0:0:0:0:
329,192,47046,1,0,0:0:0:0:
475,192,47127,1,0,0:0:0:0:
402,192,47127,1,0,0:0:0:0:
36,192,47208,1,0,0:0:0:0:
109,192,47208,1,0,0:0:0:0:
256,192,47208,1,0,0:0:0:0:
329,192,47289,1,0,0:0:0:0:
402,192,47289,1,0,0:0:0:0:
36,192,47370,1,0,0:0:0:0:
182,192,47370,1,0,0:0:0:0:
475,192,47370,1,0,0:0:0:0:
256,192,47451,1,0,0:0:0:0:
329,192,47451,1,0,0:0:0:0:
36,192,47532,1,0,0:0:0:0:
402,192,47532,1,0,0:0:0:0:
475,192,47532,1,0,0:0:0:0:
109,192,47573,1,0,0:0:0:0:
182,192,47613,1,0,0:0:0:0:
256,192,47654,1,0,0:0:0:0:
329,192,47694,1,0,0:0:0:0:
475,192,47694,1,0,0:0:0:0:
402,192,47694,1,0,0:0:0:0:
109,192,47775,1,0,0:0:0:0:
36,192,47775,1,0,0:0:0:0:
182,192,47775,1,0,0:0:0:0:
402,192,47856,1,0,0:0:0:0:
329,192,47856,1,0,0:0:0:0:
475,192,47856,1,0,0:0:0:0:
182,192,47937,1,0,0:0:0:0:
256,192,47937,1,0,0:0:0:0:
329,192,48018,1,0,0:0:0:0:
402,192,48018,1,0,0:0:0:0:
475,192,48018,1,0,0:0:0:0:
109,192,48018,1,0,0:0:0:0:
36,192,48018,1,0,0:0:0:0:
256,192,48181,1,0,0:0:0:0:
402,192,48343,1,0,0:0:0:0:
182,192,48505,1,0,0:0:0:0:
329,192,48667,1,0,0:0:0:0:
36,192,48667,1,0,0:0:0:0:
256,192,48829,1,0,0:0:0:0:
475,192,48991,1,0,0:0:0:0:
256,192,49154,1,0,0:0:0:0:
36,192,49316,1,0,0:0:0:0:
402,192,49316,1,0,0:0:0:0:
475,192,49316,1,0,0:0:0:0:
182,192,49478,1,0,0:0:0:0:
329,192,49640,1,0,0:0:0:0:
475,192,49802,1,0,0:0:0:0:
256,192,49964,1,0,0:0:0:0:
36,192,49964,1,0,0:0:0:0:
402,192,50127,1,0,0:0:0:0:
329,192,50289,1,0,0:0:0:0:
109,192,50289,1,0,0:0:0:0:
256,192,50451,1,0,0:0:0:0:
475,192,50613,1,0,0:0:0:0:
36,192,50613,1,0,0:0:0:0:
402,192,50694,1,0,0:0:0:0:
329,192,50775,1,0,0:0:0:0:
109,192,50775,1,0,0:0:0:0:
182,192,50856,1,0,0:0:0:0:
256,192,50937,1,0,0:0:0:0:
329,192,51018,1,0,0:0:0:0:
402,192,51100,1,0,0:0:0:0:
109,192,51100,1,0,0:0:0:0:
329,192,51181,1,0,0:0:0:0:
256,192,51262,1,0,0:0:0:0:
36,192,51343,1,0,0:0:0:0:
109,192,51424,1,0,0:0:0:0:
182,192,51505,1,0,0:0:0:0:
475,192,51586,1,0,0:0:0:0:
402,192,51667,1,0,0:0:0:0:
329,192,51748,1,0,0:0:0:0:
256,192,51829,1,0,0:0:0:0:
36,192,51910,1,0,0:0:0:0:
475,192,51910,1,0,0:0:0:0:
329,192,51991,1,0,0:0:0:0:
182,192,52073,1,0,0:0:0:0:
402,192,52154,1,0,0:0:0:0:
256,192,52235,1,0,0:0:0:0:
109,192,52316,1,0,0:0:0:0:
256,192,52397,1,0,0:0:0:0:
402,192,52478,1,0,0:0:0:0:
36,192,52559,1,0,0:0:0:0:
182,192,52640,1,0,0:0:0:0:
329,192,52721,1,0,0:0:0:0:
475,192,52802,1,0,0:0:0:0:
109,192,52883,1,0,0:0:0:0:
256,192,52964,1,0,0:0:0:0:
402,192,53046,1,0,0:0:0:0:
182,192,53046,1,0,0:0:0:0:
109,192,53127,1,0,0:0:0:0:
329,192,53127,1,0,0:0:0:0:
36,192,53208,1,0,0:0:0:0:
256,192,53208,1,0,0:0:0:0:
475,192,53208,1,0,0:0:0:0:
182,192,53370,1,0,0:0:0:0:
402,192,53532,1,0,0:0:0:0:
109,192,53694,1,0,0:0:0:0:
329,192,53856,1,0,0:0:0:0:
182,192,54018,1,0,0:0:0:0:
402,192,54181,1,0,0:0:0:0:
475,192,54181,1,0,0:0:0:0:
256,192,54343,1,0,0:0:0:0:
182,192,54505,1,0,0:0:0:0:
36,192,54505,1,0,0:0:0:0:
329,192,54505,1,0,0:0:0:0:
475,192,54667,1,0,0:0:0:0:
256,192,54829,1,0,0:0:0:0:
109,192,54829,1,0,0:0:0:0:
402,192,54991,1,0,0:0:0:0:
182,192,55154,1,0,0:0:0:0:
475,192,55154,1,0,0:0:0:0:
329,192,55316,1,0,0:0:0:0:
109,192,55478,1,0,0:0:0:0:
256,192,55478,1,0,0:0:0:0:
402,192,55640,1,0,0:0:0:0:
182,192,55802,1,0,0:0:0:0:
36,192,55802,1,0,0:0:0:0:
475,192,55802,1,0,0:0:0:0:
256,192,55883,1,0,0:0:0:0:
329,192,55964,1,0,0:0:0:0:
109,192,56127,1,0,0:0:0:0:
402,192,56127,1,0,0:0:0:0:
256,192,56289,1,0,0:0:0:0:
182,192,56370,1,0,0:0:0:0:
109,192,56451,1,0,0:0:0:0:
36,192,56451,1,0,0:0:0:0:
475,192,56451,1,0,0:0:0:0:
329,192,56613,1,0,0:0:0:0:
256,192,56613,1,0,0:0:0:0:
182,192,56937,1,0,0:0:0:0:
475,192,56937,1,0,0:0:0:0:
402,192,57018,1,0,0:0:0:0:
329,192,57100,1,0,0:0:0:0:
109,192,57100,1,0,0:0:0:0:
36,192,57100,1,0,0:0:0:0:
182,192,57181,1,0,0:0:0:0:
256,192,57262,1,0,0:0:0:0:
329,192,57343,1,0,0:0:0:0:
402,192,57424,1,0,0:0:0:0:
36,192,57424,1,0,0:0:0:0:
329,192,57505,1,0,0:0:0:0:
256,192,57586,1,0,0:0:0:0:
475,192,57586,1,0,0:0:0:0:
182,192,57667,1,0,0:0:0:0:
402,192,57667,1,0,0:0:0:0:
109,192,57748,1,0,0:0:0:0:
329,192,57748,1,0,0:0:0:0:
36,192,57748,1,0,0:0:0:0:
182,192,57910,1,0,0:0:0:0:
256,192,57910,1,0,0:0:0:0:
329,192,57991,1,0,0:0:0:0:
475,192,58073,1,0,0:0:0:0:
36,192,58073,1,0,0:0:0:0:
109,192,58154,1,0,0:0:0:0:
329,192,58235,1,0,0:0:0:0:
402,192,58235,1,0,0:0:0:0:
256,192,58316,1,0,0:0:0:0:
402,192,58397,1,0,0:0:0:0:
475,192,58397,1,0,0:0:0:0:
109,192,58397,1,0,0:0:0:0:
36,192,58397,1,0,0:0:0:0:
182,192,58397,1,0,0:0:0:0:
329,192,58559,1,0,0:0:0:0:
256,192,58721,1,0,0:0:0:0:
36,192,58721,1,0,0:0:0:0:
402,192,58883,1,0,0:0:0:0:
256,192,58964,1,0,0:0:0:0:
475,192,59046,1,0,0:0:0:0:
109,192,59046,1,0,0:0:0:0:
402,192,59086,1,0,0:0:0:0:
329,192,59127,1,0,0:0:0:0:
256,192,59167,1,0,0:0:0:0:
36,192,59208,1,0,0:0:0:0:
109,192,59248,1,0,0:0:0:0:
182,192,59289,1,0,0:0:0:0:
256,192,59329,1,0,0:0:0:0:
329,192,59370,1,0,0:0:0:0:
475,192,59370,1,0,0:0:0:0:
182,192,59532,1,0,0:0:0:0:
109,192,59613,1,0,0:0:0:0:
36,192,59694,1,0,0:0:0:0:
402,192,59694,1,0,0:0:0:0:
329,192,59735,1,0,0:0:0:0:
256,192,59775,1,0,0:0:0:0:
182,192,59816,1,0,0:0:0:0:
109,192,59856,1,0,0:0:0:0:
329,192,60018,1,0,0:0:0:0:
475,192,60018,1,0,0:0:0:0:
36,192,60018,1,0,0:0:0:0:
475,192,60100,1,0,0:0:0:0:
329,192,60100,1,0,0:0:0:0:
109,192,60181,1,0,0:0:0:0:
329,192,60262,1,0,0:0:0:0:
475,192,60262,1,0,0:0:0:0:
182,192,60343,1,0,0:0:0:0:
36,192,60343,1,0,0:0:0:0:
402,192,60343,1,0,0:0:0:0:
256,192,60397,1,0,0:0:0:0:
329,192,60451,1,0,0:0:0:0:
402,192,60505,1,0,0:0:0:0:
109,192,60505,1,0,0:0:0:0:
182,192,60667,1,0,0:0:0:0:
256,192,60708,1,0,0:0:0:0:
329,192,60748,1,0,0:0:0:0:
402,192,60789,1,0,0:0:0:0:
109,192,60829,1,0,0:0:0:0:
475,192,60829,1,0,0:0:0:0:
182,192,60910,1,0,0:0:0:0:
329,192,60991,1,0,0:0:0:0:
36,192,60991,1,0,0:0:0:0:
402,192,60991,1,0,0:0:0:0:
256,192,61154,1,0,0:0:0:0:
182,192,61316,1,0,0:0:0:0:
109,192,61316,1,0,0:0:0:0:
475,192,61316,1,0,0:0:0:0:
256,192,61478,1,0,0:0:0:0:
329,192,61559,1,0,0:0:0:0:
36,192,61640,1,0,0:0:0:0:
402,192,61640,1,0,0:0:0:0:
109,192,61681,1,0,0:0:0:0:
182,192,61721,1,0,0:0:0:0:
256,192,61762,1,0,0:0:0:0:
475,192,61802,1,0,0:0:0:0:
402,192,61843,1,0,0:0:0:0:
329,192,61883,1,0,0:0:0:0:
256,192,61924,1,0,0:0:0:0:
182,192,61964,1,0,0:0:0:0:
36,192,61964,1,0,0:0:0:0:
329,192,62127,1,0,0:0:0:0:
402,192,62208,1,0,0:0:0:0:
475,192,62289,1,0,0:0:0:0:
109,192,62289,1,0,0:0:0:0:
182,192,62329,1,0,0:0:0:0:
256,192,62370,1,0,0:0:0:0:
329,192,62410,1,0,0:0:0:0:
402,192,62451,1,0,0:0:0:0:
182,192,62532,1,0,0:0:0:0:
109,192,62613,1,0,0:0:0:0:
36,192,62613,1,0,0:0:0:0:
475,192,62613,1,0,0:0:0:0:
109,192,62694,1,0,0:0:0:0:
36,192,62694,1,0,0:0:0:0:
402,192,62694,1,0,0:0:0:0:
329,192,62775,1,0,0:0:0:0:
109,192,62856,1,0,0:0:0:0:
36,192,62856,1,0,0:0:0:0:
402,192,62856,1,0,0:0:0:0:
256,192,62937,1,0,0:0:0:0:
475,192,62937,1,0,0:0:0:0:
182,192,62991,1,0,0:0:0:0:
402,192,63018,1,0,0:0:0:0:
109,192,63046,1,0,0:0:0:0:
36,192,63100,1,0,0:0:0:0:
329,192,63100,1,0,0:0:0:0:
109,192,63154,1,0,0:0:0:0:
402,192,63181,1,0,0:0:0:0:
182,192,63208,1,0,0:0:0:0:
256,192,63262,1,0,0:0:0:0:
475,192,63262,1,0,0:0:0:0:
36,192,63302,1,0,0:0:0:0:
109,192,63343,1,0,0:0:0:0:
182,192,63383,1,0,0:0:0:0:
402,192,63424,1,0,0:0:0:0:
329,192,63464,1,0,0:0:0:0:
256,192,63505,1,0,0:0:0:0:
182,192,63546,1,0,0:0:0:0:
402,192,63586,1,0,0:0:0:0:
475,192,63586,1,0,0:0:0:0:
329,192,63586,1,0,0:0:0:0:
109,192,63586,1,0,0:0:0:0:
36,192,63586,128,0,66181:0:0:0:0:
256,192,63667,1,0,0:0:0:0:
182,192,63748,1,0,0:0:0:0:
109,192,63829,1,0,0:0:0:0:
475,192,63910,1,0,0:0:0:0:
402,192,63991,1,0,0:0:0:0:
182,192,64073,1,0,0:0:0:0:
256,192,64154,1,0,0:0:0:0:
329,192,64235,1,0,0:0:0:0:
475,192,64316,1,0,0:0:0:0:
402,192,64397,1,0,0:0:0:0:
329,192,64478,1,0,0:0:0:0:
109,192,64559,1,0,0:0:0:0:
182,192,64640,1,0,0:0:0:0:
256,192,64721,1,0,0:0:0:0:
329,192,64802,1,0,0:0:0:0:
475,192,64964,1,0,0:0:0:0:
402,192,65046,1,0,0:0:0:0:
329,192,65127,1,0,0:0:0:0:
256,192,65208,1,0,0:0:0:0:
109,192,65289,1,0,0:0:0:0:
182,192,65370,1,0,0:0:0:0:
256,192,65451,1,0,0:0:0:0:
329,192,65532,1,0,0:0:0:0:
475,192,65613,1,0,0:0:0:0:
402,192,65694,1,0,0:0:0:0:
329,192,65775,1,0,0:0:0:0:
256,192,65856,1,0,0:0:0:0:
475,192,65856,1,0,0:0:0:0:
182,192,65937,1,0,0:0:0:0:
329,192,66018,1,0,0:0:0:0:
109,192,66018,1,0,0:0:0:0:
402,192,66100,1,0,0:0:0:0:
182,192,66100,1,0,0:0:0:0:
475,192,66181,128,0,67478:0:0:0:0:
256,192,66181,1,0,0:0:0:0:
329,192,66262,1,0,0:0:0:0:
36,192,66343,1,0,0:0:0:0:
109,192,66424,1,0,0:0:0:0:
182,192,66505,1,0,0:0:0:0:
256,192,66586,1,0,0:0:0:0:
329,192,66667,1,0,0:0:0:0:
402,192,66748,1,0,0:0:0:0:
182,192,66829,1,0,0:0:0:0:
109,192,66910,1,0,0:0:0:0:
36,192,66991,1,0,0:0:0:0:
256,192,67073,1,0,0:0:0:0:
182,192,67154,1,0,0:0:0:0:
109,192,67235,1,0,0:0:0:0:
329,192,67316,1,0,0:0:0:0:
256,192,67397,1,0,0:0:0:0:
182,192,67478,1,0,0:0:0:0:
402,192,67478,1,0,0:0:0:0:
36,192,67478,1,0,0:0:0:0:
329,192,67478,1,0,0:0:0:0:
182,192,67640,1,0,0:0:0:0:
402,192,67640,1,0,0:0:0:0:
36,192,67640,1,0,0:0:0:0:
329,192,67640,1,0,0:0:0:0:
402,192,67802,1,0,0:0:0:0:
475,192,67802,1,0,0:0:0:0:
109,192,67802,1,0,0:0:0:0:
36,192,67802,1,0,0:0:0:0:
256,192,67802,1,0,0:0:0:0:
329,192,67964,1,0,0:0:0:0:
109,192,67964,1,0,0:0:0:0:
475,192,67964,1,0,0:0:0:0:
182,192,67964,1,0,0:0:0:0:
329,192,68127,1,0,0:0:0:0:
475,192,68127,1,0,0:0:0:0:
109,192,68127,1,0,0:0:0:0:
182,192,68127,1,0,0:0:0:0:
109,192,68289,1,0,0:0:0:0:
36,192,68289,1,0,0:0:0:0:
402,192,68289,1,0,0:0:0:0:
475,192,68289,1,0,0:0:0:0:
256,192,68289,1,0,0:0:0:0:
182,192,68451,128,0,68775:0:0:0:0:
329,192,68451,128,0,68775:0:0:0:0:
109,192,68775,1,0,0:0:0:0:
36,192,68775,1,0,0:0:0:0:
256,192,68775,1,0,0:0:0:0:
402,192,68775,1,0,0:0:0:0:
475,192,68775,1,0,0:0:0:0:
329,192,68937,1,0,0:0:0:0:
256,192,69100,1,0,0:0:0:0:
475,192,69100,128,0,69424:0:0:0:0:
402,192,69100,1,0,0:0:0:0:
36,192,69100,1,0,0:0:0:0:
109,192,69100,1,0,0:0:0:0:
182,192,69262,1,0,0:0:0:0:
329,192,69424,128,0,69748:0:0:0:0:
109,192,69424,1,0,0:0:0:0:
256,192,69586,1,0,0:0:0:0:
36,192,69586,1,0,0:0:0:0:
182,192,69586,1,0,0:0:0:0:
402,192,69748,128,0,70073:0:0:0:0:
475,192,69748,1,0,0:0:0:0:
109,192,69748,1,0,0:0:0:0:
36,192,69748,1,0,0:0:0:0:
256,192,69748,1,0,0:0:0:0:
182,192,69910,1,0,0:0:0:0:
475,192,70073,128,0,70559:0:0:0:0:
36,192,70073,1,0,0:0:0:0:
109,192,70073,1,0,0:0:0:0:
329,192,70073,1,0,0:0:0:0:
256,192,70073,1,0,0:0:0:0:
36,192,70235,1,0,0:0:0:0:
109,192,70235,1,0,0:0:0:0:
256,192,70235,1,0,0:0:0:0:
36,192,70397,1,0,0:0:0:0:
402,192,70397,1,0,0:0:0:0:
329,192,70397,1,0,0:0:0:0:
182,192,70397,1,0,0:0:0:0:
182,192,70559,1,0,0:0:0:0:
36,192,70559,1,0,0:0:0:0:
329,192,70559,1,0,0:0:0:0:
109,192,70640,1,0,0:0:0:0:
256,192,70640,1,0,0:0:0:0:
402,192,70640,1,0,0:0:0:0:
475,192,70721,1,0,0:0:0:0:
329,192,70721,1,0,0:0:0:0:
36,192,70721,1,0,0:0:0:0:
182,192,70883,1,0,0:0:0:0:
256,192,70964,1,0,0:0:0:0:
402,192,70964,1,0,0:0:0:0:
36,192,71046,1,0,0:0:0:0:
475,192,71046,1,0,0:0:0:0:
109,192,71046,1,0,0:0:0:0:
329,192,71046,1,0,0:0:0:0:
182,192,71208,1,0,0:0:0:0:
329,192,71208,1,0,0:0:0:0:
402,192,71208,1,0,0:0:0:0:
475,192,71370,1,0,0:0:0:0:
36,192,71370,1,0,0:0:0:0:
109,192,71370,1,0,0:0:0:0:
256,192,71370,1,0,0:0:0:0:
256,192,71532,1,0,0:0:0:0:
182,192,71532,1,0,0:0:0:0:
329,192,71532,1,0,0:0:0:0:
402,192,71532,1,0,0:0:0:0:
36,192,71694,1,0,0:0:0:0:
329,192,71694,1,0,0:0:0:0:
109,192,71694,1,0,0:0:0:0:
475,192,71694,1,0,0:0:0:0:
182,192,71856,1,0,0:0:0:0:
36,192,71856,1,0,0:0:0:0:
475,192,71856,1,0,0:0:0:0:
402,192,71856,1,0,0:0:0:0:
256,192,71937,1,0,0:0:0:0:
329,192,72018,1,0,0:0:0:0:
475,192,72018,1,0,0:0:0:0:
109,192,72018,1,0,0:0:0:0:
182,192,72100,1,0,0:0:0:0:
36,192,72181,1,0,0:0:0:0:
402,192,72181,1,0,0:0:0:0:
256,192,72181,1,0,0:0:0:0:
475,192,72262,1,0,0:0:0:0:
182,192,72262,1,0,0:0:0:0:
329,192,72343,1,0,0:0:0:0:
109,192,72343,1,0,0:0:0:0:
256,192,72424,1,0,0:0:0:0:
36,192,72424,1,0,0:0:0:0:
182,192,72505,1,0,0:0:0:0:
402,192,72505,1,0,0:0:0:0:
109,192,72586,1,0,0:0:0:0:
475,192,72586,1,0,0:0:0:0:
256,192,72667,1,0,0:0:0:0:
329,192,72667,1,0,0:0:0:0:
36,192,72667,1,0,0:0:0:0:
402,192,72748,1,0,0:0:0:0:
109,192,72748,1,0,0:0:0:0:
329,192,72829,1,0,0:0:0:0:
182,192,72829,1,0,0:0:0:0:
475,192,72829,1,0,0:0:0:0:
256,192,72910,1,0,0:0:0:0:
475,192,72991,1,0,0:0:0:0:
402,192,72991,1,0,0:0:0:0:
182,192,72991,1,0,0:0:0:0:
36,192,72991,1,0,0:0:0:0:
329,192,73073,1,0,0:0:0:0:
109,192,73073,1,0,0:0:0:0:
402,192,73154,1,0,0:0:0:0:
182,192,73154,1,0,0:0:0:0:
256,192,73235,1,0,0:0:0:0:
475,192,73235,1,0,0:0:0:0:
36,192,73235,1,0,0:0:0:0:
329,192,73316,1,0,0:0:0:0:
109,192,73316,1,0,0:0:0:0:
256,192,73397,1,0,0:0:0:0:
475,192,73397,1,0,0:0:0:0:
402,192,73478,1,0,0:0:0:0:
36,192,73478,1,0,0:0:0:0:
182,192,73478,1,0,0:0:0:0:
329,192,73559,1,0,0:0:0:0:
475,192,73640,1,0,0:0:0:0:
256,192,73640,1,0,0:0:0:0:
109,192,73640,1,0,0:0:0:0:
36,192,73640,1,0,0:0:0:0:
402,192,73721,1,0,0:0:0:0:
182,192,73721,1,0,0:0:0:0:
109,192,73802,1,0,0:0:0:0:
329,192,73802,1,0,0:0:0:0:
256,192,73883,1,0,0:0:0:0:
36,192,73883,1,0,0:0:0:0:
182,192,73964,1,0,0:0:0:0:
329,192,73964,1,0,0:0:0:0:
475,192,73964,1,0,0:0:0:0:
402,192,73964,1,0,0:0:0:0:
109,192,74127,1,0,0:0:0:0:
256,192,74127,1,0,0:0:0:0:
329,192,74208,1,0,0:0:0:0:
182,192,74289,1,0,0:0:0:0:
402,192,74289,1,0,0:0:0:0:
475,192,74289,1,0,0:0:0:0:
36,192,74289,1,0,0:0:0:0:
256,192,74451,1,0,0:0:0:0:
109,192,74451,1,0,0:0:0:0:
329,192,74532,1,0,0:0:0:0:
182,192,74532,1,0,0:0:0:0:
475,192,74532,1,0,0:0:0:0:
402,192,74613,1,0,0:0:0:0:
109,192,74613,1,0,0:0:0:0:
36,192,74613,1,0,0:0:0:0:
329,192,74775,1,0,0:0:0:0:
475,192,74775,1,0,0:0:0:0:
182,192,74775,1,0,0:0:0:0:
256,192,74856,1,0,0:0:0:0:
36,192,74856,1,0,0:0:0:0:
182,192,74937,1,0,0:0:0:0:
402,192,74937,1,0,0:0:0:0:
475,192,74937,1,0,0:0:0:0:
109,192,74937,1,0,0:0:0:0:
329,192,75100,1,0,0:0:0:0:
256,192,75100,1,0,0:0:0:0:
36,192,75100,1,0,0:0:0:0:
109,192,75181,1,0,0:0:0:0:
402,192,75262,1,0,0:0:0:0:
475,192,75262,1,0,0:0:0:0:
182,192,75262,128,0,75586:0:0:0:0:
329,192,75424,1,0,0:0:0:0:
475,192,75424,1,0,0:0:0:0:
402,192,75505,1,0,0:0:0:0:
109,192,75586,128,0,75910:0:0:0:0:
36,192,75586,1,0,0:0:0:0:
256,192,75586,1,0,0:0:0:0:
329,192,75586,1,0,0:0:0:0:
475,192,75586,1,0,0:0:0:0:
402,192,75748,1,0,0:0:0:0:
329,192,75829,1,0,0:0:0:0:
256,192,75829,1,0,0:0:0:0:
36,192,75910,128,0,76235:0:0:0:0:
475,192,75910,1,0,0:0:0:0:
402,192,75910,1,0,0:0:0:0:
182,192,75910,1,0,0:0:0:0:
256,192,76073,1,0,0:0:0:0:
329,192,76073,1,0,0:0:0:0:
402,192,76154,1,0,0:0:0:0:
109,192,76235,128,0,76559:0:0:0:0:
182,192,76235,1,0,0:0:0:0:
475,192,76235,1,0,0:0:0:0:
329,192,76235,1,0,0:0:0:0:
402,192,76397,1,0,0:0:0:0:
329,192,76478,1,0,0:0:0:0:
36,192,76559,128,0,77694:0:0:0:0:
182,192,76559,1,0,0:0:0:0:
256,192,76559,1,0,0:0:0:0:
402,192,76721,1,0,0:0:0:0:
256,192,76802,1,0,0:0:0:0:
475,192,76883,1,0,0:0:0:0:
109,192,76883,1,0,0:0:0:0:
182,192,76883,1,0,0:0:0:0:
329,192,76883,1,0,0:0:0:0:
256,192,77046,1,0,0:0:0:0:
329,192,77127,1,0,0:0:0:0:
402,192,77208,1,0,0:0:0:0:
109,192,77208,1,0,0:0:0:0:
256,192,77370,1,0,0:0:0:0:
182,192,77451,1,0,0:0:0:0:
109,192,77532,1,0,0:0:0:0:
475,192,77532,1,0,0:0:0:0:
402,192,77532,1,0,0:0:0:0:
329,192,77532,1,0,0:0:0:0:
475,192,77694,128,0,78343:0:0:0:0:
256,192,77694,1,0,0:0:0:0:
329,192,77775,1,0,0:0:0:0:
36,192,77856,1,0,0:0:0:0:
402,192,77856,1,0,0:0:0:0:
182,192,77856,1,0,0:0:0:0:
402,192,78018,1,0,0:0:0:0:
109,192,78018,1,0,0:0:0:0:
256,192,78018,1,0,0:0:0:0:
329,192,78181,1,0,0:0:0:0:
182,192,78181,1,0,0:0:0:0:
36,192,78181,1,0,0:0:0:0:
256,192,78181,1,0,0:0:0:0:
36,192,78343,1,0,0:0:0:0:
256,192,78343,1,0,0:0:0:0:
109,192,78424,1,0,0:0:0:0:
329,192,78424,1,0,0:0:0:0:
182,192,78505,1,0,0:0:0:0:
402,192,78505,1,0,0:0:0:0:
475,192,78586,1,0,0:0:0:0:
256,192,78586,1,0,0:0:0:0:
36,192,78586,1,0,0:0:0:0:
329,192,78667,1,0,0:0:0:0:
109,192,78667,1,0,0:0:0:0:
402,192,78748,1,0,0:0:0:0:
182,192,78748,1,0,0:0:0:0:
475,192,78829,1,0,0:0:0:0:
256,192,78829,1,0,0:0:0:0:
36,192,78829,1,0,0:0:0:0:
329,192,78910,1,0,0:0:0:0:
109,192,78910,1,0,0:0:0:0:
402,192,78991,1,0,0:0:0:0:
182,192,78991,1,0,0:0:0:0:
475,192,79073,1,0,0:0:0:0:
256,192,79073,1,0,0:0:0:0:
329,192,79154,1,0,0:0:0:0:
36,192,79154,1,0,0:0:0:0:
182,192,79154,1,0,0:0:0:0:
402,192,79154,1,0,0:0:0:0:
109,192,79235,1,0,0:0:0:0:
475,192,79235,1,0,0:0:0:0:
182,192,79316,1,0,0:0:0:0:
329,192,79316,1,0,0:0:0:0:
36,192,79316,1,0,0:0:0:0:
109,192,79397,1,0,0:0:0:0:
402,192,79397,1,0,0:0:0:0:
256,192,79478,1,0,0:0:0:0:
36,192,79478,1,0,0:0:0:0:
475,192,79478,1,0,0:0:0:0:
182,192,79559,1,0,0:0:0:0:
329,192,79559,1,0,0:0:0:0:
256,192,79640,1,0,0:0:0:0:
402,192,79640,1,0,0:0:0:0:
109,192,79640,1,0,0:0:0:0:
182,192,79721,1,0,0:0:0:0:
36,192,79721,1,0,0:0:0:0:
329,192,79802,1,0,0:0:0:0:
109,192,79802,1,0,0:0:0:0:
475,192,79802,1,0,0:0:0:0:
256,192,79883,1,0,0:0:0:0:
402,192,79883,1,0,0:0:0:0:
329,192,79964,1,0,0:0:0:0:
36,192,79964,1,0,0:0:0:0:
182,192,79964,1,0,0:0:0:0:
256,192,80046,1,0,0:0:0:0:
475,192,80046,1,0,0:0:0:0:
36,192,80127,1,0,0:0:0:0:
182,192,80127,1,0,0:0:0:0:
402,192,80127,1,0,0:0:0:0:
329,192,80208,1,0,0:0:0:0:
109,192,80208,1,0,0:0:0:0:
402,192,80289,1,0,0:0:0:0:
182,192,80289,1,0,0:0:0:0:
475,192,80289,1,0,0:0:0:0:
329,192,80370,1,0,0:0:0:0:
36,192,80370,1,0,0:0:0:0:
256,192,80451,1,0,0:0:0:0:
109,192,80451,1,0,0:0:0:0:
475,192,80451,1,0,0:0:0:0:
402,192,80532,1,0,0:0:0:0:
36,192,80532,1,0,0:0:0:0:
109,192,80613,1,0,0:0:0:0:
182,192,80613,1,0,0:0:0:0:
329,192,80613,1,0,0:0:0:0:
256,192,80694,1,0,0:0:0:0:
475,192,80694,1,0,0:0:0:0:
36,192,80775,1,0,0:0:0:0:
182,192,80775,1,0,0:0:0:0:
402,192,80775,1,0,0:0:0:0:
109,192,80856,1,0,0:0:0:0:
329,192,80856,1,0,0:0:0:0:
256,192,80937,1,0,0:0:0:0:
475,192,80937,1,0,0:0:0:0:
182,192,80937,1,0,0:0:0:0:
109,192,81018,1,0,0:0:0:0:
36,192,81018,1,0,0:0:0:0:
402,192,81018,1,0,0:0:0:0:
329,192,81100,1,0,0:0:0:0:
182,192,81100,1,0,0:0:0:0:
475,192,81100,1,0,0:0:0:0:
402,192,81181,1,0,0:0:0:0:
256,192,81181,1,0,0:0:0:0:
475,192,81262,1,0,0:0:0:0:
36,192,81262,1,0,0:0:0:0:
109,192,81262,1,0,0:0:0:0:
329,192,81343,1,0,0:0:0:0:
182,192,81343,1,0,0:0:0:0:
109,192,81424,128,0,81586:0:0:0:0:
256,192,81424,1,0,0:0:0:0:
402,192,81424,128,0,81586:0:0:0:0:
182,192,81586,128,0,81748:0:0:0:0:
329,192,81586,128,0,81748:0:0:0:0:
256,192,81748,1,0,0:0:0:0:
109,192,81748,1,0,0:0:0:0:
36,192,81748,1,0,0:0:0:0:
402,192,81748,1,0,0:0:0:0:
475,192,81748,1,0,0:0:0:0:
182,192,81910,1,0,0:0:0:0:
36,192,81910,1,0,0:0:0:0:
402,192,81910,1,0,0:0:0:0:
256,192,81910,1,0,0:0:0:0:
109,192,82073,1,0,0:0:0:0:
182,192,82073,1,0,0:0:0:0:
475,192,82073,1,0,0:0:0:0:
329,192,82073,1,0,0:0:0:0:
329,192,82235,128,0,82559:0:0:0:0:
475,192,82235,128,0,82559:0:0:0:0:
402,192,82235,128,0,82559:0:0:0:0:
109,192,82235,1,0,0:0:0:0:
36,192,82235,1,0,0:0:0:0:
256,192,82235,1,0,0:0:0:0:
182,192,82397,1,0,0:0:0:0:
256,192,82559,1,0,0:0:0:0:
109,192,82559,1,0,0:0:0:0:
36,192,82559,1,0,0:0:0:0:
36,192,82721,1,0,0:0:0:0:
182,192,82721,1,0,0:0:0:0:
475,192,82721,1,0,0:0:0:0:
329,192,82721,1,0,0:0:0:0:
109,192,82883,128,0,83532:0:0:0:0:
36,192,82883,128,0,83532:0:0:0:0:
182,192,82883,128,0,83532:0:0:0:0:
402,192,82883,1,0,0:0:0:0:
475,192,82883,1,0,0:0:0:0:
256,192,82883,1,0,0:0:0:0:
329,192,83046,1,0,0:0:0:0:
475,192,83208,1,0,0:0:0:0:
402,192,83208,1,0,0:0:0:0:
329,192,83370,1,0,0:0:0:0:
475,192,83370,1,0,0:0:0:0:
402,192,83370,1,0,0:0:0:0:
475,192,83532,1,0,0:0:0:0:
256,192,83532,1,0,0:0:0:0:
402,192,83613,1,0,0:0:0:0:
182,192,83613,1,0,0:0:0:0:
329,192,83694,1,0,0:0:0:0:
109,192,83694,1,0,0:0:0:0:
475,192,83775,1,0,0:0:0:0:
256,192,83775,1,0,0:0:0:0:
36,192,83775,1,0,0:0:0:0:
402,192,83856,1,0,0:0:0:0:
182,192,83856,1,0,0:0:0:0:
109,192,83937,1,0,0:0:0:0:
329,192,83937,1,0,0:0:0:0:
256,192,84018,1,0,0:0:0:0:
475,192,84018,1,0,0:0:0:0:
36,192,84018,1,0,0:0:0:0:
402,192,84018,1,0,0:0:0:0:
109,192,84100,1,0,0:0:0:0:
329,192,84100,1,0,0:0:0:0:
182,192,84181,1,0,0:0:0:0:
402,192,84181,1,0,0:0:0:0:
256,192,84262,1,0,0:0:0:0:
475,192,84262,1,0,0:0:0:0:
329,192,84343,1,0,0:0:0:0:
36,192,84343,1,0,0:0:0:0:
182,192,84343,1,0,0:0:0:0:
109,192,84424,1,0,0:0:0:0:
402,192,84424,1,0,0:0:0:0:
475,192,84505,1,0,0:0:0:0:
182,192,84505,1,0,0:0:0:0:
256,192,84586,1,0,0:0:0:0:
329,192,84586,1,0,0:0:0:0:
109,192,84667,1,0,0:0:0:0:
36,192,84667,1,0,0:0:0:0:
402,192,84667,1,0,0:0:0:0:
182,192,84667,1,0,0:0:0:0:
329,192,84748,1,0,0:0:0:0:
475,192,84748,1,0,0:0:0:0:
256,192,84829,1,0,0:0:0:0:
36,192,84829,1,0,0:0:0:0:
109,192,84910,1,0,0:0:0:0:
402,192,84910,1,0,0:0:0:0:
182,192,84991,1,0,0:0:0:0:
329,192,84991,1,0,0:0:0:0:
402,192,85073,1,0,0:0:0:0:
256,192,85073,1,0,0:0:0:0:
475,192,85154,1,0,0:0:0:0:
109,192,85154,1,0,0:0:0:0:
36,192,85154,1,0,0:0:0:0:
182,192,85235,1,0,0:0:0:0:
36,192,85316,1,0,0:0:0:0:
109,192,85316,1,0,0:0:0:0:
475,192,85316,1,0,0:0:0:0:
329,192,85316,1,0,0:0:0:0:
402,192,85397,1,0,0:0:0:0:
256,192,85397,1,0,0:0:0:0:
36,192,85478,1,0,0:0:0:0:
182,192,85478,1,0,0:0:0:0:
109,192,85559,1,0,0:0:0:0:
329,192,85559,1,0,0:0:0:0:
402,192,85640,1,0,0:0:0:0:
182,192,85640,1,0,0:0:0:0:
475,192,85640,1,0,0:0:0:0:
36,192,85721,1,0,0:0:0:0:
256,192,85802,1,0,0:0:0:0:
475,192,85802,1,0,0:0:0:0:
109,192,85802,1,0,0:0:0:0:
329,192,85883,1,0,0:0:0:0:
182,192,85883,1,0,0:0:0:0:
402,192,85964,1,0,0:0:0:0:
36,192,85964,1,0,0:0:0:0:
256,192,85964,1,0,0:0:0:0:
475,192,85964,1,0,0:0:0:0:
109,192,86046,1,0,0:0:0:0:
329,192,86046,1,0,0:0:0:0:
182,192,86127,1,0,0:0:0:0:
475,192,86127,1,0,0:0:0:0:
109,192,86208,1,0,0:0:0:0:
402,192,86208,1,0,0:0:0:0:
256,192,86208,1,0,0:0:0:0:
36,192,86289,1,0,0:0:0:0:
329,192,86289,1,0,0:0:0:0:
256,192,86370,1,0,0:0:0:0:
182,192,86451,1,0,0:0:0:0:
475,192,86451,1,0,0:0:0:0:
402,192,86451,1,0,0:0:0:0:
109,192,86532,1,0,0:0:0:0:
329,192,86532,1,0,0:0:0:0:
36,192,86613,1,0,0:0:0:0:
256,192,86613,1,0,0:0:0:0:
182,192,86613,1,0,0:0:0:0:
475,192,86613,1,0,0:0:0:0:
402,192,86694,1,0,0:0:0:0:
109,192,86694,1,0,0:0:0:0:
182,192,86775,1,0,0:0:0:0:
329,192,86775,1,0,0:0:0:0:
256,192,86856,1,0,0:0:0:0:
475,192,86937,1,0,0:0:0:0:
36,192,86937,1,0,0:0:0:0:
402,192,87018,1,0,0:0:0:0:
109,192,87018,1,0,0:0:0:0:
329,192,87100,1,0,0:0:0:0:
182,192,87100,1,0,0:0:0:0:
475,192,87181,1,0,0:0:0:0:
36,192,87181,1,0,0:0:0:0:
402,192,87262,1,0,0:0:0:0:
256,192,87262,1,0,0:0:0:0:
109,192,87262,1,0,0:0:0:0:
182,192,87343,1,0,0:0:0:0:
329,192,87343,1,0,0:0:0:0:
475,192,87424,1,0,0:0:0:0:
36,192,87424,1,0,0:0:0:0:
402,192,87505,1,0,0:0:0:0:
109,192,87505,1,0,0:0:0:0:
182,192,87586,1,0,0:0:0:0:
329,192,87586,1,0,0:0:0:0:
109,192,87667,1,0,0:0:0:0:
402,192,87667,1,0,0:0:0:0:
256,192,87748,5,0,0:0:0:0:
36,192,87748,1,0,0:0:0:0:
475,192,87748,1,0,0:0:0:0:
329,192,87829,1,0,0:0:0:0:
182,192,87829,1,0,0:0:0:0:
256,192,87910,1,0,0:0:0:0:
402,192,87910,1,0,0:0:0:0:
109,192,87910,1,0,0:0:0:0:
475,192,87991,1,0,0:0:0:0:
36,192,87991,1,0,0:0:0:0:
329,192,88073,1,0,0:0:0:0:
182,192,88073,1,0,0:0:0:0:
402,192,88154,1,0,0:0:0:0:
109,192,88154,1,0,0:0:0:0:
475,192,88235,1,0,0:0:0:0:
36,192,88235,1,0,0:0:0:0:
256,192,88235,1,0,0:0:0:0:
402,192,88316,1,0,0:0:0:0:
109,192,88316,1,0,0:0:0:0:
475,192,88397,1,0,0:0:0:0:
182,192,88397,1,0,0:0:0:0:
256,192,88397,1,0,0:0:0:0:
329,192,88478,1,0,0:0:0:0:
36,192,88478,1,0,0:0:0:0:
475,192,88559,1,0,0:0:0:0:
182,192,88559,1,0,0:0:0:0:
109,192,88559,1,0,0:0:0:0:
402,192,88559,1,0,0:0:0:0:
36,192,88640,1,0,0:0:0:0:
256,192,88640,1,0,0:0:0:0:
329,192,88721,1,0,0:0:0:0:
109,192,88721,1,0,0:0:0:0:
182,192,88802,1,0,0:0:0:0:
402,192,88802,1,0,0:0:0:0:
256,192,88802,1,0,0:0:0:0:
475,192,88883,5,0,0:0:0:0:
329,192,88883,1,0,0:0:0:0:
36,192,88937,1,0,0:0:0:0:
182,192,88991,1,0,0:0:0:0:
402,192,89046,5,0,0:0:0:0:
256,192,89046,1,0,0:0:0:0:
475,192,89100,5,0,0:0:0:0:
109,192,89154,1,0,0:0:0:0:
329,192,89208,1,0,0:0:0:0:
182,192,89208,1,0,0:0:0:0:
402,192,89262,1,0,0:0:0:0:
36,192,89316,1,0,0:0:0:0:
109,192,89370,1,0,0:0:0:0:
475,192,89370,1,0,0:0:0:0:
256,192,89424,1,0,0:0:0:0:
329,192,89478,1,0,0:0:0:0:
36,192,89532,5,0,0:0:0:0:
475,192,89532,1,0,0:0:0:0:
182,192,89532,1,0,0:0:0:0:
402,192,89532,1,0,0:0:0:0:
109,192,89532,1,0,0:0:0:0:
256,192,89613,1,0,0:0:0:0:
109,192,89694,1,0,0:0:0:0:
329,192,89694,1,0,0:0:0:0:
402,192,89775,1,0,0:0:0:0:
182,192,89775,1,0,0:0:0:0:
256,192,89856,1,0,0:0:0:0:
475,192,89856,1,0,0:0:0:0:
36,192,89856,1,0,0:0:0:0:
402,192,89937,1,0,0:0:0:0:
182,192,89937,1,0,0:0:0:0:
329,192,90018,1,0,0:0:0:0:
109,192,90018,1,0,0:0:0:0:
256,192,90100,1,0,0:0:0:0:
36,192,90100,1,0,0:0:0:0:
475,192,90181,1,0,0:0:0:0:
329,192,90181,1,0,0:0:0:0:
182,192,90181,1,0,0:0:0:0:
402,192,90262,1,0,0:0:0:0:
109,192,90262,1,0,0:0:0:0:
36,192,90343,1,0,0:0:0:0:
329,192,90343,1,0,0:0:0:0:
109,192,90424,1,0,0:0:0:0:
256,192,90424,1,0,0:0:0:0:
402,192,90505,1,0,0:0:0:0:
182,192,90505,1,0,0:0:0:0:
475,192,90505,1,0,0:0:0:0:
36,192,90586,1,0,0:0:0:0:
256,192,90586,1,0,0:0:0:0:
329,192,90667,1,0,0:0:0:0:
109,192,90667,1,0,0:0:0:0:
182,192,90748,1,0,0:0:0:0:
475,192,90829,1,0,0:0:0:0:
256,192,90829,1,0,0:0:0:0:
402,192,90910,1,0,0:0:0:0:
329,192,90991,1,0,0:0:0:0:
182,192,90991,1,0,0:0:0:0:
36,192,90991,1,0,0:0:0:0:
256,192,91073,1,0,0:0:0:0:
182,192,91154,1,0,0:0:0:0:
36,192,91154,1,0,0:0:0:0:
475,192,91154,1,0,0:0:0:0:
182,192,91235,1,0,0:0:0:0:
36,192,91235,1,0,0:0:0:0:
402,192,91235,1,0,0:0:0:0:
329,192,91316,1,0,0:0:0:0:
36,192,91397,1,0,0:0:0:0:
402,192,91397,1,0,0:0:0:0:
109,192,91437,1,0,0:0:0:0:
475,192,91478,1,0,0:0:0:0:
182,192,91478,1,0,0:0:0:0:
256,192,91518,1,0,0:0:0:0:
329,192,91559,1,0,0:0:0:0:
475,192,91640,1,0,0:0:0:0:
182,192,91640,1,0,0:0:0:0:
402,192,91721,1,0,0:0:0:0:
109,192,91721,1,0,0:0:0:0:
36,192,91721,1,0,0:0:0:0:
329,192,91802,1,0,0:0:0:0:
36,192,91802,1,0,0:0:0:0:
109,192,91802,1,0,0:0:0:0:
475,192,91883,1,0,0:0:0:0:
402,192,91964,1,0,0:0:0:0:
36,192,91964,1,0,0:0:0:0:
182,192,91964,1,0,0:0:0:0:
329,192,92046,1,0,0:0:0:0:
36,192,92127,1,0,0:0:0:0:
475,192,92127,1,0,0:0:0:0:
256,192,92127,1,0,0:0:0:0:
402,192,92127,1,0,0:0:0:0:
109,192,92127,1,0,0:0:0:0:
182,192,92208,1,0,0:0:0:0:
329,192,92208,1,0,0:0:0:0:
402,192,92289,1,0,0:0:0:0:
36,192,92289,1,0,0:0:0:0:
475,192,92370,1,0,0:0:0:0:
109,192,92370,1,0,0:0:0:0:
182,192,92451,1,0,0:0:0:0:
402,192,92451,1,0,0:0:0:0:
256,192,92451,1,0,0:0:0:0:
109,192,92532,1,0,0:0:0:0:
329,192,92532,1,0,0:0:0:0:
36,192,92613,1,0,0:0:0:0:
256,192,92613,1,0,0:0:0:0:
329,192,92694,1,0,0:0:0:0:
182,192,92694,1,0,0:0:0:0:
475,192,92775,1,0,0:0:0:0:
402,192,92775,1,0,0:0:0:0:
109,192,92775,1,0,0:0:0:0:
256,192,92856,1,0,0:0:0:0:
36,192,92856,1,0,0:0:0:0:
109,192,92937,1,0,0:0:0:0:
329,192,92937,1,0,0:0:0:0:
182,192,93018,1,0,0:0:0:0:
402,192,93018,1,0,0:0:0:0:
36,192,93100,1,0,0:0:0:0:
256,192,93100,1,0,0:0:0:0:
475,192,93100,1,0,0:0:0:0:
402,192,93181,1,0,0:0:0:0:
109,192,93181,1,0,0:0:0:0:
329,192,93262,1,0,0:0:0:0:
182,192,93262,1,0,0:0:0:0:
402,192,93343,1,0,0:0:0:0:
256,192,93343,1,0,0:0:0:0:
475,192,93424,1,0,0:0:0:0:
329,192,93424,1,0,0:0:0:0:
36,192,93424,1,0,0:0:0:0:
329,192,93505,1,0,0:0:0:0:
475,192,93505,1,0,0:0:0:0:
109,192,93505,1,0,0:0:0:0:
182,192,93586,1,0,0:0:0:0:
475,192,93667,1,0,0:0:0:0:
109,192,93667,1,0,0:0:0:0:
402,192,93708,1,0,0:0:0:0:
329,192,93748,1,0,0:0:0:0:
36,192,93748,1,0,0:0:0:0:
256,192,93829,1,0,0:0:0:0:
475,192,93829,1,0,0:0:0:0:
182,192,93829,1,0,0:0:0:0:
109,192,93910,1,0,0:0:0:0:
475,192,93991,1,0,0:0:0:0:
402,192,93991,1,0,0:0:0:0:
182,192,93991,1,0,0:0:0:0:
475,192,94073,1,0,0:0:0:0:
402,192,94073,1,0,0:0:0:0:
36,192,94073,1,0,0:0:0:0:
256,192,94073,1,0,0:0:0:0:
109,192,94154,1,0,0:0:0:0:
329,192,94154,1,0,0:0:0:0:
182,192,94235,1,0,0:0:0:0:
402,192,94235,1,0,0:0:0:0:
475,192,94316,1,0,0:0:0:0:
256,192,94316,1,0,0:0:0:0:
329,192,94316,1,0,0:0:0:0:
36,192,94397,1,0,0:0:0:0:
109,192,94478,1,0,0:0:0:0:
182,192,94559,1,0,0:0:0:0:
329,192,94559,1,0,0:0:0:0:
475,192,94559,1,0,0:0:0:0:
256,192,94640,1,0,0:0:0:0:
329,192,94721,1,0,0:0:0:0:
182,192,94721,1,0,0:0:0:0:
36,192,94721,1,0,0:0:0:0:
475,192,94721,1,0,0:0:0:0:
402,192,94721,1,0,0:0:0:0:
109,192,94802,1,0,0:0:0:0:
182,192,94883,1,0,0:0:0:0:
329,192,94883,1,0,0:0:0:0:
36,192,94964,1,0,0:0:0:0:
402,192,94964,1,0,0:0:0:0:
109,192,95046,1,0,0:0:0:0:
475,192,95046,1,0,0:0:0:0:
256,192,95046,1,0,0:0:0:0:
182,192,95127,1,0,0:0:0:0:
402,192,95127,1,0,0:0:0:0:
329,192,95208,1,0,0:0:0:0:
109,192,95208,1,0,0:0:0:0:
256,192,95289,1,0,0:0:0:0:
36,192,95289,1,0,0:0:0:0:
402,192,95370,1,0,0:0:0:0:
475,192,95370,1,0,0:0:0:0:
182,192,95370,1,0,0:0:0:0:
36,192,95451,1,0,0:0:0:0:
256,192,95451,1,0,0:0:0:0:
109,192,95532,1,0,0:0:0:0:
329,192,95532,1,0,0:0:0:0:
182,192,95613,1,0,0:0:0:0:
402,192,95613,1,0,0:0:0:0:
256,192,95694,1,0,0:0:0:0:
475,192,95694,1,0,0:0:0:0:
36,192,95694,1,0,0:0:0:0:
182,192,95775,1,0,0:0:0:0:
402,192,95775,1,0,0:0:0:0:
109,192,95856,1,0,0:0:0:0:
329,192,95856,1,0,0:0:0:0:
256,192,95937,1,0,0:0:0:0:
182,192,96018,1,0,0:0:0:0:
109,192,96018,1,0,0:0:0:0:
36,192,96018,1,0,0:0:0:0:
402,192,96018,1,0,0:0:0:0:
475,192,96018,1,0,0:0:0:0:
329,192,96100,1,0,0:0:0:0:
256,192,96181,1,0,0:0:0:0:
36,192,96181,1,0,0:0:0:0:
109,192,96262,1,0,0:0:0:0:
329,192,96262,1,0,0:0:0:0:
182,192,96343,1,0,0:0:0:0:
402,192,96343,1,0,0:0:0:0:
475,192,96343,1,0,0:0:0:0:
256,192,96424,1,0,0:0:0:0:
36,192,96424,1,0,0:0:0:0:
475,192,96505,1,0,0:0:0:0:
182,192,96505,1,0,0:0:0:0:
109,192,96586,1,0,0:0:0:0:
402,192,96586,1,0,0:0:0:0:
36,192,96667,1,0,0:0:0:0:
329,192,96667,1,0,0:0:0:0:
182,192,96667,1,0,0:0:0:0:
256,192,96748,1,0,0:0:0:0:
475,192,96748,1,0,0:0:0:0:
109,192,96829,1,0,0:0:0:0:
329,192,96829,1,0,0:0:0:0:
182,192,96910,1,0,0:0:0:0:
402,192,96910,1,0,0:0:0:0:
36,192,96991,1,0,0:0:0:0:
475,192,96991,1,0,0:0:0:0:
256,192,96991,1,0,0:0:0:0:
109,192,97073,1,0,0:0:0:0:
402,192,97073,1,0,0:0:0:0:
182,192,97154,1,0,0:0:0:0:
329,192,97154,1,0,0:0:0:0:
256,192,97235,1,0,0:0:0:0:
402,192,97316,1,0,0:0:0:0:
475,192,97316,1,0,0:0:0:0:
109,192,97316,1,0,0:0:0:0:
36,192,97316,1,0,0:0:0:0:
329,192,97316,1,0,0:0:0:0:
182,192,97397,1,0,0:0:0:0:
256,192,97478,1,0,0:0:0:0:
402,192,97478,1,0,0:0:0:0:
475,192,97478,1,0,0:0:0:0:
36,192,97478,1,0,0:0:0:0:
109,192,97559,1,0,0:0:0:0:
329,192,97559,1,0,0:0:0:0:
402,192,97640,1,0,0:0:0:0:
475,192,97640,1,0,0:0:0:0:
182,192,97640,1,0,0:0:0:0:
36,192,97640,1,0,0:0:0:0:
109,192,97721,1,0,0:0:0:0:
329,192,97721,1,0,0:0:0:0:
36,192,97802,1,0,0:0:0:0:
402,192,97802,1,0,0:0:0:0:
475,192,97802,1,0,0:0:0:0:
256,192,97802,1,0,0:0:0:0:
182,192,97883,1,0,0:0:0:0:
109,192,97964,1,0,0:0:0:0:
36,192,97964,1,0,0:0:0:0:
402,192,97964,1,0,0:0:0:0:
475,192,97964,1,0,0:0:0:0:
256,192,97964,1,0,0:0:0:0:
329,192,98046,1,0,0:0:0:0:
109,192,98127,1,0,0:0:0:0:
36,192,98127,1,0,0:0:0:0:
256,192,98127,1,0,0:0:0:0:
475,192,98127,1,0,0:0:0:0:
182,192,98208,1,0,0:0:0:0:
402,192,98208,1,0,0:0:0:0:
36,192,98289,1,0,0:0:0:0:
109,192,98289,1,0,0:0:0:0:
329,192,98289,1,0,0:0:0:0:
475,192,98289,1,0,0:0:0:0:
402,192,98370,1,0,0:0:0:0:
182,192,98370,1,0,0:0:0:0:
36,192,98451,1,0,0:0:0:0:
109,192,98451,1,0,0:0:0:0:
475,192,98451,1,0,0:0:0:0:
256,192,98451,1,0,0:0:0:0:
329,192,98532,1,0,0:0:0:0:
402,192,98613,1,0,0:0:0:0:
475,192,98613,1,0,0:0:0:0:
256,192,98613,1,0,0:0:0:0:
182,192,98613,1,0,0:0:0:0:
36,192,98613,1,0,0:0:0:0:
109,192,98694,1,0,0:0:0:0:
182,192,98775,1,0,0:0:0:0:
329,192,98775,1,0,0:0:0:0:
475,192,98775,1,0,0:0:0:0:
36,192,98775,1,0,0:0:0:0:
256,192,98856,1,0,0:0:0:0:
402,192,98937,1,0,0:0:0:0:
475,192,98937,1,0,0:0:0:0:
329,192,98937,1,0,0:0:0:0:
109,192,98937,1,0,0:0:0:0:
36,192,98937,1,0,0:0:0:0:
182,192,99018,1,0,0:0:0:0:
256,192,99018,1,0,0:0:0:0:
402,192,99100,1,0,0:0:0:0:
475,192,99100,1,0,0:0:0:0:
329,192,99100,1,0,0:0:0:0:
36,192,99100,1,0,0:0:0:0:
109,192,99181,1,0,0:0:0:0:
182,192,99181,1,0,0:0:0:0:
475,192,99262,1,0,0:0:0:0:
402,192,99262,1,0,0:0:0:0:
329,192,99262,1,0,0:0:0:0:
36,192,99262,1,0,0:0:0:0:
256,192,99343,1,0,0:0:0:0:
182,192,99343,1,0,0:0:0:0:
36,192,99424,1,0,0:0:0:0:
109,192,99424,1,0,0:0:0:0:
402,192,99424,1,0,0:0:0:0:
475,192,99424,1,0,0:0:0:0:
329,192,99464,1,0,0:0:0:0:
256,192,99505,1,0,0:0:0:0:
182,192,99505,1,0,0:0:0:0:
109,192,99546,1,0,0:0:0:0:
329,192,99586,1,0,0:0:0:0:
402,192,99586,1,0,0:0:0:0:
36,192,99586,1,0,0:0:0:0:
475,192,99586,1,0,0:0:0:0:
256,192,99667,1,0,0:0:0:0:
182,192,99667,1,0,0:0:0:0:
402,192,99748,1,0,0:0:0:0:
475,192,99748,1,0,0:0:0:0:
109,192,99748,1,0,0:0:0:0:
36,192,99748,1,0,0:0:0:0:
182,192,99829,1,0,0:0:0:0:
329,192,99829,1,0,0:0:0:0:
109,192,99910,1,0,0:0:0:0:
36,192,99910,1,0,0:0:0:0:
402,192,99910,1,0,0:0:0:0:
475,192,99910,1,0,0:0:0:0:
256,192,99910,1,0,0:0:0:0:
182,192,100073,1,0,0:0:0:0:
256,192,100235,1,0,0:0:0:0:
329,192,100397,1,0,0:0:0:0:
402,192,100559,1,0,0:0:0:0:
475,192,100559,1,0,0:0:0:0:
256,192,100883,1,0,0:0:0:0:
329,192,100883,1,0,0:0:0:0:
182,192,101208,1,0,0:0:0:0:
36,192,101208,1,0,0:0:0:0:
256,192,101370,1,0,0:0:0:0:
329,192,101532,1,0,0:0:0:0:
402,192,101694,1,0,0:0:0:0:
475,192,101856,1,0,0:0:0:0:
182,192,101856,1,0,0:0:0:0:
402,192,102181,1,0,0:0:0:0:
109,192,102181,1,0,0:0:0:0:
329,192,102505,1,0,0:0:0:0:
36,192,102505,1,0,0:0:0:0:
109,192,102667,1,0,0:0:0:0:
182,192,102829,1,0,0:0:0:0:
402,192,102829,1,0,0:0:0:0:
256,192,102991,1,0,0:0:0:0:
475,192,103154,1,0,0:0:0:0:
329,192,103154,1,0,0:0:0:0:
109,192,103316,1,0,0:0:0:0:
402,192,103478,1,0,0:0:0:0:
182,192,103640,1,0,0:0:0:0:
329,192,103802,1,0,0:0:0:0:
475,192,103802,1,0,0:0:0:0:
36,192,103802,1,0,0:0:0:0:
256,192,103964,1,0,0:0:0:0:
109,192,104127,1,0,0:0:0:0:
329,192,104289,1,0,0:0:0:0:
182,192,104451,1,0,0:0:0:0:
36,192,104451,1,0,0:0:0:0:
402,192,104613,1,0,0:0:0:0:
256,192,104775,1,0,0:0:0:0:
109,192,104775,1,0,0:0:0:0:
475,192,104937,1,0,0:0:0:0:
329,192,105100,1,0,0:0:0:0:
36,192,105100,1,0,0:0:0:0:
402,192,105262,1,0,0:0:0:0:
109,192,105424,1,0,0:0:0:0:
402,192,105586,1,0,0:0:0:0:
329,192,105748,1,0,0:0:0:0:
475,192,105748,1,0,0:0:0:0:
256,192,105910,1,0,0:0:0:0:
36,192,106073,1,0,0:0:0:0:
182,192,106073,1,0,0:0:0:0:
256,192,106235,1,0,0:0:0:0:
329,192,106397,1,0,0:0:0:0:
475,192,106397,1,0,0:0:0:0:
109,192,106559,1,0,0:0:0:0:
402,192,106721,1,0,0:0:0:0:
256,192,106721,1,0,0:0:0:0:
109,192,106883,1,0,0:0:0:0:
182,192,107046,1,0,0:0:0:0:
36,192,107046,1,0,0:0:0:0:
475,192,107208,1,0,0:0:0:0:
109,192,107370,1,0,0:0:0:0:
256,192,107370,1,0,0:0:0:0:
475,192,107532,1,0,0:0:0:0:
36,192,107694,1,0,0:0:0:0:
256,192,107694,1,0,0:0:0:0:
109,192,107856,1,0,0:0:0:0:
329,192,107856,1,0,0:0:0:0:
182,192,108018,1,0,0:0:0:0:
402,192,108018,1,0,0:0:0:0:
256,192,108181,1,0,0:0:0:0:
475,192,108181,1,0,0:0:0:0:
329,192,108343,1,0,0:0:0:0:
182,192,108343,1,0,0:0:0:0:
36,192,108505,1,0,0:0:0:0:
402,192,108667,1,0,0:0:0:0:
256,192,108667,1,0,0:0:0:0:
109,192,108829,1,0,0:0:0:0:
329,192,108991,1,0,0:0:0:0:
475,192,108991,1,0,0:0:0:0:
182,192,108991,1,0,0:0:0:0:
109,192,109154,1,0,0:0:0:0:
182,192,109316,1,0,0:0:0:0:
36,192,109316,1,0,0:0:0:0:
475,192,109316,1,0,0:0:0:0:
256,192,109478,1,0,0:0:0:0:
402,192,109640,1,0,0:0:0:0:
329,192,109640,1,0,0:0:0:0:
109,192,109640,1,0,0:0:0:0:
256,192,109802,1,0,0:0:0:0:
109,192,109964,1,0,0:0:0:0:
182,192,109964,1,0,0:0:0:0:
402,192,109964,1,0,0:0:0:0:
256,192,110127,1,0,0:0:0:0:
36,192,110289,1,0,0:0:0:0:
475,192,110289,1,0,0:0:0:0:
182,192,110289,1,0,0:0:0:0:
329,192,110289,1,0,0:0:0:0:
256,192,110451,1,0,0:0:0:0:
109,192,110451,1,0,0:0:0:0:
182,192,110613,1,0,0:0:0:0:
402,192,110613,1,0,0:0:0:0:
256,192,110775,1,0,0:0:0:0:
475,192,110775,1,0,0:0:0:0:
329,192,110856,1,0,0:0:0:0:
36,192,110937,1,0,0:0:0:0:
402,192,110937,1,0,0:0:0:0:
109,192,110978,1,0,0:0:0:0:
182,192,111018,1,0,0:0:0:0:
256,192,111059,1,0,0:0:0:0:
475,192,111100,1,0,0:0:0:0:
402,192,111140,1,0,0:0:0:0:
329,192,111181,1,0,0:0:0:0:
256,192,111221,1,0,0:0:0:0:
182,192,111262,1,0,0:0:0:0:
36,192,111262,1,0,0:0:0:0:
329,192,111424,1,0,0:0:0:0:
109,192,111424,1,0,0:0:0:0:
402,192,111505,1,0,0:0:0:0:
475,192,111586,1,0,0:0:0:0:
256,192,111586,1,0,0:0:0:0:
182,192,111627,1,0,0:0:0:0:
109,192,111667,1,0,0:0:0:0:
36,192,111708,1,0,0:0:0:0:
402,192,111748,1,0,0:0:0:0:
36,192,111910,1,0,0:0:0:0:
109,192,111910,1,0,0:0:0:0:
329,192,111910,1,0,0:0:0:0:
475,192,111910,1,0,0:0:0:0:
109,192,111991,1,0,0:0:0:0:
36,192,111991,1,0,0:0:0:0:
256,192,112073,1,0,0:0:0:0:
402,192,112073,1,0,0:0:0:0:
109,192,112154,1,0,0:0:0:0:
36,192,112154,1,0,0:0:0:0:
182,192,112235,1,0,0:0:0:0:
475,192,112235,1,0,0:0:0:0:
402,192,112289,1,0,0:0:0:0:
329,192,112343,1,0,0:0:0:0:
256,192,112397,1,0,0:0:0:0:
109,192,112397,1,0,0:0:0:0:
36,192,112559,1,0,0:0:0:0:
475,192,112559,1,0,0:0:0:0:
109,192,112600,1,0,0:0:0:0:
182,192,112640,1,0,0:0:0:0:
256,192,112681,1,0,0:0:0:0:
329,192,112721,1,0,0:0:0:0:
402,192,112721,1,0,0:0:0:0:
36,192,112802,1,0,0:0:0:0:
475,192,112883,1,0,0:0:0:0:
182,192,112883,1,0,0:0:0:0:
109,192,113046,1,0,0:0:0:0:
402,192,113046,1,0,0:0:0:0:
329,192,113208,1,0,0:0:0:0:
36,192,113208,1,0,0:0:0:0:
475,192,113370,1,0,0:0:0:0:
182,192,113370,1,0,0:0:0:0:
109,192,113451,1,0,0:0:0:0:
402,192,113532,1,0,0:0:0:0:
36,192,113532,1,0,0:0:0:0:
329,192,113573,1,0,0:0:0:0:
256,192,113613,1,0,0:0:0:0:
182,192,113654,1,0,0:0:0:0:
109,192,113694,1,0,0:0:0:0:
475,192,113694,1,0,0:0:0:0:
402,192,113735,1,0,0:0:0:0:
329,192,113775,1,0,0:0:0:0:
256,192,113816,1,0,0:0:0:0:
182,192,113856,1,0,0:0:0:0:
36,192,113856,1,0,0:0:0:0:
475,192,114018,1,0,0:0:0:0:
109,192,114018,1,0,0:0:0:0:
182,192,114100,1,0,0:0:0:0:
256,192,114181,1,0,0:0:0:0:
36,192,114181,1,0,0:0:0:0:
329,192,114221,1,0,0:0:0:0:
402,192,114262,1,0,0:0:0:0:
475,192,114302,1,0,0:0:0:0:
182,192,114343,1,0,0:0:0:0:
109,192,114343,1,0,0:0:0:0:
402,192,114505,1,0,0:0:0:0:
475,192,114505,1,0,0:0:0:0:
256,192,114505,1,0,0:0:0:0:
36,192,114505,1,0,0:0:0:0:
402,192,114586,1,0,0:0:0:0:
475,192,114586,1,0,0:0:0:0:
182,192,114667,1,0,0:0:0:0:
109,192,114667,1,0,0:0:0:0:
402,192,114748,1,0,0:0:0:0:
475,192,114748,1,0,0:0:0:0:
36,192,114829,1,0,0:0:0:0:
329,192,114829,1,0,0:0:0:0:
109,192,114883,1,0,0:0:0:0:
182,192,114937,1,0,0:0:0:0:
256,192,114991,1,0,0:0:0:0:
475,192,114991,1,0,0:0:0:0:
402,192,115032,1,0,0:0:0:0:
329,192,115073,1,0,0:0:0:0:
256,192,115113,1,0,0:0:0:0:
36,192,115154,1,0,0:0:0:0:
182,192,115154,1,0,0:0:0:0:
109,192,115316,1,0,0:0:0:0:
475,192,115316,1,0,0:0:0:0:
182,192,115356,1,0,0:0:0:0:
256,192,115397,1,0,0:0:0:0:
329,192,115437,1,0,0:0:0:0:
402,192,115478,1,0,0:0:0:0:
36,192,115478,1,0,0:0:0:0:
109,192,115640,1,0,0:0:0:0:
329,192,115640,1,0,0:0:0:0:
402,192,115802,1,0,0:0:0:0:
182,192,115802,1,0,0:0:0:0:
475,192,115964,1,0,0:0:0:0:
36,192,115964,1,0,0:0:0:0:
329,192,116046,1,0,0:0:0:0:
182,192,116127,1,0,0:0:0:0:
109,192,116127,1,0,0:0:0:0:
256,192,116167,1,0,0:0:0:0:
329,192,116208,1,0,0:0:0:0:
402,192,116248,1,0,0:0:0:0:
475,192,116289,1,0,0:0:0:0:
36,192,116289,1,0,0:0:0:0:
109,192,116329,1,0,0:0:0:0:
182,192,116370,1,0,0:0:0:0:
256,192,116410,1,0,0:0:0:0:
329,192,116451,1,0,0:0:0:0:
475,192,116451,1,0,0:0:0:0:
402,192,116613,1,0,0:0:0:0:
182,192,116613,1,0,0:0:0:0:
109,192,116694,1,0,0:0:0:0:
36,192,116775,1,0,0:0:0:0:
475,192,116775,1,0,0:0:0:0:
402,192,116816,1,0,0:0:0:0:
329,192,116856,1,0,0:0:0:0:
256,192,116897,1,0,0:0:0:0:
182,192,116937,1,0,0:0:0:0:
329,192,117100,1,0,0:0:0:0:
475,192,117100,1,0,0:0:0:0:
36,192,117100,1,0,0:0:0:0:
109,192,117100,1,0,0:0:0:0:
475,192,117181,1,0,0:0:0:0:
329,192,117181,1,0,0:0:0:0:
182,192,117262,1,0,0:0:0:0:
109,192,117262,1,0,0:0:0:0:
475,192,117343,1,0,0:0:0:0:
329,192,117343,1,0,0:0:0:0:
256,192,117424,1,0,0:0:0:0:
402,192,117424,1,0,0:0:0:0:
182,192,117478,1,0,0:0:0:0:
109,192,117532,1,0,0:0:0:0:
36,192,117586,1,0,0:0:0:0:
329,192,117586,1,0,0:0:0:0:
182,192,117748,1,0,0:0:0:0:
36,192,117748,1,0,0:0:0:0:
256,192,117789,1,0,0:0:0:0:
329,192,117829,1,0,0:0:0:0:
402,192,117870,1,0,0:0:0:0:
475,192,117910,1,0,0:0:0:0:
109,192,117910,1,0,0:0:0:0:
182,192,117991,1,0,0:0:0:0:
256,192,118073,1,0,0:0:0:0:
36,192,118073,1,0,0:0:0:0:
475,192,118073,1,0,0:0:0:0:
109,192,118235,1,0,0:0:0:0:
402,192,118235,1,0,0:0:0:0:
329,192,118397,1,0,0:0:0:0:
182,192,118397,1,0,0:0:0:0:
402,192,118559,1,0,0:0:0:0:
109,192,118559,1,0,0:0:0:0:
256,192,118640,1,0,0:0:0:0:
475,192,118721,1,0,0:0:0:0:
36,192,118721,1,0,0:0:0:0:
402,192,118762,1,0,0:0:0:0:
329,192,118802,1,0,0:0:0:0:
256,192,118843,1,0,0:0:0:0:
36,192,118883,1,0,0:0:0:0:
109,192,118924,1,0,0:0:0:0:
182,192,118964,1,0,0:0:0:0:
256,192,119005,1,0,0:0:0:0:
329,192,119046,1,0,0:0:0:0:
475,192,119046,1,0,0:0:0:0:
36,192,119208,1,0,0:0:0:0:
109,192,119208,1,0,0:0:0:0:
256,192,119289,1,0,0:0:0:0:
402,192,119370,1,0,0:0:0:0:
475,192,119370,1,0,0:0:0:0:
329,192,119410,1,0,0:0:0:0:
256,192,119451,1,0,0:0:0:0:
182,192,119491,1,0,0:0:0:0:
109,192,119532,1,0,0:0:0:0:
36,192,119532,1,0,0:0:0:0:
182,192,119694,1,0,0:0:0:0:
36,192,119694,1,0,0:0:0:0:
475,192,119694,1,0,0:0:0:0:
329,192,119694,1,0,0:0:0:0:
182,192,119775,1,0,0:0:0:0:
36,192,119775,1,0,0:0:0:0:
402,192,119856,1,0,0:0:0:0:
475,192,119856,1,0,0:0:0:0:
182,192,119937,1,0,0:0:0:0:
36,192,119937,1,0,0:0:0:0:
329,192,120018,1,0,0:0:0:0:
475,192,120018,1,0,0:0:0:0:
256,192,120073,1,0,0:0:0:0:
182,192,120127,1,0,0:0:0:0:
109,192,120181,1,0,0:0:0:0:
402,192,120181,1,0,0:0:0:0:
329,192,120235,1,0,0:0:0:0:
256,192,120289,1,0,0:0:0:0:
182,192,120343,1,0,0:0:0:0:
36,192,120343,1,0,0:0:0:0:
109,192,120505,1,0,0:0:0:0:
475,192,120505,1,0,0:0:0:0:
182,192,120546,1,0,0:0:0:0:
256,192,120586,1,0,0:0:0:0:
329,192,120627,1,0,0:0:0:0:
36,192,120667,1,0,0:0:0:0:
475,192,120667,1,0,0:0:0:0:
402,192,120667,1,0,0:0:0:0:
182,192,120829,1,0,0:0:0:0:
475,192,120991,1,0,0:0:0:0:
329,192,120991,1,0,0:0:0:0:
36,192,121154,1,0,0:0:0:0:
182,192,121154,1,0,0:0:0:0:
475,192,121316,1,0,0:0:0:0:
329,192,121478,1,0,0:0:0:0:
402,192,121478,1,0,0:0:0:0:
109,192,121640,1,0,0:0:0:0:
256,192,121640,1,0,0:0:0:0:
475,192,121843,1,0,0:0:0:0:
402,192,121883,1,0,0:0:0:0:
329,192,121924,1,0,0:0:0:0:
182,192,121964,1,0,0:0:0:0:
36,192,121964,1,0,0:0:0:0:
256,192,122451,1,0,0:0:0:0:
329,192,122505,1,0,0:0:0:0:
402,192,122559,1,0,0:0:0:0:
475,192,122613,1,0,0:0:0:0:
109,192,122613,1,0,0:0:0:0:
36,192,122937,1,0,0:0:0:0:
182,192,123100,1,0,0:0:0:0:
475,192,123262,1,0,0:0:0:0:
329,192,123262,1,0,0:0:0:0:
329,192,124559,1,0,0:0:0:0:
475,192,124600,1,0,0:0:0:0:
109,192,125208,1,0,0:0:0:0:
256,192,125248,1,0,0:0:0:0:
36,192,125856,1,0,0:0:0:0:
329,192,125856,1,0,0:0:0:0:
109,192,125964,1,0,0:0:0:0:
402,192,125964,1,0,0:0:0:0:
475,192,126073,1,0,0:0:0:0:
182,192,126073,1,0,0:0:0:0:
256,192,126181,1,0,0:0:0:0:
36,192,126181,1,0,0:0:0:0:
329,192,126289,1,0,0:0:0:0:
109,192,126289,1,0,0:0:0:0:
402,192,126397,1,0,0:0:0:0:
182,192,126397,1,0,0:0:0:0:
256,192,126505,1,0,0:0:0:0:
36,192,126505,1,0,0:0:0:0:
475,192,126613,1,0,0:0:0:0:
182,192,126613,1,0,0:0:0:0:
402,192,126721,1,0,0:0:0:0:
109,192,126721,1,0,0:0:0:0:
329,192,126829,1,0,0:0:0:0:
36,192,126829,1,0,0:0:0:0:
256,192,126937,1,0,0:0:0:0:
402,192,126937,1,0,0:0:0:0:
475,192,127046,1,0,0:0:0:0:
109,192,127046,1,0,0:0:0:0:
182,192,127154,1,0,0:0:0:0:
329,192,127154,1,0,0:0:0:0:
402,192,127262,1,0,0:0:0:0:
256,192,127262,1,0,0:0:0:0:
36,192,127370,1,0,0:0:0:0:
475,192,127370,1,0,0:0:0:0:
109,192,127478,1,0,0:0:0:0:
329,192,127478,1,0,0:0:0:0:
182,192,127586,1,0,0:0:0:0:
402,192,127586,1,0,0:0:0:0:
256,192,127694,1,0,0:0:0:0:
475,192,127694,1,0,0:0:0:0:
182,192,127802,1,0,0:0:0:0:
402,192,127802,1,0,0:0:0:0:
109,192,127883,1,0,0:0:0:0:
329,192,127883,1,0,0:0:0:0:
36,192,127964,1,0,0:0:0:0:
256,192,127964,1,0,0:0:0:0:
475,192,128046,1,0,0:0:0:0:
182,192,128046,1,0,0:0:0:0:
402,192,128127,1,0,0:0:0:0:
109,192,128127,1,0,0:0:0:0:
329,192,128208,1,0,0:0:0:0:
36,192,128208,1,0,0:0:0:0:
475,192,128289,1,0,0:0:0:0:
256,192,128289,1,0,0:0:0:0:
402,192,128370,1,0,0:0:0:0:
182,192,128370,1,0,0:0:0:0:
109,192,128451,128,0,129748:0:0:0:0:
36,192,128451,128,0,129748:0:0:0:0:
329,192,128451,128,0,129748:0:0:0:0:
256,192,128451,128,0,129748:0:0:0:0:
