osu file format v14

[General]
AudioFilename: audio.mp3
AudioLeadIn: 0
PreviewTime: 66963
Countdown: 0
SampleSet: Soft
StackLeniency: 0.5
Mode: 0
LetterboxInBreaks: 0
WidescreenStoryboard: 0

[Editor]
DistanceSpacing: 1.7
BeatDivisor: 4
GridSize: 16
TimelineZoom: 2.1

[Metadata]
Title:Natsukaze to Kimi no Egao
TitleUnicode:夏風と君の笑顔
Artist:Jun Kuroda
ArtistUnicode:Jun Kuroda
Creator:Respirte
Version:Isolated Memories
Source:
Tags:featured artist fa 初音ミクV3 summerlong ep nostalgia and your cold dnb drum n & and bass vocaloid hatsune miku japanese electronic pop jpop j-pop
BeatmapID:2781233
BeatmapSetID:1342680

[Difficulty]
HPDrainRate:5
CircleSize:3.8
OverallDifficulty:8.8
ApproachRate:9
SliderMultiplier:1.8
SliderTickRate:1

[Events]
//Background and Video events
0,0,"a starry night for seventeen pockets of reticles.jpg",0,0
//Break Periods
2,156042,166277
2,225007,232484
//Storyboard Layer 0 (Background)
//Storyboard Layer 1 (Fail)
//Storyboard Layer 2 (Pass)
//Storyboard Layer 3 (Foreground)
//Storyboard Layer 4 (Overlay)
//Storyboard Sound Samples

[TimingPoints]
1360,344.827586206897,4,2,1,80,1,0
12394,-100,4,2,1,60,0,0
17911,-71.4285714285714,4,2,1,80,0,0
20670,-83.3333333333333,4,2,1,70,0,0
23428,-100,4,2,1,60,0,0
33084,-500,4,2,1,60,0,0
33946,-166.666666666667,4,2,1,60,0,0
34463,-100,4,2,1,60,0,0
42739,-71.4285714285714,4,2,1,60,0,0
44118,-100,4,2,1,60,0,0
45497,-166.666666666667,4,2,1,40,0,0
53773,-166.666666666667,4,2,1,50,0,0
56532,-125,4,2,1,60,0,0
59291,-100,4,2,1,60,0,0
62049,-62.5,4,2,1,80,0,0
64808,-62.5,4,2,1,70,0,0
66187,-125,4,2,1,60,0,0
67222,-71.4285714285714,4,2,1,60,0,0
67566,-83.3333333333333,4,2,1,85,0,1
77049,-66.6666666666667,4,2,1,85,0,1
78299,-66.6666666666667,4,2,1,5,0,1
78601,-83.3333333333333,4,2,1,85,0,1
89291,-66.6666666666667,4,2,1,85,0,1
89334,-66.6666666666667,4,2,1,5,0,1
89635,-166.666666666667,4,2,1,40,0,0
97911,-166.666666666667,4,2,1,50,0,0
100670,-125,4,2,1,60,0,0
111704,-250,4,2,1,30,0,0
121704,-250,4,2,1,40,0,0
122739,-166.666666666667,4,2,1,50,0,0
125497,-142.857142857143,4,2,1,50,0,0
128256,-125,4,2,1,60,0,0
131015,-111.111111111111,4,2,1,70,0,0
132394,-83.3333333333333,4,2,1,80,0,0
133773,-100,4,2,1,60,0,0
155842,-250,4,2,1,60,0,0
165497,-166.666666666667,4,2,1,60,0,0
166187,-250,4,2,1,60,0,0
166877,-100,4,2,1,60,0,0
175153,-71.4285714285714,4,2,1,80,0,0
176532,-100,4,2,1,70,0,0
177911,-166.666666666667,4,2,1,40,0,0
186187,-166.666666666667,4,2,1,50,0,0
188946,-125,4,2,1,60,0,0
191704,-100,4,2,1,60,0,0
194463,-62.5,4,2,1,80,0,0
197222,-62.5,4,2,1,70,0,0
198601,-125,4,2,1,60,0,0
199635,-71.4285714285714,4,2,1,60,0,0
199980,-83.3333333333333,4,2,1,85,0,1
209463,-66.6666666666667,4,2,1,85,0,1
210713,-66.6666666666667,4,2,1,5,0,1
211015,-83.3333333333333,4,2,1,85,0,1
221704,-66.6666666666667,4,2,1,85,0,1
221747,-66.6666666666667,4,2,1,5,0,1
222049,-250.000000000001,4,2,1,50,0,0
233084,-166.666666666667,4,2,1,40,0,0
234463,-153.846153846154,4,2,1,40,0,0
235842,-142.857142857143,4,2,1,45,0,0
237222,-133.333333333333,4,2,1,50,0,0
238601,-125,4,2,1,55,0,0
239980,-117.647058823529,4,2,1,60,0,0
241360,-111.111111111111,4,2,1,65,0,0
242739,-100,4,2,1,70,0,0
243773,-47.6190476190476,4,2,1,70,0,0
244118,-76.9230769230769,4,2,1,85,0,1
253601,-55.5555555555556,4,2,1,85,0,1
254851,-55.5555555555556,4,2,1,5,0,1
255153,-76.9230769230769,4,2,1,85,0,1
265842,-55.5555555555556,4,2,1,85,0,1
265885,-55.5555555555556,4,2,1,5,0,1
266187,-166.666666666667,4,2,1,40,0,0
274463,-166.666666666667,4,2,1,50,0,0
277222,-166.666666666667,4,2,1,40,0,0
279980,-166.666666666667,4,2,1,35,0,0
281360,-166.666666666667,4,2,1,30,0,0
282739,-166.666666666667,4,2,1,40,0,0
285497,-142.857142857143,4,2,1,50,0,0
286877,-125,4,2,1,60,0,0
288256,-250.000000000001,4,2,1,20,0,0

[Colours]
Combo1 : 101,33,228
Combo2 : 51,85,221
Combo3 : 233,46,46
Combo4 : 0,206,206

[HitObjects]
97,16,12049,5,2,0:0:0:0:
95,38,12135,1,2,0:0:0:0:
94,60,12221,1,2,0:0:0:0:
92,83,12307,1,2,0:0:0:0:
91,105,12394,6,0,B|163:100|163:100|201:120|201:120|283:114,1,180,6|8,3:1|0:0,0:0:0:0:
143,192,12911,2,0,L|24:200,1,90,2|2,0:0|0:0,0:0:0:0:
13,118,13256,1,0,3:2:0:0:
112,273,13428,2,0,P|139:226|140:174,1,90,8|2,0:0|0:0,0:0:0:0:
223,276,13773,6,0,B|267:296|320:273|303:261|358:242|407:267,1,180,0|8,3:2|0:0,0:0:0:0:
300,371,14291,1,2,0:0:0:0:
274,376,14377,1,0,0:0:0:0:
248,378,14463,1,2,0:0:0:0:
221,373,14549,1,0,0:0:0:0:
195,363,14635,1,0,3:2:0:0:
142,191,14808,2,0,L|131:280,1,90,8|2,0:0|0:0,0:0:0:0:
26,315,15066,1,0,0:0:0:0:
26,315,15153,6,0,L|51:106,1,180,0|8,3:2|0:0,0:0:0:0:
191,59,15670,2,0,P|147:50|103:60,1,90,2|2,0:0|0:0,0:0:0:0:
48,136,16015,1,0,3:2:0:0:
270,114,16187,2,0,P|285:72|283:27,1,90,8|2,0:0|0:0,0:0:0:0:
150,146,16532,5,0,3:2:0:0:
300,263,16704,1,0,0:0:0:0:
300,263,16791,1,0,0:0:0:0:
300,263,16877,1,8,0:0:0:0:
361,116,17049,1,2,0:0:0:0:
361,106,17135,1,0,0:0:0:0:
361,96,17222,1,2,0:0:0:0:
391,63,17308,1,0,0:0:0:0:
434,52,17394,1,0,3:2:0:0:
476,64,17480,1,0,0:0:0:0:
500,101,17566,1,10,0:0:0:0:
500,124,17653,1,0,0:0:0:0:
501,146,17739,1,0,0:0:0:0:
501,170,17825,1,0,0:0:0:0:
502,194,17911,6,0,L|471:273,1,62.9999980773926,4|0,3:2|0:0,0:0:0:0:
339,177,18084,2,0,L|397:200,1,62.9999980773926,0|0,3:2|0:0,0:0:0:0:
317,340,18256,1,10,0:0:0:0:
140,272,18428,6,0,B|135:201|135:201|154:164|154:164|148:84,1,188.999994232178,6|0,3:2|0:0,0:0:0:0:
47,141,18773,1,4,3:2:0:0:
304,208,18946,1,10,0:0:0:0:
70,356,19118,6,0,P|32:275|38:169,1,188.999994232178,6|0,3:2|0:0,0:0:0:0:
59,52,19463,1,4,3:2:0:0:
220,269,19635,1,10,0:0:0:0:
366,32,19808,6,0,B|428:-15|498:38|498:38|447:76,1,188.999994232178,6|0,3:2|0:0,0:0:0:0:
380,144,20153,1,6,3:2:0:0:
346,151,20239,1,0,3:2:0:0:
312,143,20325,1,10,0:0:0:0:
399,295,20497,1,0,3:2:0:0:
243,47,20670,5,6,3:2:0:0:
141,261,20842,1,0,3:2:0:0:
160,27,21015,5,2,3:2:0:0:
275,282,21187,1,0,3:2:0:0:
76,54,21360,5,2,3:2:0:0:
28,77,21446,1,0,3:2:0:0:
0,122,21532,1,0,3:2:0:0:
0,175,21618,1,0,3:2:0:0:
24,221,21704,1,2,3:2:0:0:
70,247,21791,1,0,3:2:0:0:
123,245,21877,1,0,3:2:0:0:
168,215,21963,1,0,3:2:0:0:
207,178,22049,5,2,3:2:0:0:
256,156,22135,1,0,3:2:0:0:
310,152,22221,1,0,3:2:0:0:
362,164,22307,1,0,3:2:0:0:
407,194,22394,2,0,L|413:284,1,53.9999983520508,10|0,0:0|0:0,0:0:0:0:
487,118,22566,1,0,3:2:0:0:
487,118,22653,1,0,3:2:0:0:
487,118,22739,6,0,L|481:28,1,53.9999983520508,10|0,0:0|0:0,0:0:0:0:
410,248,22911,1,0,3:2:0:0:
396,33,23084,5,10,0:0:0:0:
398,65,23170,1,0,0:0:0:0:
400,97,23256,1,0,3:2:0:0:
402,129,23342,1,0,0:0:0:0:
404,161,23428,6,0,P|333:118|228:138,1,180,4|8,3:1|0:0,0:0:0:0:
157,240,23946,2,0,L|152:146,1,90,2|2,0:0|0:0,0:0:0:0:
79,295,24291,1,0,3:2:0:0:
254,225,24463,2,0,L|258:314,1,90,8|0,0:0|0:0,0:0:0:0:
53,143,24808,6,0,P|97:69|210:69,1,180,0|8,3:2|0:0,0:0:0:0:
258,165,25325,1,2,0:0:0:0:
256,195,25411,1,0,0:0:0:0:
254,225,25497,1,2,0:0:0:0:
253,255,25583,1,0,0:0:0:0:
251,286,25669,1,0,3:2:0:0:
341,130,25842,1,8,0:0:0:0:
166,234,26015,1,0,0:0:0:0:
327,349,26187,6,0,B|390:379|443:340,1,90,0|0,3:2|0:0,0:0:0:0:
464,280,26532,1,8,0:0:0:0:
355,217,26704,2,0,P|339:173|357:94,1,90,2|2,0:0|0:0,0:0:0:0:
395,47,27049,1,0,3:2:0:0:
255,188,27222,1,8,0:0:0:0:
423,158,27394,1,0,0:0:0:0:
246,92,27566,6,0,B|215:87|215:87|189:102|189:102|144:94,1,90,0|0,3:2|0:0,0:0:0:0:
268,15,27911,1,8,0:0:0:0:
174,188,28084,1,2,0:0:0:0:
174,188,28170,1,0,0:0:0:0:
174,188,28256,1,2,0:0:0:0:
62,85,28428,1,0,3:2:0:0:
131,280,28601,1,8,0:0:0:0:
264,147,28773,1,0,0:0:0:0:
264,147,28860,1,0,0:0:0:0:
264,147,28946,6,0,B|305:119|305:119|461:149,1,180,0|8,3:2|0:0,0:0:0:0:
452,322,29463,1,2,0:0:0:0:
322,213,29635,2,0,L|411:230,1,90,2|0,0:0|3:2,0:0:0:0:
281,287,29980,1,8,0:0:0:0:
493,248,30153,1,0,0:0:0:0:
333,360,30325,6,0,B|312:374|312:374|234:359,1,90,0|0,3:2|0:0,0:0:0:0:
150,282,30670,1,8,0:0:0:0:
211,172,30842,2,0,L|227:84,1,90,2|2,0:0|0:0,0:0:0:0:
122,241,31187,2,0,L|138:329,1,90,0|8,3:2|0:0,0:0:0:0:
285,219,31532,1,0,0:0:0:0:
285,219,31618,1,0,0:0:0:0:
285,219,31704,6,0,B|329:165|308:106|308:106|243:126,1,180,0|8,3:2|0:0,0:0:0:0:
328,24,32222,1,2,0:0:0:0:
328,24,32308,1,0,0:0:0:0:
328,24,32394,2,0,P|364:37|394:85,1,90,2|0,0:0|3:2,0:0:0:0:
475,173,32739,1,8,0:0:0:0:
304,106,32911,1,2,0:0:0:0:
397,345,33084,6,0,L|392:292,1,54,8|0,0:1|0:0,0:0:0:0:
221,223,33946,2,0,P|272:207|325:217,1,107.999996704102,0|0,0:2|0:0,0:0:0:0:
179,324,34463,6,0,P|120:251|147:138,1,180,4|8,3:1|0:0,0:0:0:0:
95,37,34980,2,0,L|200:53,1,90,2|2,0:0|0:0,0:0:0:0:
273,68,35325,1,0,3:2:0:0:
126,169,35497,2,0,L|21:153,1,90,8|0,0:0|0:0,0:0:0:0:
221,223,35842,6,0,P|280:150|253:37,1,180,0|8,3:2|0:0,0:0:0:0:
380,168,36360,1,2,0:0:0:0:
365,195,36446,1,0,0:0:0:0:
357,224,36532,1,2,0:0:0:0:
353,254,36618,1,0,0:0:0:0:
356,284,36704,1,0,3:2:0:0:
283,138,36877,1,8,0:0:0:0:
456,244,37049,1,0,0:0:0:0:
270,338,37222,6,0,B|246:342|225:328|231:327|207:311|181:319,1,90,0|0,3:2|0:0,0:0:0:0:
65,351,37566,1,8,0:0:0:0:
125,229,37739,2,0,P|147:174|145:126,1,90,2|2,0:0|0:0,0:0:0:0:
89,63,38084,1,0,3:2:0:0:
249,170,38256,1,8,0:0:0:0:
147,144,38428,1,0,0:0:0:0:
295,76,38601,6,0,P|243:66|200:107,1,90,0|0,3:2|0:0,0:0:0:0:
177,225,38946,1,8,0:0:0:0:
346,170,39118,1,2,0:0:0:0:
346,170,39204,1,0,0:0:0:0:
346,170,39290,1,2,0:0:0:0:
214,86,39462,1,0,3:2:0:0:
329,258,39635,1,8,0:0:0:0:
445,90,39807,1,0,0:0:0:0:
445,90,39894,1,0,0:0:0:0:
445,90,39980,6,0,B|403:32|322:46|322:46|320:90,1,180,0|8,3:2|0:0,0:0:0:0:
226,185,40497,1,2,0:0:0:0:
233,13,40670,2,0,B|229:103,1,90,2|0,0:0|3:2,0:0:0:0:
294,251,41015,1,8,0:0:0:0:
135,171,41187,1,0,0:0:0:0:
159,351,41360,6,0,B|197:301|197:301|132:318|64:295,1,180,0|8,3:2|0:0,0:0:0:0:
25,187,41877,2,0,P|85:177|135:193,1,90,2|2,3:2|0:0,0:0:0:0:
208,291,42222,1,0,3:2:0:0:
173,124,42394,1,8,0:0:0:0:
74,263,42566,1,0,0:0:0:0:
345,204,42739,6,0,B|373:183|373:183|356:66|356:66|385:46,1,188.999994232178,4|0,3:2|0:0,0:0:0:0:
458,117,43084,1,10,0:0:0:0:
206,127,43256,2,0,B|162:122|162:122|202:104|202:104|256:110,1,125.999996154785,6|0,3:2|0:0,0:0:0:0:
309,3,43601,1,6,3:2:0:0:
102,79,43773,1,8,0:0:0:0:
365,128,43946,1,6,3:2:0:0:
182,313,44118,5,2,3:2:0:0:
178,169,44291,1,0,3:2:0:0:
55,329,44463,5,2,3:2:0:0:
300,217,44635,1,0,3:2:0:0:
55,100,44808,5,2,3:2:0:0:
23,70,44894,1,0,3:2:0:0:
27,27,44980,1,0,3:2:0:0:
64,5,45066,1,0,3:2:0:0:
104,21,45153,1,10,3:2:0:0:
149,42,45239,1,0,3:2:0:0:
198,53,45325,1,0,3:2:0:0:
249,54,45411,1,0,3:2:0:0:
298,45,45497,6,0,L|291:117,1,53.9999983520508,6|0,3:1|0:0,0:0:0:0:
381,45,45842,2,0,L|374:117,1,53.9999983520508,2|0,0:0|0:0,0:0:0:0:
470,231,46187,2,0,L|465:178,1,53.9999983520508,2|0,0:0|0:0,0:0:0:0:
387,231,46532,2,0,L|382:178,1,53.9999983520508,2|0,0:0|0:0,0:0:0:0:
298,311,46877,2,0,L|292:364,1,53.9999983520508,2|0,0:0|0:0,0:0:0:0:
381,311,47222,2,0,L|375:364,1,53.9999983520508,2|0,0:0|0:0,0:0:0:0:
470,231,47566,2,0,L|465:178,1,53.9999983520508,2|0,0:0|0:0,0:0:0:0:
387,231,47911,2,0,L|382:178,1,53.9999983520508,2|0,0:0|0:0,0:0:0:0:
215,45,48256,6,0,L|208:117,1,53.9999983520508,2|0,0:0|0:0,0:0:0:0:
298,45,48601,2,0,L|291:117,1,53.9999983520508,2|0,0:0|0:0,0:0:0:0:
387,231,48946,2,0,L|382:178,1,53.9999983520508,2|0,0:0|0:0,0:0:0:0:
304,231,49291,2,0,L|299:178,1,53.9999983520508,2|0,0:0|0:0,0:0:0:0:
215,311,49636,2,0,L|209:364,1,53.9999983520508,2|0,0:0|0:0,0:0:0:0:
298,311,49981,2,0,L|292:364,1,53.9999983520508,2|0,0:0|0:0,0:0:0:0:
387,231,50325,2,0,L|382:178,1,53.9999983520508,2|0,0:0|0:0,0:0:0:0:
304,231,50670,2,0,L|299:178,1,53.9999983520508,2|0,0:0|0:0,0:0:0:0:
132,45,51015,6,0,L|126:98,1,53.9999983520508,2|0,0:0|0:0,0:0:0:0:
215,45,51360,2,0,L|209:98,1,53.9999983520508,2|0,0:0|0:0,0:0:0:0:
304,231,51705,2,0,L|299:178,1,53.9999983520508,2|0,0:0|0:0,0:0:0:0:
221,231,52050,2,0,L|216:178,1,53.9999983520508,2|0,0:0|0:0,0:0:0:0:
132,311,52394,2,0,L|126:364,1,53.9999983520508,2|0,0:0|0:0,0:0:0:0:
215,311,52739,2,0,L|209:364,1,53.9999983520508,2|0,0:0|0:0,0:0:0:0:
304,231,53084,2,0,L|299:178,1,53.9999983520508,2|0,0:0|0:0,0:0:0:0:
221,231,53428,2,0,L|216:178,1,53.9999983520508,2|0,0:0|0:0,0:0:0:0:
49,53,53773,6,0,L|42:125,1,53.9999983520508,2|0,0:0|0:0,0:0:0:0:
132,185,54118,2,0,L|127:132,1,53.9999983520508,2|0,0:0|0:0,0:0:0:0:
57,228,54463,2,0,L|62:281,1,53.9999983520508,2|0,0:0|0:0,0:0:0:0:
138,374,54808,2,0,L|144:321,1,53.9999983520508,2|0,0:0|0:0,0:0:0:0:
185,250,55066,1,0,0:0:0:0:
185,250,55153,6,0,L|211:253,3,26.9999991760254,2|2|2|2,0:0|0:3|0:3|0:3,0:0:0:0:
259,278,55497,2,0,L|285:275,3,26.9999991760254,2|2|2|2,0:0|0:3|0:3|0:3,0:0:0:0:
324,236,55842,5,2,0:0:0:0:
320,205,55928,1,2,0:3:0:0:
307,178,56014,1,2,0:3:0:0:
304,149,56100,1,2,0:3:0:0:
320,124,56187,5,2,0:0:0:0:
356,119,56273,1,2,0:3:0:0:
388,134,56359,1,2,0:3:0:0:
424,132,56445,1,2,0:3:0:0:
446,116,56532,6,0,P|377:91|318:125,1,144,4|8,0:1|0:3,0:0:0:0:
398,283,57049,2,0,L|388:200,1,72
296,312,57394,2,0,L|286:395,1,72,8|0,0:3|0:0,0:0:0:0:
206,276,57739,1,2,0:0:0:0:
206,276,57825,1,0,0:0:0:0:
206,276,57911,6,0,B|170:262|126:276|149:288|104:303|68:288,1,144,8|0,0:3|0:0,0:0:0:0:
107,136,58428,2,0,L|97:219,1,72,10|2,0:3|0:3,0:0:0:0:
47,72,58773,1,8,0:3:0:0:
47,72,58946,2,0,P|81:50|127:53,1,72,8|2,0:3|0:0,0:0:0:0:
216,148,59291,6,0,P|251:157|304:148,1,90,2|0,0:3|0:0,0:0:0:0:
344,69,59635,1,8,0:3:0:0:
268,246,59808,1,0,0:0:0:0:
268,246,59894,1,0,0:0:0:0:
268,246,59980,1,0,0:0:0:0:
96,137,60153,2,0,P|130:125|184:136,1,90,8|0,0:3|0:0,0:0:0:0:
73,241,60497,1,2,0:0:0:0:
73,241,60584,1,0,0:0:0:0:
73,241,60670,5,8,0:3:0:0:
170,347,60842,1,2,0:3:0:0:
197,331,60928,1,2,0:3:0:0:
230,326,61014,1,2,0:0:0:0:
262,330,61100,1,2,0:3:0:0:
291,344,61186,1,8,0:3:0:0:
213,232,61360,1,0,0:0:0:0:
152,375,61532,1,8,0:3:0:0:
356,286,61704,2,0,L|380:282,6,22.5,8|0|0|0|0|0|0,0:3|0:0|0:0|0:0|0:0|0:0|0:0,0:0:0:0:
458,342,62049,6,0,B|485:263|485:263|412:170|412:170|448:65,1,288,0|10,3:2|0:0,0:0:0:0:
308,241,62566,2,0,B|319:208|319:208|379:283|379:283|269:302,1,216,0|0,3:2|0:0,0:0:0:0:
200,229,62911,1,0,3:2:0:0:
469,310,63084,1,10,0:0:0:0:
118,339,63256,6,0,B|77:281|77:281|114:137,1,216,0|0,3:2|0:0,0:0:0:0:
214,135,63601,1,0,3:2:0:0:
13,340,63773,1,10,0:0:0:0:
69,27,63946,1,0,3:2:0:0:
69,27,64291,1,0,3:2:0:0:
304,135,64463,1,10,0:0:0:0:
17,140,64635,1,0,3:2:0:0:
207,91,64808,5,2,3:2:0:0:
177,302,64980,1,0,3:2:0:0:
297,41,65153,5,2,3:2:0:0:
331,302,65325,1,0,3:2:0:0:
49,233,65497,5,2,3:2:0:0:
85,194,65583,1,0,3:2:0:0:
135,173,65669,1,0,3:2:0:0:
188,175,65755,1,0,3:2:0:0:
237,198,65841,1,2,3:2:0:0:
286,221,65928,1,0,3:2:0:0:
339,223,66014,1,0,3:2:0:0:
389,202,66100,1,0,3:2:0:0:
426,164,66187,6,0,L|422:106,1,36,8|0,0:3|0:0,0:0:0:0:
498,230,66360,2,0,L|494:288,1,36,8|0,0:3|0:0,0:0:0:0:
407,130,66532,6,0,L|403:72,1,36,8|0,0:3|0:0,0:0:0:0:
512,274,66704,1,2,0:3:0:0:
509,309,66791,1,8,0:3:0:0:
506,344,66877,1,0,0:0:0:0:
473,314,66963,1,8,0:3:0:0:
432,302,67049,1,2,0:3:0:0:
390,308,67135,1,0,0:0:0:0:
354,332,67222,6,0,L|349:383,1,31.4999990386963,8|0,0:1|0:0,0:0:0:0:
219,95,67566,6,0,B|236:152|236:152|213:233|213:233|232:312,1,215.999993408203,4|8,3:1|0:0,0:0:0:0:
133,157,68084,1,2,0:0:0:0:
133,157,68170,1,0,0:0:0:0:
133,157,68256,1,2,0:0:0:0:
308,239,68428,1,0,3:2:0:0:
84,322,68601,1,8,0:0:0:0:
219,230,68773,1,2,0:0:0:0:
219,230,68860,1,0,0:0:0:0:
219,230,68946,6,0,P|239:180|236:124,1,107.999996704102,0|2,3:2|0:0,0:0:0:0:
160,65,69291,1,8,0:0:0:0:
317,195,69463,1,2,0:0:0:0:
353,214,69549,1,0,0:0:0:0:
393,223,69635,1,2,0:0:0:0:
434,214,69721,1,0,0:0:0:0:
469,193,69807,1,0,3:2:0:0:
306,318,69980,1,8,0:0:0:0:
398,126,70153,1,2,0:0:0:0:
398,126,70239,1,0,0:0:0:0:
398,126,70325,6,0,B|429:95|414:55|414:55|356:116|269:85,1,215.999993408203,2|8,3:2|0:0,0:0:0:0:
397,238,70842,1,2,0:0:0:0:
397,238,70928,1,0,0:0:0:0:
397,238,71015,1,2,0:0:0:0:
415,56,71187,1,0,3:2:0:0:
244,237,71360,1,8,0:0:0:0:
394,341,71532,1,2,0:0:0:0:
394,341,71619,1,0,0:0:0:0:
394,341,71705,6,0,P|453:331|491:295,1,107.999996704102,0|2,3:2|0:0,0:0:0:0:
486,203,72049,1,8,0:0:0:0:
308,307,72222,1,2,0:0:0:0:
272,326,72308,1,0,0:0:0:0:
232,335,72394,1,2,0:0:0:0:
191,326,72480,1,0,0:0:0:0:
156,305,72566,2,0,L|153:245,1,53.9999983520508,0|0,3:2|0:0,0:0:0:0:
52,186,72739,1,8,0:0:0:0:
54,230,72825,1,0,0:0:0:0:
56,273,72911,1,2,0:0:0:0:
58,316,72997,1,0,0:0:0:0:
60,359,73084,6,0,B|13:315|13:315|8:136,1,215.999993408203,2|8,3:2|0:0,0:0:0:0:
154,232,73601,1,2,0:0:0:0:
154,232,73687,1,0,0:0:0:0:
154,232,73773,1,2,0:0:0:0:
8,137,73946,1,0,3:2:0:0:
233,64,74118,1,8,0:0:0:0:
101,156,74291,1,2,0:0:0:0:
101,156,74377,1,0,0:0:0:0:
101,156,74463,6,0,P|70:202|70:270,1,107.999996704102,0|2,3:2|0:0,0:0:0:0:
137,319,74808,1,8,0:0:0:0:
319,227,74980,1,2,0:0:0:0:
283,208,75066,1,0,0:0:0:0:
243,199,75152,1,2,0:0:0:0:
202,208,75238,1,0,0:0:0:0:
167,229,75324,1,0,3:2:0:0:
354,313,75497,1,8,0:0:0:0:
246,124,75670,1,2,0:0:0:0:
246,124,75756,1,0,0:0:0:0:
246,124,75842,6,0,P|239:38|314:96,1,215.999993408203,2|8,3:2|0:0,0:0:0:0:
206,212,76360,1,2,0:0:0:0:
206,212,76446,1,0,0:0:0:0:
206,212,76532,1,2,0:0:0:0:
106,45,76704,1,0,3:2:0:0:
314,160,76877,1,8,0:0:0:0:
63,317,77049,6,0,B|57:267|57:267|80:235|80:235|74:172,1,135.000005149842,2|0,3:2|0:0,0:0:0:0:
161,343,77394,1,2,3:2:0:0:
1,109,77566,1,8,0:0:0:0:
220,246,77739,6,0,B|269:240|269:240|301:263|301:263|364:257,1,135.000005149842,2|0,3:2|0:0,0:0:0:0:
423,179,78084,1,2,3:2:0:0:
161,343,78256,2,0,L|169:390,1,33.7500012874604,8|0,0:0|0:0,0:0:0:0:
148,68,78601,6,0,B|262:36|248:118|367:88,1,215.999993408203,4|8,3:1|0:0,0:0:0:0:
202,172,79118,1,2,0:0:0:0:
202,172,79204,1,0,0:0:0:0:
202,172,79291,1,2,0:0:0:0:
319,4,79463,1,0,3:2:0:0:
379,244,79635,1,8,0:0:0:0:
276,91,79808,1,2,0:0:0:0:
276,91,79894,1,0,0:0:0:0:
276,91,79980,6,0,P|221:61|168:65,1,107.999996704102,0|2,3:2|0:0,0:0:0:0:
97,119,80325,1,8,0:0:0:0:
200,295,80497,1,2,0:0:0:0:
181,259,80583,1,0,0:0:0:0:
172,219,80669,1,2,0:0:0:0:
181,178,80755,1,0,0:0:0:0:
202,144,80841,1,0,3:2:0:0:
71,318,81015,1,8,0:0:0:0:
285,220,81187,1,2,0:0:0:0:
285,220,81273,1,0,0:0:0:0:
285,220,81360,6,0,B|349:187|432:230|432:230|373:314,1,215.999993408203,2|8,3:2|0:0,0:0:0:0:
358,121,81877,1,2,0:0:0:0:
358,121,81963,1,0,0:0:0:0:
358,121,82049,1,2,0:0:0:0:
305,320,82222,1,0,3:2:0:0:
512,194,82394,1,8,0:0:0:0:
258,136,82566,1,2,0:0:0:0:
258,136,82653,1,0,0:0:0:0:
258,136,82739,6,0,P|230:180|243:256,1,107.999996704102,0|2,3:2|0:0,0:0:0:0:
333,327,83084,1,8,0:0:0:0:
153,230,83256,1,2,0:0:0:0:
117,211,83342,1,0,0:0:0:0:
77,202,83428,1,2,0:0:0:0:
36,211,83514,1,0,0:0:0:0:
4,237,83601,2,0,L|6:290,1,53.9999983520508,0|0,3:2|0:0,0:0:0:0:
159,360,83773,1,8,0:0:0:0:
157,316,83859,1,0,0:0:0:0:
155,273,83945,1,2,0:0:0:0:
153,230,84031,1,0,0:0:0:0:
151,187,84118,6,0,B|198:231|198:231|203:410,1,215.999993408203,2|8,3:2|0:0,0:0:0:0:
338,258,84635,1,2,0:0:0:0:
338,258,84722,1,0,0:0:0:0:
338,258,84808,1,2,0:0:0:0:
159,360,84980,1,0,3:2:0:0:
263,145,85153,1,8,0:0:0:0:
258,324,85325,1,2,0:0:0:0:
258,324,85411,1,0,0:0:0:0:
258,324,85497,6,0,P|229:270|225:219,1,107.999996704102,0|2,3:2|0:0,0:0:0:0:
267,136,85842,1,8,0:0:0:0:
451,197,86015,1,2,0:0:0:0:
474,164,86101,1,0,0:0:0:0:
484,125,86187,1,2,0:0:0:0:
474,86,86273,1,0,0:0:0:0:
451,53,86360,1,0,3:2:0:0:
306,227,86532,1,8,0:0:0:0:
232,44,86704,1,0,0:0:0:0:
232,44,86791,1,0,0:0:0:0:
232,44,86877,6,0,L|224:105,1,53.9999983520508,8|0,0:0|0:0,0:0:0:0:
133,262,87049,1,2,3:2:0:0:
130,213,87135,1,0,0:0:0:0:
129,164,87222,1,2,3:2:0:0:
127,115,87308,1,0,0:0:0:0:
125,66,87394,2,0,L|123:11,1,53.9999983520508,8|0,0:0|0:0,0:0:0:0:
232,142,87566,5,2,0:0:0:0:
229,191,87652,1,0,0:0:0:0:
228,240,87739,1,2,3:2:0:0:
226,289,87825,1,0,0:0:0:0:
224,338,87911,1,0,3:2:0:0:
133,262,88084,2,0,L|129:194,1,53.9999983520508,8|0,0:0|0:0,0:0:0:0:
317,317,88256,5,2,0:0:0:0:
373,336,88342,1,0,0:0:0:0:
430,324,88428,1,0,3:2:0:0:
474,285,88514,1,2,0:0:0:0:
492,229,88600,1,8,0:0:0:0:
479,171,88687,1,0,0:0:0:0:
440,128,88773,1,0,3:2:0:0:
384,111,88859,1,2,0:0:0:0:
326,124,88945,1,8,0:0:0:0:
268,155,89032,1,0,0:0:0:0:
204,168,89118,1,0,3:2:0:0:
140,154,89204,1,2,0:0:0:0:
86,116,89291,2,0,L|82:68,1,33.7500012874604,8|0,0:0|0:0,0:0:0:0:
32,218,89635,6,0,L|104:211,1,53.9999983520508,4|0,0:1|0:0,0:0:0:0:
32,301,89980,2,0,L|104:294,1,53.9999983520508,2|0,0:0|0:0,0:0:0:0:
218,384,90325,2,0,L|165:379,1,53.9999983520508,2|0,0:0|0:0,0:0:0:0:
218,301,90670,2,0,L|165:296,1,53.9999983520508,2|0,0:0|0:0,0:0:0:0:
298,218,91015,2,0,L|351:212,1,53.9999983520508,2|0,0:0|0:0,0:0:0:0:
298,301,91360,2,0,L|351:295,1,53.9999983520508,2|0,0:0|0:0,0:0:0:0:
484,384,91704,2,0,L|431:379,1,53.9999983520508,2|0,0:0|0:0,0:0:0:0:
484,301,92049,2,0,L|431:296,1,53.9999983520508,2|0,0:0|0:0,0:0:0:0:
431,213,92394,6,0,L|484:218,1,53.9999983520508,2|0,0:0|0:0,0:0:0:0:
431,296,92739,2,0,L|484:301,1,53.9999983520508,2|0,0:0|0:0,0:0:0:0:
351,212,93083,2,0,L|298:218,1,53.9999983520508,2|0,0:0|0:0,0:0:0:0:
351,129,93428,2,0,L|298:135,1,53.9999983520508,2|0,0:0|0:0,0:0:0:0:
165,213,93773,2,0,L|218:218,1,53.9999983520508,2|0,0:0|0:0,0:0:0:0:
165,296,94118,2,0,L|218:301,1,53.9999983520508,2|0,0:0|0:0,0:0:0:0:
85,212,94463,2,0,L|32:218,1,53.9999983520508,2|0,0:0|0:0,0:0:0:0:
85,129,94808,2,0,L|32:135,1,53.9999983520508,2|0,0:0|0:0,0:0:0:0:
31,52,95153,6,0,L|103:45,1,53.9999983520508,2|0,0:0|0:0,0:0:0:0:
31,135,95498,2,0,L|103:128,1,53.9999983520508,2|0,0:0|0:0,0:0:0:0:
217,218,95843,2,0,L|164:213,1,53.9999983520508,2|0,0:0|0:0,0:0:0:0:
217,135,96188,2,0,L|164:130,1,53.9999983520508,2|0,0:0|0:0,0:0:0:0:
297,52,96533,2,0,L|350:46,1,53.9999983520508,2|0,0:0|0:0,0:0:0:0:
297,135,96878,2,0,L|350:129,1,53.9999983520508,2|0,0:0|0:0,0:0:0:0:
483,218,97222,2,0,L|430:213,1,53.9999983520508,2|0,0:0|0:0,0:0:0:0:
483,135,97567,2,0,L|430:130,1,53.9999983520508,2|0,0:0|0:0,0:0:0:0:
430,47,97911,6,0,L|483:52,1,53.9999983520508,2|0,0:0|0:0,0:0:0:0:
297,135,98256,2,0,L|350:129,1,53.9999983520508,2|0,0:0|0:0,0:0:0:0:
164,47,98601,2,0,L|217:52,1,53.9999983520508,2|0,0:0|0:0,0:0:0:0:
31,135,98946,2,0,L|103:128,1,53.9999983520508,2|0,0:0|0:0,0:0:0:0:
158,163,99204,1,0,0:0:0:0:
158,163,99291,6,0,L|161:189,3,26.9999991760254,2|2|2|2,0:0|0:3|0:3|0:3,0:0:0:0:
186,237,99635,2,0,L|183:263,3,26.9999991760254,2|2|2|2,0:0|0:3|0:3|0:3,0:0:0:0:
168,316,99980,5,2,0:0:0:0:
193,337,100066,1,2,0:3:0:0:
225,348,100152,1,2,0:3:0:0:
261,347,100238,1,2,0:3:0:0:
291,333,100324,5,2,0:0:0:0:
324,309,100411,1,2,0:3:0:0:
366,301,100497,1,2,0:3:0:0:
405,311,100583,1,2,0:3:0:0:
436,344,100670,6,0,P|376:338|349:254,1,144,4|2,0:1|0:0,0:0:0:0:
395,171,101187,1,0,0:0:0:0:
448,239,101360,1,2,0:0:0:0:
313,189,101532,2,0,L|220:184,1,72,0|2,0:0|0:0,0:0:0:0:
153,228,101877,6,0,P|142:193|144:157,1,72,0|2,0:0|0:0,0:0:0:0:
246,103,102222,2,0,P|257:153|252:183,1,72,0|2,0:0|0:0,0:0:0:0:
133,250,102566,2,0,P|122:215|124:179,1,72,0|2,0:0|0:0,0:0:0:0:
270,261,102911,2,0,P|236:272|208:294,1,72,0|2,0:0|0:0,0:0:0:0:
363,303,103256,1,0,0:0:0:0:
363,303,103428,6,0,L|376:214,1,72,2|0,0:0|0:0,0:0:0:0:
455,172,103773,2,0,L|442:83,1,72,2|0,0:0|0:0,0:0:0:0:
371,31,104118,2,0,P|340:48|304:48,1,72,2|0,0:0|0:0,0:0:0:0:
223,18,104463,1,2,0:0:0:0:
155,144,104635,6,0,P|144:194|149:224,1,72,0|2,0:0|0:0,0:0:0:0:
245,258,104980,2,0,P|295:247|325:252,1,72,0|2,0:0|0:0,0:0:0:0:
378,337,105325,2,0,P|328:348|298:343,1,72,0|2,0:0|0:0,0:0:0:0:
200,329,105670,2,0,P|150:318|120:323,1,72,0|2,0:0|0:0,0:0:0:0:
32,369,106015,1,0,0:0:0:0:
48,226,106187,6,0,L|54:140,1,72,2|0,0:0|0:0,0:0:0:0:
134,214,106532,2,0,L|140:128,1,72,2|0,0:0|0:0,0:0:0:0:
220,202,106877,2,0,L|226:116,1,72,2|0,0:0|0:0,0:0:0:0:
306,190,107222,2,0,L|312:104,1,72,2|0,0:0|0:0,0:0:0:0:
392,178,107566,2,0,L|398:92,1,72,2|0,0:0|0:0,0:0:0:0:
478,166,107911,2,0,L|484:80,1,72,2|0,0:0|0:0,0:0:0:0:
396,261,108256,6,0,L|482:249,1,72,2|0,0:0|0:0,0:0:0:0:
471,167,108601,2,0,L|399:176,1,72,2|0,0:0|0:0,0:0:0:0:
461,322,108946,6,0,L|467:251,1,72,2|0,0:0|0:0,0:0:0:0:
376,331,109291,2,0,L|382:260,1,72,2|0,0:0|0:0,0:0:0:0:
212,278,109635,2,0,L|206:349,1,72,2|0,0:0|0:0,0:0:0:0:
297,269,109980,2,0,L|291:340,1,72,2|0,0:0|0:0,0:0:0:0:
121,358,110325,6,0,L|127:287,1,72,2|0,0:0|0:0,0:0:0:0:
36,367,110670,2,0,L|42:296,1,72,2|0,0:0|0:0,0:0:0:0:
212,278,111015,2,0,L|206:349,1,72,2|0,0:0|0:0,0:0:0:0:
297,269,111360,2,0,L|291:340,1,72,2|0,0:0|0:0,0:0:0:0:
256,128,111704,5,4,0:3:0:0:
256,192,111877,12,0,114808,0:0:0:0:
143,236,115153,5,2,0:3:0:0:
242,146,115842,1,2,0:3:0:0:
143,236,116532,5,2,0:3:0:0:
242,146,116877,1,2,0:3:0:0:
227,339,117222,1,2,0:3:0:0:
227,339,118601,5,2,0:3:0:0:
242,146,119118,1,2,0:3:0:0:
227,339,119635,1,2,0:3:0:0:
143,236,119980,5,2,0:3:0:0:
242,146,120670,1,2,0:3:0:0:
227,339,121360,2,0,L|223:391,1,36,2|0,0:3|0:0,0:0:0:0:
224,260,121704,1,0,0:0:0:0:
226,241,121791,1,0,0:0:0:0:
227,223,121877,1,0,0:0:0:0:
228,205,121963,1,0,0:0:0:0:
230,179,122049,1,2,0:3:0:0:
257,196,122135,1,0,0:0:0:0:
288,206,122222,1,0,0:0:0:0:
320,206,122308,1,0,0:0:0:0:
351,197,122394,1,0,0:0:0:0:
380,184,122480,1,0,0:0:0:0:
411,176,122566,1,0,0:0:0:0:
443,180,122653,1,0,0:0:0:0:
468,194,122739,6,0,L|462:266,1,53.9999983520508,4|0,3:2|0:0,0:0:0:0:
375,130,123084,2,0,L|381:202,1,53.9999983520508
448,13,123428,6,0,L|394:17,1,53.9999983520508
512,106,123773,2,0,L|458:101,1,53.9999983520508
309,80,124118,6,0,L|303:8,1,53.9999983520508
216,144,124463,2,0,L|222:72,1,53.9999983520508,0|2,3:2|0:0,0:0:0:0:
223,71,124722,1,0,0:0:0:0:
224,52,124808,1,0,3:2:0:0:
300,156,124980,1,0,0:0:0:0:
137,96,125153,1,0,3:2:0:0:
179,220,125325,1,2,0:0:0:0:
179,220,125411,1,0,0:0:0:0:
179,220,125497,6,0,L|173:283,1,62.9999980773926,0|0,3:2|0:0,0:0:0:0:
163,364,125842,1,8,0:3:0:0:
255,297,126015,1,2,0:0:0:0:
277,285,126101,1,0,0:0:0:0:
302,281,126187,1,2,0:3:0:0:
326,285,126273,1,0,0:0:0:0:
348,298,126359,1,0,0:0:0:0:
399,218,126532,1,8,0:3:0:0:
308,368,126704,1,2,0:0:0:0:
308,368,126791,1,0,0:0:0:0:
308,368,126877,6,0,P|275:379|240:373,1,62.9999980773926,10|0,0:3|0:0,0:0:0:0:
169,311,127222,1,0,3:2:0:0:
83,383,127394,1,8,0:3:0:0:
83,383,127480,1,0,0:0:0:0:
83,383,127566,2,0,L|73:312,1,62.9999980773926,2|0,3:3|0:0,0:0:0:0:
32,221,127911,2,0,L|42:150,1,62.9999980773926,10|2,0:3|0:0,0:0:0:0:
131,46,128256,6,0,B|178:50|178:50|215:77|215:77|274:81,1,144,2|8,3:3|0:3,0:0:0:0:
387,33,128773,1,2,0:0:0:0:
384,60,128859,1,0,0:0:0:0:
381,87,128946,1,2,0:0:0:0:
379,114,129031,1,0,0:0:0:0:
376,141,129117,1,0,0:0:0:0:
467,49,129291,1,8,0:3:0:0:
297,142,129463,1,2,0:0:0:0:
296,141,129549,1,0,0:0:0:0:
296,141,129635,6,0,L|302:212,1,72,10|0,0:3|0:0,0:0:0:0:
388,294,129980,1,2,3:2:0:0:
388,294,130066,1,0,0:0:0:0:
388,294,130153,1,10,0:3:0:0:
398,173,130325,1,0,3:2:0:0:
308,328,130497,1,2,0:0:0:0:
461,233,130670,1,10,3:3:0:0:
255,261,130842,1,2,0:0:0:0:
255,261,130928,1,0,0:0:0:0:
255,261,131015,6,0,L|247:176,1,80.9999975280763,2|0,3:2|0:0,0:0:0:0:
188,349,131360,1,8,0:3:0:0:
78,229,131532,1,2,0:0:0:0:
86,199,131618,1,0,0:0:0:0:
103,175,131704,1,2,0:3:0:0:
127,156,131790,1,0,0:0:0:0:
156,147,131876,1,8,0:3:0:0:
341,46,132049,1,0,0:0:0:0:
298,57,132135,1,0,0:0:0:0:
253,60,132221,1,2,0:0:0:0:
209,53,132307,1,0,0:0:0:0:
168,37,132394,6,0,L|172:1,1,26.9999991760254,10|0,0:1|0:0,0:0:0:0:
100,230,133773,6,0,B|145:222|145:222|213:274|213:274|278:264,1,180,4|8,3:1|0:0,0:0:0:0:
100,321,134291,2,0,P|51:307|17:269,1,90,2|2,0:0|0:0,0:0:0:0:
21,191,134635,1,0,3:2:0:0:
180,250,134808,2,0,B|194:338,1,90,8|2,0:0|0:0,0:0:0:0:
278,255,135153,6,0,B|299:210|283:166|269:165|248:123|269:72,1,180,0|8,3:2|0:0,0:0:0:0:
132,25,135670,1,2,0:0:0:0:
134,51,135756,1,0,0:0:0:0:
135,78,135842,1,2,0:0:0:0:
138,105,135928,1,0,0:0:0:0:
139,132,136014,1,0,3:2:0:0:
278,47,136187,2,0,P|323:35|388:43,1,90,10|0,0:0|0:0,0:0:0:0:
454,108,136446,1,0,0:0:0:0:
454,108,136532,6,0,B|428:159|428:159|445:280,1,180,0|8,3:2|0:0,0:0:0:0:
356,370,137049,2,0,B|343:280,1,90,2|2,0:0|0:0,0:0:0:0:
458,369,137394,1,0,3:2:0:0:
330,195,137566,2,0,B|240:207,1,90,8|2,0:0|0:0,0:0:0:0:
101,348,137911,5,0,3:2:0:0:
145,220,138084,1,0,0:0:0:0:
233,322,138256,1,8,0:0:0:0:
44,261,138428,2,0,P|39:188|81:132,1,135,2|0,0:0|0:0,0:0:0:0:
116,129,138773,1,0,3:2:0:0:
160,295,138946,1,10,0:0:0:0:
200,71,139118,1,0,0:0:0:0:
200,71,139204,1,0,0:0:0:0:
200,71,139291,6,0,B|250:53|288:74|288:74|333:95|387:74,1,180,0|8,3:2|0:0,0:0:0:0:
497,1,139808,2,0,P|475:43|477:105,1,90,2|2,0:0|0:0,0:0:0:0:
510,206,140153,1,0,3:2:0:0:
353,114,140325,2,0,P|310:103|266:112,1,90,8|2,0:0|0:0,0:0:0:0:
245,309,140670,6,0,B|283:325|320:305|320:305|306:192,1,180,0|8,3:2|0:0,0:0:0:0:
438,142,141187,1,2,0:0:0:0:
435,168,141273,1,0,0:0:0:0:
433,195,141359,1,2,0:0:0:0:
430,222,141445,1,0,0:0:0:0:
428,249,141531,1,0,3:2:0:0:
297,123,141704,2,0,P|253:111|209:120,1,90,10|0,0:0|0:0,0:0:0:0:
125,195,141963,1,0,0:0:0:0:
125,195,142049,6,0,L|154:378,1,180,0|8,3:2|0:0,0:0:0:0:
27,301,142566,2,0,L|12:212,1,90,2|2,0:0|0:0,0:0:0:0:
61,125,142911,1,0,3:2:0:0:
111,317,143084,1,8,0:0:0:0:
209,120,143256,6,0,L|223:31,1,90,2|0,3:2|0:0,0:0:0:0:
125,195,143601,1,2,3:2:0:0:
317,145,143774,1,8,0:0:0:0:
127,44,143946,1,2,3:2:0:0:
127,44,144032,1,0,0:0:0:0:
127,44,144118,1,0,0:0:0:0:
232,211,144291,1,2,3:2:0:0:
300,6,144463,1,8,0:0:0:0:
96,121,144635,1,2,0:0:0:0:
312,251,144808,6,0,B|378:274|435:244|435:244|380:193,1,180,4|8,3:1|0:0,0:0:0:0:
333,77,145325,2,0,P|313:118|321:169,1,90,2|2,0:0|0:0,0:0:0:0:
396,207,145670,1,0,3:2:0:0:
221,135,145842,2,0,P|177:128|126:128,1,90,8|2,0:0|0:0,0:0:0:0:
0,236,146187,6,0,P|86:232|181:237,1,180,0|8,3:2|0:0,0:0:0:0:
316,324,146704,1,2,0:0:0:0:
313,298,146791,1,0,0:0:0:0:
311,271,146877,1,2,0:0:0:0:
308,244,146963,1,0,0:0:0:0:
306,217,147049,1,0,3:2:0:0:
205,346,147222,2,0,P|160:349|109:346,1,90,10|0,0:0|0:0,0:0:0:0:
29,283,147480,1,0,0:0:0:0:
29,283,147566,6,0,B|17:166|17:166|46:186|84:190,1,180,0|8,3:2|0:0,0:0:0:0:
174,83,148084,2,0,P|119:80|71:107,1,90,2|2,0:0|0:0,0:0:0:0:
74,188,148428,1,0,3:2:0:0:
248,139,148601,2,0,L|257:245,1,90,8|2,0:0|0:0,0:0:0:0:
377,361,148946,6,0,B|406:305|406:305|395:183,1,180,0|8,3:2|0:0,0:0:0:0:
253,86,149463,1,2,0:0:0:0:
250,112,149549,1,0,0:0:0:0:
248,139,149635,1,2,0:0:0:0:
245,166,149721,1,0,0:0:0:0:
243,193,149807,1,0,3:2:0:0:
382,108,149980,1,10,0:0:0:0:
141,166,150153,1,0,0:0:0:0:
141,166,150239,1,0,0:0:0:0:
141,166,150325,6,0,P|105:226|201:243,1,180,0|8,3:2|0:0,0:0:0:0:
211,99,150842,2,0,P|147:70|107:79,1,90,2|2,0:0|0:0,0:0:0:0:
50,117,151187,1,0,3:2:0:0:
225,6,151360,2,0,P|269:24|328:18,1,90,8|2,0:0|0:0,0:0:0:0:
424,77,151704,6,0,B|384:116|384:116|413:268,1,180,0|8,3:2|0:0,0:0:0:0:
504,369,152222,1,2,0:0:0:0:
477,358,152308,1,0,0:0:0:0:
449,356,152394,1,2,0:0:0:0:
421,363,152480,1,0,0:0:0:0:
397,378,152566,1,0,3:2:0:0:
273,246,152739,2,0,P|310:201|314:153,1,90,10|0,0:0|0:0,0:0:0:0:
221,105,152997,1,0,0:0:0:0:
221,105,153084,6,0,L|217:166,1,45,8|0,0:0|0:0,0:0:0:0:
112,268,153256,1,2,3:2:0:0:
110,229,153342,1,0,0:0:0:0:
109,190,153429,1,2,3:2:0:0:
108,150,153515,1,0,0:0:0:0:
106,111,153601,2,0,L|104:67,1,45,8|0,0:0|0:0,0:0:0:0:
216,182,153773,5,2,0:0:0:0:
214,221,153859,1,0,0:0:0:0:
213,260,153946,1,2,3:2:0:0:
211,299,154032,1,0,0:0:0:0:
210,338,154118,1,0,3:2:0:0:
112,268,154291,2,0,L|110:213,1,45,8|0,0:0|0:0,0:0:0:0:
304,317,154463,5,2,0:0:0:0:
354,334,154549,1,0,0:0:0:0:
406,323,154635,1,0,3:2:0:0:
445,288,154721,1,2,0:0:0:0:
461,238,154807,1,8,0:0:0:0:
450,186,154894,1,0,0:0:0:0:
415,147,154980,1,0,3:2:0:0:
364,132,155066,1,2,0:0:0:0:
312,144,155152,1,8,0:0:0:0:
260,156,155239,1,0,0:0:0:0:
209,141,155325,1,0,3:2:0:0:
174,102,155411,1,2,0:0:0:0:
163,49,155497,2,0,L|181:3,1,45,8|0,0:0|0:0,0:0:0:0:
290,40,155670,2,0,L|255:68,1,45
72,98,155842,5,4,0:1:0:0:
387,107,166877,6,0,B|372:71|314:67|290:117|303:163|345:194,1,180,0|8,3:1|0:0,0:0:0:0:
452,60,167394,2,0,P|416:22|374:6,1,90,2|2,0:0|0:0,0:0:0:0:
282,26,167739,1,0,3:2:0:0:
367,184,167911,2,0,P|385:232|381:276,1,90,8|2,0:0|0:0,0:0:0:0:
158,135,168256,6,0,B|251:122|230:180|355:164,1,180,0|8,3:2|0:0,0:0:0:0:
489,238,168773,1,2,0:0:0:0:
475,261,168859,1,0,0:0:0:0:
471,287,168945,1,2,0:0:0:0:
471,313,169031,1,0,0:0:0:0:
479,338,169117,1,0,3:2:0:0:
314,265,169291,1,8,0:0:0:0:
411,201,169463,1,0,0:0:0:0:
258,352,169635,6,0,B|196:381|138:350,1,90,0|0,3:2|0:0,0:0:0:0:
96,283,169980,1,8,0:0:0:0:
190,162,170153,2,0,P|204:192|204:269,1,90,2|2,0:0|0:0,0:0:0:0:
156,357,170497,1,0,3:2:0:0:
303,186,170670,1,8,0:0:0:0:
112,234,170842,1,2,0:0:0:0:
334,269,171015,6,0,B|365:265|365:265|385:253|385:253|427:249,1,90,0|0,3:2|0:0,0:0:0:0:
505,316,171360,1,8,0:0:0:0:
423,126,171532,2,0,L|439:38,1,90,2|2,0:0|0:0,0:0:0:0:
285,188,171877,2,0,L|301:276,1,90,0|10,3:2|0:0,0:0:0:0:
125,152,172222,1,0,0:0:0:0:
125,152,172308,1,0,0:0:0:0:
125,152,172394,6,0,P|41:140|31:40,1,180,0|8,3:2|0:0,0:0:0:0:
26,238,172911,1,2,0:0:0:0:
108,68,173084,2,0,P|151:57|195:64,1,90,2|0,0:0|3:2,0:0:0:0:
216,242,173428,1,8,0:0:0:0:
151,145,173601,1,2,0:0:0:0:
290,180,173773,6,0,B|356:176|356:176|395:204|395:204|465:199,1,180,0|8,3:2|0:0,0:0:0:0:
464,35,174291,2,0,P|426:73|421:124,1,90,2|0,0:2|0:0,0:0:0:0:
460,199,174635,1,0,3:2:0:0:
325,93,174808,1,10,0:0:0:0:
365,286,174980,1,0,0:0:0:0:
143,135,175153,6,0,B|87:124|87:124|33:249,1,188.999994232178,0|0,3:2|0:0,0:0:0:0:
54,331,175497,1,10,0:0:0:0:
238,221,175670,2,0,L|227:72,1,125.999996154785,0|0,3:2|0:0,0:0:0:0:
144,2,176015,1,2,3:2:0:0:
350,74,176187,1,8,0:0:0:0:
87,123,176360,1,2,3:2:0:0:
323,251,176532,5,2,3:2:0:0:
228,95,176704,1,0,3:2:0:0:
185,298,176877,5,2,3:2:0:0:
350,74,177049,1,0,3:2:0:0:
457,279,177222,5,2,3:2:0:0:
472,321,177308,1,0,3:2:0:0:
454,362,177394,1,0,3:2:0:0:
413,381,177480,1,0,3:2:0:0:
373,365,177567,1,10,3:2:0:0:
328,344,177653,1,0,3:2:0:0:
279,333,177739,1,0,3:2:0:0:
228,332,177825,1,0,3:2:0:0:
179,351,177911,6,0,L|186:279,1,53.9999983520508,6|0,0:1|0:0,0:0:0:0:
96,351,178256,2,0,L|103:279,1,53.9999983520508,2|0,0:0|0:0,0:0:0:0:
7,165,178601,2,0,L|12:218,1,53.9999983520508,2|0,0:0|0:0,0:0:0:0:
90,165,178946,2,0,L|95:218,1,53.9999983520508,2|0,0:0|0:0,0:0:0:0:
179,85,179291,2,0,L|185:32,1,53.9999983520508,2|0,0:0|0:0,0:0:0:0:
96,85,179636,2,0,L|102:32,1,53.9999983520508,2|0,0:0|0:0,0:0:0:0:
7,165,179980,2,0,L|12:218,1,53.9999983520508,2|0,0:0|0:0,0:0:0:0:
90,165,180325,2,0,L|95:218,1,53.9999983520508,2|0,0:0|0:0,0:0:0:0:
262,351,180670,6,0,L|269:279,1,53.9999983520508,2|0,0:0|0:0,0:0:0:0:
179,351,181015,2,0,L|186:279,1,53.9999983520508,2|0,0:0|0:0,0:0:0:0:
90,165,181360,2,0,L|95:218,1,53.9999983520508,2|0,0:0|0:0,0:0:0:0:
173,165,181705,2,0,L|178:218,1,53.9999983520508,2|0,0:0|0:0,0:0:0:0:
262,85,182050,2,0,L|268:32,1,53.9999983520508,2|0,0:0|0:0,0:0:0:0:
179,85,182395,2,0,L|185:32,1,53.9999983520508,2|0,0:0|0:0,0:0:0:0:
90,165,182739,2,0,L|95:218,1,53.9999983520508,2|0,0:0|0:0,0:0:0:0:
173,165,183084,2,0,L|178:218,1,53.9999983520508,2|0,0:0|0:0,0:0:0:0:
345,351,183429,6,0,L|351:298,1,53.9999983520508,2|0,0:0|0:0,0:0:0:0:
262,351,183774,2,0,L|268:298,1,53.9999983520508,2|0,0:0|0:0,0:0:0:0:
173,165,184119,2,0,L|178:218,1,53.9999983520508,2|0,0:0|0:0,0:0:0:0:
256,165,184464,2,0,L|261:218,1,53.9999983520508,2|0,0:0|0:0,0:0:0:0:
345,85,184809,2,0,L|351:32,1,53.9999983520508,2|0,0:0|0:0,0:0:0:0:
262,85,185154,2,0,L|268:32,1,53.9999983520508,2|0,0:0|0:0,0:0:0:0:
173,165,185498,2,0,L|178:218,1,53.9999983520508,2|0,0:0|0:0,0:0:0:0:
256,165,185843,2,0,L|261:218,1,53.9999983520508,2|0,0:0|0:0,0:0:0:0:
428,351,186187,6,0,L|435:279,1,53.9999983520508,2|0,0:0|0:0,0:0:0:0:
339,165,186532,2,0,L|344:218,1,53.9999983520508,2|0,0:0|0:0,0:0:0:0:
427,218,186877,2,0,L|422:165,1,53.9999983520508,2|0,0:0|0:0,0:0:0:0:
328,32,187222,2,0,L|322:85,1,53.9999983520508,2|0,0:0|0:0,0:0:0:0:
264,142,187480,1,0,0:0:0:0:
264,142,187566,6,0,L|237:139,3,26.9999991760254,2|2|2|2,0:0|0:3|0:3|0:3,0:0:0:0:
190,114,187911,2,0,L|163:117,3,26.9999991760254,2|2|0|0,0:0|0:3|0:0|0:0,0:0:0:0:
126,158,188256,5,2,0:0:0:0:
115,189,188342,1,2,0:3:0:0:
122,221,188428,1,2,0:3:0:0:
143,246,188514,1,2,0:3:0:0:
176,263,188601,5,2,0:0:0:0:
213,262,188687,1,2,0:3:0:0:
248,245,188773,1,2,0:3:0:0:
269,214,188859,1,2,0:3:0:0:
281,181,188946,6,0,P|218:200|175:276,1,144,4|8,3:1|0:3,0:0:0:0:
304,358,189463,2,0,L|219:349,1,72
380,293,189808,2,0,L|465:284,1,72,8|0,0:3|0:0,0:0:0:0:
315,210,190153,1,2,0:0:0:0:
315,210,190239,1,0,0:0:0:0:
315,210,190325,6,0,B|298:172|315:127|323:149|342:97|323:63,1,144,8|0,0:3|0:0,0:0:0:0:
175,107,190842,2,0,P|209:92|262:104,1,72,8|2,0:3|0:3,0:0:0:0:
125,190,191187,1,8,0:3:0:0:
125,190,191360,2,0,P|90:204|37:192,1,72,8|2,0:3|0:0,0:0:0:0:
63,22,191704,6,0,L|79:136,1,90,2|0,0:3|0:0,0:0:0:0:
97,236,192049,1,8,0:3:0:0:
233,180,192222,1,0,0:0:0:0:
233,180,192308,1,0,0:0:0:0:
233,180,192394,1,0,0:0:0:0:
119,319,192566,2,0,P|95:275|102:216,1,90,8|0,0:3|0:0,0:0:0:0:
251,344,192911,1,2,0:0:0:0:
251,344,192997,1,0,0:0:0:0:
251,344,193084,5,8,0:3:0:0:
345,213,193256,1,2,0:3:0:0:
318,197,193342,1,2,0:3:0:0:
285,192,193428,1,2,0:0:0:0:
253,196,193514,1,2,0:3:0:0:
224,210,193600,1,8,0:3:0:0:
301,97,193774,1,0,0:0:0:0:
363,237,193946,1,8,0:3:0:0:
154,152,194118,2,0,L|130:148,6,22.5,8|0|0|0|2|0|0,0:3|0:0|0:0|0:0|0:0|0:0|0:0,0:0:0:0:
65,83,194463,6,0,B|43:160|43:160|88:243|88:243|78:279|78:279|37:216,1,288,0|10,3:2|0:0,0:0:0:0:
245,272,194980,2,0,B|290:246|290:246|182:226|182:226|226:275,1,216,0|0,3:2|0:0,0:0:0:0:
216,368,195325,1,0,3:2:0:0:
260,120,195497,1,10,0:0:0:0:
445,381,195670,6,0,B|479:322|479:322|404:187,1,216,0|0,3:2|0:0,0:0:0:0:
483,114,196015,1,0,3:2:0:0:
355,324,196187,1,10,0:0:0:0:
370,8,196360,1,0,3:2:0:0:
370,8,196704,1,0,3:2:0:0:
216,156,196876,1,10,0:0:0:0:
475,109,197048,1,0,3:2:0:0:
266,55,197221,5,2,3:2:0:0:
296,266,197393,1,0,3:2:0:0:
162,7,197566,5,2,3:2:0:0:
125,281,197738,1,0,3:2:0:0:
338,93,197911,5,2,3:2:0:0:
396,70,197997,1,0,3:2:0:0:
456,82,198083,1,0,3:2:0:0:
500,127,198169,1,0,3:2:0:0:
512,187,198255,1,2,3:2:0:0:
488,245,198342,1,0,3:2:0:0:
437,280,198428,1,0,3:2:0:0:
375,280,198514,1,0,3:2:0:0:
323,246,198601,6,0,L|327:188,1,36,8|0,0:3|0:0,0:0:0:0:
221,270,198774,2,0,L|225:328,1,36,8|0,0:3|0:0,0:0:0:0:
342,212,198946,6,0,L|346:154,1,36,8|0,0:3|0:0,0:0:0:0:
207,314,199118,1,2,0:3:0:0:
210,349,199205,1,8,0:3:0:0:
213,384,199291,1,0,0:0:0:0:
246,350,199377,1,8,0:3:0:0:
286,336,199463,1,2,0:3:0:0:
329,340,199549,1,0,0:0:0:0:
361,370,199636,6,0,L|366:323,1,31.4999990386963,8|0,0:1|0:0,0:0:0:0:
124,142,199980,6,0,B|164:128|206:144|206:144|243:161|243:161|290:180|345:157,1,215.999993408203,4|8,3:1|0:0,0:0:0:0:
170,238,200497,1,2,0:0:0:0:
170,238,200584,1,0,0:0:0:0:
170,238,200670,1,2,0:0:0:0:
283,80,200842,1,0,3:2:0:0:
315,305,201015,1,8,0:0:0:0:
88,203,201187,1,2,0:0:0:0:
88,203,201273,1,0,0:0:0:0:
88,203,201360,6,0,P|48:258|63:323,1,107.999996704102,0|2,3:2|0:0,0:0:0:0:
98,97,201704,1,8,0:0:0:0:
242,184,201877,1,2,0:0:0:0:
278,203,201963,1,0,0:0:0:0:
318,212,202049,1,2,0:0:0:0:
359,203,202135,1,0,0:0:0:0:
394,182,202221,1,0,3:2:0:0:
218,290,202394,1,8,0:0:0:0:
319,105,202566,1,2,0:0:0:0:
319,105,202653,1,0,0:0:0:0:
319,105,202739,6,0,B|336:61|317:21|317:21|379:58|452:36,1,215.999993408203,2|8,3:2|0:0,0:0:0:0:
394,182,203256,1,2,0:0:0:0:
394,182,203342,1,0,0:0:0:0:
394,182,203428,1,2,0:0:0:0:
236,66,203601,1,0,3:2:0:0:
241,301,203773,1,8,0:0:0:0:
427,263,203946,1,2,0:0:0:0:
427,263,204032,1,0,0:0:0:0:
427,263,204118,6,0,P|368:268|319:222,1,107.999996704102,0|2,3:2|0:0,0:0:0:0:
311,135,204463,1,8,0:0:0:0:
156,269,204635,1,2,0:0:0:0:
120,288,204721,1,0,0:0:0:0:
80,297,204807,1,2,0:0:0:0:
39,288,204893,1,0,0:0:0:0:
4,267,204980,2,0,L|1:207,1,53.9999983520508,0|0,3:2|0:0,0:0:0:0:
126,158,205153,1,8,0:0:0:0:
124,202,205239,1,0,0:0:0:0:
122,245,205325,1,2,0:0:0:0:
120,288,205411,1,0,0:0:0:0:
118,331,205498,6,0,B|165:287|165:287|170:108,1,215.999993408203,2|8,3:2|0:0,0:0:0:0:
9,188,206015,1,2,0:0:0:0:
9,188,206101,1,0,0:0:0:0:
9,188,206187,1,2,0:0:0:0:
142,46,206360,1,0,3:2:0:0:
198,276,206532,1,8,0:0:0:0:
113,150,206704,1,2,0:0:0:0:
113,150,206791,1,0,0:0:0:0:
113,150,206877,6,0,P|163:127|218:128,1,107.999996704102,0|2,3:2|0:0,0:0:0:0:
292,187,207222,1,8,0:0:0:0:
453,61,207394,1,2,0:0:0:0:
423,90,207480,1,0,0:0:0:0:
411,130,207566,1,2,0:0:0:0:
421,170,207652,1,0,0:0:0:0:
450,200,207738,1,0,3:2:0:0:
318,55,207911,1,8,0:0:0:0:
279,296,208084,1,2,0:0:0:0:
279,296,208170,1,0,0:0:0:0:
279,296,208256,6,0,B|227:309|180:291|181:268|129:246|68:268,1,215.999993408203,2|8,3:2|0:0,0:0:0:0:
238,207,208773,1,2,0:0:0:0:
238,207,208860,1,0,0:0:0:0:
238,207,208946,1,2,0:0:0:0:
112,355,209118,1,0,3:2:0:0:
55,123,209291,1,8,0:0:0:0:
324,246,209463,6,0,B|360:205|360:205|336:98,1,135.000005149842,2|0,3:2|0:0,0:0:0:0:
384,311,209808,1,2,3:2:0:0:
324,48,209980,1,8,0:0:0:0:
158,245,210153,6,0,B|179:194|179:194|285:169,1,135.000005149842,2|0,3:2|0:0,0:0:0:0:
387,211,210497,1,2,3:2:0:0:
92,168,210670,2,0,B|87:134,1,33.7500012874604,8|0,0:0|0:0,0:0:0:0:
298,323,211015,6,0,P|375:386|472:331,1,215.999993408203,4|8,3:1|0:0,0:0:0:0:
393,168,211532,1,2,0:0:0:0:
393,168,211618,1,0,0:0:0:0:
393,168,211704,1,2,0:0:0:0:
385,297,211877,1,0,3:2:0:0:
468,75,212049,1,8,0:0:0:0:
297,161,212222,1,2,0:0:0:0:
297,161,212308,1,0,0:0:0:0:
297,161,212394,6,0,P|242:174|181:150,1,107.999996704102,0|2,3:2|0:0,0:0:0:0:
128,75,212739,1,8,0:0:0:0:
21,211,212911,1,2,0:0:0:0:
58,231,212997,1,0,0:0:0:0:
80,267,213083,1,2,0:0:0:0:
80,308,213169,1,0,0:0:0:0:
60,344,213255,1,0,3:2:0:0:
151,153,213428,1,8,0:0:0:0:
323,317,213601,1,2,0:0:0:0:
323,317,213687,1,0,0:0:0:0:
323,317,213773,6,0,B|423:351|468:266|468:266|449:204,1,215.999993408203,2|8,3:2|0:0,0:0:0:0:
405,66,214291,1,2,0:0:0:0:
405,66,214377,1,0,0:0:0:0:
405,66,214463,1,2,0:0:0:0:
286,219,214635,1,0,3:2:0:0:
511,140,214808,1,8,0:0:0:0:
255,90,214980,1,2,0:0:0:0:
255,90,215066,1,0,0:0:0:0:
255,90,215153,6,0,P|232:136|245:196,1,107.999996704102,0|2,3:2|0:0,0:0:0:0:
349,278,215497,1,8,0:0:0:0:
175,148,215670,1,2,0:0:0:0:
139,129,215756,1,0,0:0:0:0:
99,120,215842,1,2,0:0:0:0:
58,129,215928,1,0,0:0:0:0:
26,155,216015,2,0,L|28:208,1,53.9999983520508,0|0,3:2|0:0,0:0:0:0:
181,278,216187,1,8,0:0:0:0:
179,234,216273,1,0,0:0:0:0:
177,191,216359,1,2,0:0:0:0:
175,148,216445,1,0,0:0:0:0:
173,105,216532,6,0,B|220:149|220:149|225:328,1,215.999993408203,2|8,3:2|0:0,0:0:0:0:
104,206,217049,1,2,0:0:0:0:
104,206,217135,1,0,0:0:0:0:
104,206,217222,1,2,0:0:0:0:
223,382,217394,1,0,3:2:0:0:
256,125,217566,1,8,0:0:0:0:
187,276,217739,1,2,0:0:0:0:
187,276,217825,1,0,0:0:0:0:
187,276,217911,6,0,P|235:299|288:294,1,107.999996704102,0|2,3:2|0:0,0:0:0:0:
353,222,218256,1,8,0:0:0:0:
460,356,218428,1,2,0:0:0:0:
479,320,218514,1,0,0:0:0:0:
488,280,218600,1,2,0:0:0:0:
479,239,218686,1,0,0:0:0:0:
458,204,218772,1,0,3:2:0:0:
288,294,218946,1,8,0:0:0:0:
412,95,219118,1,0,0:0:0:0:
412,95,219204,1,0,0:0:0:0:
412,95,219291,6,0,L|351:103,1,53.9999983520508,8|0,0:0|0:0,0:0:0:0:
208,194,219463,1,2,3:2:0:0:
257,197,219549,1,0,0:0:0:0:
306,198,219636,1,2,3:2:0:0:
355,200,219722,1,0,0:0:0:0:
404,202,219808,2,0,L|459:204,1,53.9999983520508,8|0,0:0|0:0,0:0:0:0:
314,93,219980,5,2,0:0:0:0:
265,96,220066,1,0,0:0:0:0:
216,97,220153,1,2,3:2:0:0:
167,99,220239,1,0,0:0:0:0:
118,101,220325,1,0,3:2:0:0:
208,194,220498,2,0,L|263:196,1,53.9999983520508,8|0,0:0|0:0,0:0:0:0:
132,24,220670,5,2,0:0:0:0:
69,19,220756,1,0,0:0:0:0:
22,61,220842,1,0,3:2:0:0:
17,123,220928,1,2,0:0:0:0:
55,170,221014,1,8,0:0:0:0:
117,181,221101,1,0,0:0:0:0:
177,163,221187,1,0,3:2:0:0:
239,175,221273,1,2,0:0:0:0:
278,222,221359,1,8,0:0:0:0:
273,284,221445,1,0,0:0:0:0:
226,326,221531,1,0,3:2:0:0:
163,321,221617,1,2,0:0:0:0:
124,270,221704,2,0,L|125:226,1,33.7500012874604,8|0,0:0|0:0,0:0:0:0:
499,61,222049,6,0,B|427:58|314:152|314:152|445:215|445:215|436:62|367:16,1,576,4|0,0:1|0:0,0:0:0:0:
355,282,233084,6,0,P|307:297|250:280,1,107.999996704102,0|8,3:2|0:3,0:0:0:0:
170,174,233601,2,0,L|171:230,1,53.9999983520508
171,337,233946,1,0,0:0:0:0:
252,281,234118,1,8,0:3:0:0:
92,309,234291,1,2,0:0:0:0:
92,309,234377,1,0,0:0:0:0:
92,309,234463,6,0,P|66:252|65:183,1,116.999994644165,8|0,0:3|3:2,0:0:0:0:
163,100,234980,2,0,L|88:100,1,58.4999973220826,8|0,0:3|3:2,0:0:0:0:
0,139,235325,1,0,0:0:0:0:
53,35,235497,1,8,3:3:0:0:
104,100,235670,1,2,0:0:0:0:
212,36,235842,6,0,P|271:20|337:36,1,125.999996154785,0|8,3:2|0:3,0:0:0:0:
417,158,236360,1,0,0:0:0:0:
417,158,236446,1,0,0:0:0:0:
417,158,236532,2,0,L|417:95,1,62.9999980773926
417,0,236877,1,8,0:3:0:0:
300,108,237049,1,2,0:0:0:0:
300,108,237135,1,0,0:0:0:0:
300,108,237222,6,0,P|338:162|323:251,1,135.000005149842,8|0,0:3|3:2,0:0:0:0:
179,185,237739,2,0,L|248:185,1,67.5000025749208,8|0,0:3|3:2,0:0:0:0:
320,264,238084,1,8,0:3:0:0:
161,293,238256,1,8,0:3:0:0:
260,384,238428,1,2,0:0:0:0:
260,384,238515,1,0,0:0:0:0:
260,384,238601,6,0,L|260:307,1,72,0|0,3:2|0:0,0:0:0:0:
180,200,238946,1,8,0:3:0:0:
301,123,239118,1,2,0:0:0:0:
325,111,239204,1,0,0:0:0:0:
352,107,239291,1,2,0:0:0:0:
378,111,239377,1,0,0:0:0:0:
403,123,239463,2,0,L|394:237,1,108,8|0,0:3|0:0,0:0:0:0:
450,318,239808,1,2,0:0:0:0:
450,318,239894,1,0,0:0:0:0:
450,318,239980,6,0,L|364:327,1,76.5000014591217,8|0,0:3|0:0,0:0:0:0:
235,371,240325,1,2,3:2:0:0:
301,205,240497,1,8,0:3:0:0:
301,205,240584,1,0,0:0:0:0:
301,205,240670,1,0,3:2:0:0:
464,319,240842,1,8,0:3:0:0:
267,285,241015,2,0,L|243:281,6,19.1250003647804,8|0|0|0|2|0|0,3:3|0:0|0:0|0:0|0:0|0:0|0:0,0:0:0:0:
151,327,241360,6,0,L|137:244,1,80.9999975280763,0|0,3:2|0:0,0:0:0:0:
113,103,241704,1,8,0:3:0:0:
239,183,241877,1,2,0:0:0:0:
267,201,241963,1,0,0:0:0:0:
301,205,242049,1,2,0:0:0:0:
332,200,242135,1,0,0:0:0:0:
358,183,242222,1,8,0:3:0:0:
453,79,242394,1,0,0:0:0:0:
456,112,242480,1,0,0:0:0:0:
459,144,242566,1,2,0:0:0:0:
461,177,242652,1,0,0:0:0:0:
464,209,242739,6,0,L|469:272,1,45,8|0,0:3|0:0,0:0:0:0:
342,153,242912,2,0,L|345:89,1,45,8|0,0:3|0:0,0:0:0:0:
484,245,243084,6,0,L|489:308,1,45,8|0,0:3|0:0,0:0:0:0:
320,110,243256,1,2,0:3:0:0:
322,62,243343,1,8,0:3:0:0:
357,22,243428,1,0,0:0:0:0:
405,24,243515,1,8,0:3:0:0:
445,59,243601,1,2,0:3:0:0:
443,107,243688,1,0,0:0:0:0:
381,131,243773,2,0,L|383:80,6,47.2499985580445,8|0|0|0|0|0|0,0:1|0:0|0:0|0:0|0:0|0:0|0:0,0:0:0:0:
314,249,244118,6,0,P|209:301|105:239,1,233.999989288331,4|8,3:1|0:0,0:0:0:0:
86,68,244635,1,2,0:0:0:0:
86,68,244722,1,0,0:0:0:0:
86,68,244808,1,2,0:0:0:0:
211,194,244980,1,0,3:2:0:0:
14,363,245153,1,8,0:0:0:0:
59,198,245325,1,2,0:0:0:0:
59,198,245411,1,0,0:0:0:0:
59,198,245497,6,0,P|110:223|195:198,1,116.999994644165,0|2,3:2|0:0,0:0:0:0:
228,114,245842,1,8,0:0:0:0:
322,303,246015,1,2,0:0:0:0:
361,328,246101,1,0,0:0:0:0:
407,336,246187,1,2,0:0:0:0:
452,327,246273,1,0,0:0:0:0:
491,301,246359,1,0,3:2:0:0:
400,137,246532,1,8,0:0:0:0:
227,293,246704,1,2,0:0:0:0:
227,293,246791,1,0,0:0:0:0:
227,293,246877,6,0,B|173:333|173:333|94:275|127:180,1,233.999989288331,2|8,3:2|0:0,0:0:0:0:
294,233,247394,1,2,0:0:0:0:
294,233,247480,1,0,0:0:0:0:
294,233,247566,1,2,0:0:0:0:
102,321,247739,1,0,3:2:0:0:
181,64,247911,1,8,0:0:0:0:
366,187,248084,1,2,0:0:0:0:
366,187,248170,1,0,0:0:0:0:
366,187,248256,6,0,P|303:146|253:153,1,116.999994644165,0|2,3:2|0:0,0:0:0:0:
157,212,248601,1,8,0:0:0:0:
218,36,248773,1,2,0:0:0:0:
257,11,248859,1,0,0:0:0:0:
303,3,248945,1,2,0:0:0:0:
348,12,249031,1,0,0:0:0:0:
387,38,249118,2,0,L|382:111,1,58.4999973220826,0|0,3:2|0:0,0:0:0:0:
461,200,249291,1,8,0:0:0:0:
463,152,249377,1,0,0:0:0:0:
465,105,249463,1,2,0:0:0:0:
467,58,249549,1,0,0:0:0:0:
469,10,249636,6,0,B|511:57|511:57|501:236,1,233.999989288331,2|8,3:2|0:0,0:0:0:0:
385,126,250153,1,2,0:0:0:0:
385,126,250239,1,0,0:0:0:0:
385,126,250325,1,2,0:0:0:0:
451,300,250497,1,0,3:2:0:0:
207,214,250670,1,8,0:0:0:0:
353,327,250842,1,2,0:0:0:0:
353,327,250928,1,0,0:0:0:0:
353,327,251015,6,0,P|375:273|374:215,1,116.999994644165,0|2,3:2|0:0,0:0:0:0:
300,124,251360,1,8,0:0:0:0:
170,288,251532,1,2,0:0:0:0:
131,313,251618,1,0,0:0:0:0:
85,321,251704,1,2,0:0:0:0:
40,312,251790,1,0,0:0:0:0:
2,286,251876,1,0,3:2:0:0:
89,119,252049,1,8,0:0:0:0:
253,331,252222,1,2,0:0:0:0:
253,331,252308,1,0,0:0:0:0:
253,331,252394,6,0,B|308:350|367:329|354:306|417:275|477:305,1,233.999989288331,2|8,3:2|0:0,0:0:0:0:
297,246,252911,1,2,0:0:0:0:
297,246,252997,1,0,0:0:0:0:
297,246,253084,1,2,0:0:0:0:
427,379,253256,1,0,3:2:0:0:
457,124,253428,1,8,0:0:0:0:
253,331,253601,6,0,B|221:358|221:358|140:351|140:351|182:316,1,161.999995056153,2|0,3:2|0:0,0:0:0:0:
142,165,253946,1,2,3:2:0:0:
436,294,254118,1,8,0:0:0:0:
137,248,254291,6,0,B|110:216|110:216|117:135|117:135|152:177,1,161.999995056153,2|0,3:2|0:0,0:0:0:0:
294,74,254635,1,2,3:2:0:0:
134,357,254808,2,0,B|90:363,1,40.4999987640381,8|0,0:0|0:0,0:0:0:0:
467,325,255153,6,0,B|386:306|386:306|331:349|331:349|229:325,1,233.999989288331,4|8,3:1|0:0,0:0:0:0:
211,153,255670,1,2,0:0:0:0:
211,153,255756,1,0,0:0:0:0:
211,153,255842,1,2,0:0:0:0:
144,365,256015,1,0,3:2:0:0:
370,220,256187,1,8,0:0:0:0:
168,261,256360,1,2,0:0:0:0:
168,261,256446,1,0,0:0:0:0:
168,261,256532,6,0,P|88:239|54:195,1,116.999994644165,0|2,3:2|0:0,0:0:0:0:
70,98,256877,1,8,0:0:0:0:
290,191,257049,1,2,0:0:0:0:
287,238,257135,1,0,0:0:0:0:
284,285,257221,1,2,0:0:0:0:
282,332,257307,1,0,0:0:0:0:
279,380,257393,1,0,3:2:0:0:
166,174,257566,1,8,0:0:0:0:
407,318,257739,1,2,0:0:0:0:
407,318,257825,1,0,0:0:0:0:
407,318,257911,6,0,B|462:337|462:337|550:279|500:161,1,233.999989288331,2|8,3:2|0:0,0:0:0:0:
392,55,258428,1,2,0:0:0:0:
392,55,258515,1,0,0:0:0:0:
392,55,258601,1,2,0:0:0:0:
422,239,258773,1,0,3:2:0:0:
495,17,258946,1,8,0:0:0:0:
321,253,259118,1,2,0:0:0:0:
321,253,259204,1,0,0:0:0:0:
321,253,259291,6,0,P|257:274|192:247,1,116.999994644165,0|2,3:2|0:0,0:0:0:0:
122,110,259635,1,8,0:0:0:0:
40,330,259808,1,2,0:0:0:0:
11,300,259894,1,0,0:0:0:0:
1,260,259980,1,2,0:0:0:0:
13,220,260066,1,0,0:0:0:0:
43,191,260153,2,0,L|109:204,1,58.4999973220826,0|0,3:2|0:0,0:0:0:0:
197,118,260325,1,8,0:0:0:0:
149,107,260411,1,0,0:0:0:0:
103,98,260497,1,2,0:0:0:0:
57,89,260583,1,0,0:0:0:0:
10,80,260670,6,0,B|62:45|62:45|238:83,1,233.999989288331,2|8,3:2|0:0,0:0:0:0:
129,213,261187,1,2,0:0:0:0:
129,213,261273,1,0,0:0:0:0:
129,213,261360,1,2,0:0:0:0:
226,1,261532,1,0,3:2:0:0:
266,254,261704,1,8,0:0:0:0:
379,121,261877,1,2,0:0:0:0:
379,121,261963,1,0,0:0:0:0:
379,121,262049,6,0,P|299:134|263:178,1,116.999994644165,0|2,3:2|0:0,0:0:0:0:
269,274,262394,1,8,0:0:0:0:
468,207,262566,1,2,0:0:0:0:
493,168,262652,1,0,0:0:0:0:
503,122,262739,1,2,0:0:0:0:
493,77,262824,1,0,0:0:0:0:
468,38,262910,1,0,3:2:0:0:
351,208,263084,1,8,0:0:0:0:
164,85,263256,1,0,0:0:0:0:
164,85,263342,1,0,0:0:0:0:
164,85,263428,6,0,L|232:87,1,58.4999973220826,8|0,0:0|0:0,0:0:0:0:
351,208,263601,1,2,3:2:0:0:
296,213,263687,1,0,0:0:0:0:
242,215,263774,1,2,3:2:0:0:
188,219,263860,1,0,0:0:0:0:
135,221,263946,2,0,L|67:224,1,58.4999973220826,8|0,0:0|0:0,0:0:0:0:
202,102,264118,5,2,0:0:0:0:
256,107,264204,1,0,0:0:0:0:
310,109,264291,1,2,3:2:0:0:
364,113,264377,1,0,0:0:0:0:
418,115,264463,1,0,3:2:0:0:
333,16,264635,2,0,L|265:19,1,58.4999973220826,8|0,0:0|0:0,0:0:0:0:
99,158,264808,5,2,0:0:0:0:
76,223,264894,1,0,0:0:0:0:
98,288,264980,1,0,3:2:0:0:
155,326,265066,1,2,0:0:0:0:
224,320,265152,1,8,0:0:0:0:
274,273,265239,1,0,0:0:0:0:
284,205,265325,1,0,3:2:0:0:
259,141,265411,1,2,0:0:0:0:
269,74,265497,1,8,0:0:0:0:
319,27,265584,1,0,0:0:0:0:
388,21,265670,1,0,3:2:0:0:
445,59,265756,1,2,0:0:0:0:
467,124,265842,2,0,L|461:169,1,40.4999987640381,8|0,0:0|0:0,0:0:0:0:
130,140,266187,6,0,L|202:133,1,53.9999983520508,6|0,3:1|0:0,0:0:0:0:
130,223,266532,2,0,L|202:216,1,53.9999983520508,2|0,0:0|0:0,0:0:0:0:
260,175,266877,2,0,L|313:169,1,53.9999983520508,2|0,0:0|0:0,0:0:0:0:
260,258,267222,2,0,L|313:252,1,53.9999983520508,2|0,0:0|0:0,0:0:0:0:
443,204,267566,2,0,L|371:211,1,53.9999983520508,2|0,0:0|0:0,0:0:0:0:
443,121,267911,2,0,L|371:128,1,53.9999983520508,2|0,0:0|0:0,0:0:0:0:
313,169,268256,2,0,L|259:174,1,53.9999983520508,2|0,0:0|0:0,0:0:0:0:
313,86,268601,2,0,L|259:91,1,53.9999983520508,2|0,0:0|0:0,0:0:0:0:
100,60,268946,6,0,L|100:132,1,53.9999983520508,2|0,0:0|0:0,0:0:0:0:
182,51,269291,2,0,L|182:123,1,53.9999983520508,2|0,0:0|0:0,0:0:0:0:
147,184,269636,2,0,L|147:237,1,53.9999983520508,2|0,0:0|0:0,0:0:0:0:
230,176,269981,2,0,L|230:229,1,53.9999983520508,2|0,0:0|0:0,0:0:0:0:
195,362,270325,2,0,L|194:289,1,53.9999983520508,2|0,0:0|0:0,0:0:0:0:
113,371,270670,2,0,L|112:298,1,53.9999983520508,2|0,0:0|0:0,0:0:0:0:
148,238,271015,2,0,L|147:184,1,53.9999983520508,2|0,0:0|0:0,0:0:0:0:
65,246,271360,2,0,L|64:192,1,53.9999983520508,2|0,0:0|0:0,0:0:0:0:
65,30,271704,6,0,L|137:23,1,53.9999983520508,2|0,0:0|0:0,0:0:0:0:
65,113,272049,2,0,L|137:106,1,53.9999983520508,2|0,0:0|0:0,0:0:0:0:
202,65,272394,2,0,L|255:59,1,53.9999983520508,2|0,0:0|0:0,0:0:0:0:
202,148,272739,2,0,L|255:142,1,53.9999983520508,2|0,0:0|0:0,0:0:0:0:
383,82,273083,2,0,L|311:90,1,53.9999983520508,2|0,0:0|0:0,0:0:0:0:
399,163,273428,2,0,L|327:171,1,53.9999983520508,2|0,0:0|0:0,0:0:0:0:
255,142,273773,2,0,L|201:148,1,53.9999983520508,2|0,0:0|0:0,0:0:0:0:
273,223,274118,2,0,L|219:229,1,53.9999983520508,2|0,0:0|0:0,0:0:0:0:
70,163,274463,6,0,L|70:235,1,53.9999983520508,2|0,0:0|0:0,0:0:0:0:
159,148,274808,2,0,L|159:94,1,53.9999983520508,2|0,0:0|0:0,0:0:0:0:
331,166,275153,2,0,L|330:219,1,53.9999983520508,2|0,0:0|0:0,0:0:0:0:
242,152,275498,2,0,L|241:98,1,53.9999983520508,2|0,0:0|0:0,0:0:0:0:
200,243,275842,6,0,L|200:296,1,53.9999983520508,2|0,0:0|0:0,0:0:0:0:
338,360,276187,1,2,0:0:0:0:
360,373,276273,1,2,0:3:0:0:
387,378,276359,1,2,0:3:0:0:
412,371,276445,1,2,0:3:0:0:
434,355,276531,1,2,0:0:0:0:
423,323,276618,1,2,0:3:0:0:
421,290,276704,1,2,0:3:0:0:
429,259,276790,1,2,0:3:0:0:
445,232,276877,1,2,0:0:0:0:
459,210,276963,1,2,0:3:0:0:
468,186,277049,1,2,0:3:0:0:
469,159,277135,1,2,0:3:0:0:
464,133,277222,6,0,L|390:141,1,53.9999983520508,2|0,0:0|0:0,0:0:0:0:
440,57,277566,2,0,L|366:65,1,53.9999983520508,2|0,0:0|0:0,0:0:0:0:
321,120,277911,2,0,L|267:125,1,53.9999983520508,2|0,0:0|0:0,0:0:0:0:
345,196,278255,2,0,L|291:201,1,53.9999983520508,2|0,0:0|0:0,0:0:0:0:
202,183,278601,2,0,L|148:188,1,53.9999983520508,2|0,0:0|0:0,0:0:0:0:
178,107,278945,2,0,L|124:112,1,53.9999983520508,2|0,0:0|0:0,0:0:0:0:
59,170,279291,2,0,L|5:175,1,53.9999983520508,2|0,0:0|0:0,0:0:0:0:
83,246,279635,2,0,L|29:251,1,53.9999983520508,2|0,0:0|0:0,0:0:0:0:
64,331,279980,6,0,L|69:384,1,53.9999983520508,2|0,0:0|0:0,0:0:0:0:
140,307,280324,2,0,L|145:360,1,53.9999983520508,2|0,0:0|0:0,0:0:0:0:
216,283,280670,2,0,L|221:336,1,53.9999983520508,2|0,0:0|0:0,0:0:0:0:
292,259,281015,2,0,L|297:312,1,53.9999983520508,2|0,0:0|0:0,0:0:0:0:
449,253,281360,6,0,L|443:306,1,53.9999983520508,2|0,0:0|0:0,0:0:0:0:
373,229,281704,2,0,L|367:282,1,53.9999983520508,2|0,0:0|0:0,0:0:0:0:
297,205,282050,2,0,L|291:258,1,53.9999983520508,2|0,0:0|0:0,0:0:0:0:
221,181,282395,2,0,L|215:234,1,53.9999983520508,2|0,0:0|0:0,0:0:0:0:
79,146,282739,6,0,L|132:140,1,53.9999983520508,2|0,0:0|0:0,0:0:0:0:
210,65,283084,2,0,L|156:59,1,53.9999983520508,2|0,0:0|0:0,0:0:0:0:
233,145,283428,2,0,L|286:139,1,53.9999983520508,2|0,0:0|0:0,0:0:0:0:
364,64,283773,2,0,L|310:58,1,53.9999983520508,2|0,0:0|0:0,0:0:0:0:
464,1,284118,6,0,L|457:59,1,53.9999983520508,2|0,0:0|0:0,0:0:0:0:
374,145,284463,2,0,L|367:85,1,53.9999983520508,2|0,0:0|0:0,0:0:0:0:
462,171,284808,2,0,L|455:229,1,53.9999983520508,2|0,0:0|0:0,0:0:0:0:
373,314,285152,2,0,L|366:254,1,53.9999983520508,2|0,0:0|0:0,0:0:0:0:
256,135,285497,6,0,L|249:199,1,62.9999980773926,2|0,0:0|0:0,0:0:0:0:
149,275,285842,2,0,L|155:210,1,62.9999980773926,2|0,0:0|0:0,0:0:0:0:
272,115,286187,2,0,L|262:198,1,62.9999980773926,2|0,0:0|0:0,0:0:0:0:
133,296,286532,2,0,L|142:212,1,62.9999980773926,2|0,0:0|0:0,0:0:0:0:
172,56,286877,6,0,L|166:133,1,72,2|0,0:0|0:0,0:0:0:0:
247,330,287222,2,0,L|252:252,1,72,2|0,0:0|0:0,0:0:0:0:
156,27,287567,2,0,L|149:127,1,72,2|0,0:0|0:0,0:0:0:0:
260,358,287911,2,0,L|266:257,1,72,2|0,0:0|0:0,0:0:0:0:
219,135,288256,5,6,0:3:0:0:
