osu file format v14

[General]
AudioFilename: audio.mp3
AudioLeadIn: 0
PreviewTime: 64924
Countdown: 0
SampleSet: Normal
StackLeniency: 0.7
Mode: 1
LetterboxInBreaks: 0
WidescreenStoryboard: 1

[Editor]
Bookmarks: 102996,112139
DistanceSpacing: 0.5
BeatDivisor: 4
GridSize: 32
TimelineZoom: 2.2

[Metadata]
Title:Meikyoshisui
TitleUnicode:明鏡止水
Artist:Jun Kuroda
ArtistUnicode:Jun Kuroda
Creator:Capu
Version:Oni
Source:
Tags:fa featured artist osu! electronic instrumental video rhythm game dnb drum and bass
BeatmapID:2773285
BeatmapSetID:1338121

[Difficulty]
HPDrainRate:5.5
CircleSize:2
OverallDifficulty:6
ApproachRate:10
SliderMultiplier:1.4
SliderTickRate:1

[Events]
//Background and Video events
0,0,"pexels-jakub-novacek-924824.jpg",0,0
//Break Periods
2,75771,79693
2,103200,111693
//Storyboard Layer 0 (Background)
//Storyboard Layer 1 (Fail)
//Storyboard Layer 2 (Pass)
//Storyboard Layer 3 (Foreground)
//Storyboard Layer 4 (Overlay)
//Storyboard Sound Samples

[TimingPoints]
1286,285.714285714286,4,1,0,100,1,0
1286,-100,4,1,0,100,0,0
9286,-100,4,1,0,100,0,0
9571,-100,4,1,0,100,0,0
9857,-100,4,1,0,100,0,0
10143,-100,4,1,0,100,0,0
10286,-100,4,1,0,100,0,0
10428,-100,4,1,0,100,0,0
10571,-100,4,1,0,100,0,0
10714,-100,4,1,0,100,0,0
10857,-100,4,1,0,100,0,0
11000,-100,4,1,0,100,0,0
11071,-100,4,1,0,100,0,0
11143,-100,4,1,0,100,0,0
11214,-100,4,1,0,100,0,0
11286,-100,4,1,0,100,0,0
11357,-100,4,1,0,100,0,0
11428,-100,4,1,0,100,0,0
11500,-100,4,1,0,100,0,0
11571,-100,4,1,0,100,0,0
12143,-100,4,1,0,68,0,0
15643,-100,4,1,0,68,0,0
15857,-100,4,1,0,68,0,0
16000,-100,4,1,0,68,0,0
16143,-100,4,1,0,72,0,0
18428,-100,4,1,0,72,0,0
18571,-100,4,1,0,72,0,0
18714,-100,4,1,0,72,0,0
18857,-100,4,1,0,72,0,0
19000,-100,4,1,0,72,0,0
19143,-100,4,1,0,72,0,0
19286,-100,4,1,0,72,0,0
19428,-100,4,1,0,72,0,0
19571,-100,4,1,0,72,0,0
19714,-100,4,1,0,72,0,0
19857,-100,4,1,0,72,0,0
20000,-100,4,1,0,72,0,0
20286,-100,4,1,0,72,0,0
20357,-100,4,1,0,72,0,0
20428,-100,4,1,0,72,0,0
20571,-100,4,1,0,100,0,0
20714,-100,4,1,0,100,0,0
38857,-100,4,1,0,100,0,0
39000,-100,4,1,0,68,0,0
39357,-100,4,1,0,68,0,0
39500,-100,4,1,0,68,0,0
39786,-100,4,1,0,68,0,0
40071,-100,4,1,0,68,0,0
40357,-100,4,1,0,68,0,0
41143,-100,4,1,0,68,0,0
57143,-100,4,1,0,100,0,0
57286,-100,4,1,0,100,0,1
57786,-100,4,1,0,100,0,1
57857,-100,4,1,0,100,0,0
57928,-100,4,1,0,100,0,0
58428,-100,4,1,0,100,0,1
60071,-100,4,1,0,100,0,1
60143,-100,4,1,0,100,0,0
60213,-100,4,1,0,100,0,0
60714,-100,4,1,0,100,0,1
62357,-100,4,1,0,100,0,1
62428,-100,4,1,0,100,0,0
62499,-100,4,1,0,100,0,0
63000,-100,4,1,0,100,0,1
64643,-100,4,1,0,100,0,1
64714,-100,4,1,0,100,0,0
64785,-100,4,1,0,100,0,0
65143,-100,4,1,0,100,0,0
66143,-100,4,1,0,100,0,0
66190,-100,4,1,0,100,0,0
66238,-100,4,1,0,100,0,0
66286,-100,4,1,0,100,0,0
66428,-100,4,1,0,100,0,1
66928,-100,4,1,0,100,0,1
67070,-100,4,1,0,100,0,1
69214,-100,4,1,0,100,0,1
69356,-100,4,1,0,100,0,1
71500,-100,4,1,0,100,0,1
71642,-100,4,1,0,100,0,1
73786,-100,4,1,0,100,0,1
73928,-100,4,1,0,100,0,1
75571,-100,4,1,0,100,0,0
75714,-100,4,1,0,72,0,0
75857,-100,4,1,0,72,0,0
81286,-100,4,1,0,72,0,0
81428,-100,4,1,0,72,0,0
81571,-100,4,1,0,72,0,0
81714,-100,4,1,0,72,0,0
81857,-100,4,1,0,72,0,0
81928,-100,4,1,0,72,0,0
82000,-100,4,1,0,72,0,0
82071,-100,4,1,0,72,0,0
82143,-100,4,1,0,72,0,0
82214,-100,4,1,0,72,0,0
82286,-100,4,1,0,72,0,0
82357,-100,4,1,0,72,0,0
82428,-100,4,1,0,72,0,0
84143,-100,4,1,0,72,0,0
84428,-100,4,1,0,72,0,0
84571,-100,4,1,0,100,0,0
84714,-100,4,1,0,100,0,1
103000,-100,4,1,0,100,0,0
103143,-100,4,1,0,68,0,0
104000,-100,4,1,0,68,0,0
105143,-100,4,1,0,68,0,0
128143,-100,4,1,0,100,0,0
128571,-100,4,1,0,100,0,0
129000,-100,4,1,0,100,0,0
129428,-100,4,1,0,100,0,0
130428,-100,4,1,0,80,0,0
137286,-100,4,1,0,80,0,0
137357,-100,4,1,0,80,0,0
137428,-100,4,1,0,80,0,0
137500,-100,4,1,0,80,0,0
137571,-100,4,1,0,80,0,0
137643,-100,4,1,0,80,0,0
137714,-100,4,1,0,80,0,0
137786,-100,4,1,0,80,0,0
137857,-100,4,1,0,80,0,0
137928,-100,4,1,0,80,0,0
138000,-100,4,1,0,80,0,0
138071,-100,4,1,0,80,0,0
138143,-100,4,1,0,80,0,0
138214,-100,4,1,0,80,0,0
138286,-100,4,1,0,80,0,0
138428,-100,4,1,0,80,0,0
138714,-100,4,1,0,80,0,0
139000,-100,4,1,0,80,0,0
139286,-100,4,1,0,80,0,0
139428,-100,4,1,0,100,0,0
139571,-100,4,1,0,100,0,1
157857,-100,4,1,0,100,0,0
173857,-100,4,1,0,100,0,0
173928,-100,4,1,0,100,0,0
174000,-100,4,1,0,100,0,0
174071,-100,4,1,0,100,0,0
174143,-100,4,1,0,100,0,0
174214,-100,4,1,0,100,0,0
174286,-100,4,1,0,100,0,0
174357,-100,4,1,0,100,0,0
174428,-100,4,1,0,100,0,0
174500,-100,4,1,0,100,0,0
174571,-100,4,1,0,100,0,0
174643,-100,4,1,0,100,0,0
174714,-100,4,1,0,100,0,0
174786,-100,4,1,0,100,0,0
174857,-100,4,1,0,100,0,0
174928,-100,4,1,0,100,0,0
175000,-100,4,1,0,100,0,0

[HitObjects]
256,192,1857,5,8,0:0:0:0:
256,192,2428,5,4,0:0:0:0:
256,192,2571,5,0,0:0:0:0:
256,192,3000,5,8,0:0:0:0:
256,192,3428,5,0,0:0:0:0:
256,192,3857,5,0,0:0:0:0:
256,192,4143,5,8,0:0:0:0:
256,192,4428,5,8,0:0:0:0:
256,192,4714,5,0,0:0:0:0:
256,192,5000,5,0,0:0:0:0:
256,192,5286,5,8,0:0:0:0:
256,192,5714,5,0,0:0:0:0:
256,192,6143,5,0,0:0:0:0:
256,192,6428,5,8,0:0:0:0:
256,192,6714,5,8,0:0:0:0:
256,192,7000,5,0,0:0:0:0:
256,192,7143,5,0,0:0:0:0:
256,192,7571,5,8,0:0:0:0:
256,192,8000,5,0,0:0:0:0:
256,192,8428,5,0,0:0:0:0:
256,192,8714,5,8,0:0:0:0:
256,192,9000,5,8,0:0:0:0:
256,192,9286,1,0,0:0:0:0:
256,192,9571,1,0,0:0:0:0:
256,192,9857,1,8,0:0:0:0:
256,192,10143,1,0,0:0:0:0:
256,192,10286,1,8,0:0:0:0:
256,192,10428,1,0,0:0:0:0:
256,192,10571,1,0,0:0:0:0:
256,192,10714,1,0,0:0:0:0:
256,192,10857,1,0,0:0:0:0:
256,192,11000,1,8,0:0:0:0:
256,192,11071,1,8,0:0:0:0:
256,192,11143,1,0,0:0:0:0:
256,192,11214,1,0,0:0:0:0:
256,192,11286,1,8,0:0:0:0:
256,192,11428,1,0,0:0:0:0:
256,192,11571,1,8,0:0:0:0:
256,192,15714,1,8,0:0:0:0:
256,192,15857,1,0,0:0:0:0:
256,192,16000,1,0,0:0:0:0:
256,192,16143,1,8,0:0:0:0:
256,192,16214,1,0,0:0:0:0:
256,192,16286,1,0,0:0:0:0:
256,192,16428,1,8,0:0:0:0:
256,192,16571,1,0,0:0:0:0:
256,192,16714,1,8,0:0:0:0:
256,192,16857,1,8,0:0:0:0:
256,192,17000,1,0,0:0:0:0:
256,192,17286,1,8,0:0:0:0:
256,192,17357,1,8,0:0:0:0:
256,192,17428,1,0,0:0:0:0:
256,192,17571,1,8,0:0:0:0:
256,192,17714,1,8,0:0:0:0:
256,192,17857,1,0,0:0:0:0:
256,192,18000,1,8,0:0:0:0:
256,192,18143,1,0,0:0:0:0:
256,192,18428,1,8,0:0:0:0:
256,192,18571,1,8,0:0:0:0:
256,192,18714,1,8,0:0:0:0:
256,192,18857,1,0,0:0:0:0:
256,192,19000,1,8,0:0:0:0:
256,192,19143,1,8,0:0:0:0:
256,192,19286,1,0,0:0:0:0:
256,192,19428,1,0,0:0:0:0:
256,192,19571,1,8,0:0:0:0:
256,192,19714,1,0,0:0:0:0:
256,192,19857,1,0,0:0:0:0:
256,192,20000,1,8,0:0:0:0:
256,192,20286,1,0,0:0:0:0:
256,192,20357,1,0,0:0:0:0:
256,192,20428,1,8,0:0:0:0:
256,192,20714,1,4,0:0:0:0:
256,192,21000,1,8,0:0:0:0:
256,192,21071,1,0,0:0:0:0:
256,192,21143,1,0,0:0:0:0:
256,192,21286,1,8,0:0:0:0:
256,192,21357,1,0,0:0:0:0:
256,192,21428,1,8,0:0:0:0:
256,192,21571,1,0,0:0:0:0:
256,192,21714,1,8,0:0:0:0:
256,192,22000,1,0,0:0:0:0:
256,192,22286,1,8,0:0:0:0:
256,192,22428,1,0,0:0:0:0:
256,192,22571,1,0,0:0:0:0:
256,192,22714,1,8,0:0:0:0:
256,192,22857,1,0,0:0:0:0:
256,192,23000,1,8,0:0:0:0:
256,192,23071,1,0,0:0:0:0:
256,192,23143,1,0,0:0:0:0:
256,192,23286,1,0,0:0:0:0:
256,192,23428,1,8,0:0:0:0:
256,192,23714,1,0,0:0:0:0:
256,192,23857,1,8,0:0:0:0:
256,192,23928,1,0,0:0:0:0:
256,192,24000,1,0,0:0:0:0:
256,192,24286,1,8,0:0:0:0:
256,192,24428,1,0,0:0:0:0:
256,192,24571,1,0,0:0:0:0:
256,192,24714,1,8,0:0:0:0:
256,192,24857,1,8,0:0:0:0:
256,192,24928,1,8,0:0:0:0:
256,192,25000,1,0,0:0:0:0:
256,192,25071,1,0,0:0:0:0:
256,192,25143,1,8,0:0:0:0:
256,192,25286,1,8,0:0:0:0:
256,192,25428,1,0,0:0:0:0:
256,192,25571,1,8,0:0:0:0:
256,192,25714,1,8,0:0:0:0:
256,192,25857,1,0,0:0:0:0:
256,192,26000,1,0,0:0:0:0:
256,192,26143,1,8,0:0:0:0:
256,192,26286,1,0,0:0:0:0:
256,192,26428,1,8,0:0:0:0:
256,192,26571,1,8,0:0:0:0:
256,192,26714,1,0,0:0:0:0:
256,192,26857,1,0,0:0:0:0:
256,192,27000,1,8,0:0:0:0:
256,192,27286,1,0,0:0:0:0:
256,192,27571,1,0,0:0:0:0:
256,192,27714,1,8,0:0:0:0:
256,192,27857,1,8,0:0:0:0:
256,192,28000,1,0,0:0:0:0:
256,192,28286,1,0,0:0:0:0:
256,192,28571,1,0,0:0:0:0:
256,192,28714,1,8,0:0:0:0:
256,192,28857,1,0,0:0:0:0:
256,192,29000,1,0,0:0:0:0:
256,192,29143,1,8,0:0:0:0:
256,192,29428,1,0,0:0:0:0:
256,192,29500,1,0,0:0:0:0:
256,192,29571,1,8,0:0:0:0:
256,192,29714,1,0,0:0:0:0:
256,192,29857,1,12,0:0:0:0:
256,192,30143,1,8,0:0:0:0:
256,192,30214,1,0,0:0:0:0:
256,192,30286,1,0,0:0:0:0:
256,192,30429,1,8,0:0:0:0:
256,192,30500,1,0,0:0:0:0:
256,192,30571,1,8,0:0:0:0:
256,192,30714,1,0,0:0:0:0:
256,192,30857,1,8,0:0:0:0:
256,192,31143,1,0,0:0:0:0:
256,192,31429,1,8,0:0:0:0:
256,192,31571,1,0,0:0:0:0:
256,192,31714,1,0,0:0:0:0:
256,192,31857,1,8,0:0:0:0:
256,192,32000,1,0,0:0:0:0:
256,192,32143,1,8,0:0:0:0:
256,192,32214,1,8,0:0:0:0:
256,192,32286,1,0,0:0:0:0:
256,192,32429,1,0,0:0:0:0:
256,192,32571,1,8,0:0:0:0:
256,192,32857,1,0,0:0:0:0:
256,192,33000,1,8,0:0:0:0:
256,192,33071,1,8,0:0:0:0:
256,192,33143,1,0,0:0:0:0:
256,192,33429,1,8,0:0:0:0:
256,192,33571,1,0,0:0:0:0:
256,192,33714,1,8,0:0:0:0:
256,192,33857,1,0,0:0:0:0:
256,192,34000,1,8,0:0:0:0:
256,192,34071,1,8,0:0:0:0:
256,192,34143,1,0,0:0:0:0:
256,192,34214,1,0,0:0:0:0:
256,192,34286,1,8,0:0:0:0:
256,192,34429,1,8,0:0:0:0:
256,192,34571,1,0,0:0:0:0:
256,192,34714,1,8,0:0:0:0:
256,192,34857,1,8,0:0:0:0:
256,192,35000,1,0,0:0:0:0:
256,192,35143,1,0,0:0:0:0:
256,192,35286,1,8,0:0:0:0:
256,192,35429,1,0,0:0:0:0:
256,192,35571,1,8,0:0:0:0:
256,192,35714,1,8,0:0:0:0:
256,192,35857,1,0,0:0:0:0:
256,192,36000,1,0,0:0:0:0:
256,192,36143,1,8,0:0:0:0:
256,192,36429,1,0,0:0:0:0:
256,192,36714,1,0,0:0:0:0:
256,192,36857,1,8,0:0:0:0:
256,192,37000,1,8,0:0:0:0:
256,192,37143,1,0,0:0:0:0:
256,192,37429,1,0,0:0:0:0:
256,192,37714,1,0,0:0:0:0:
256,192,37857,1,8,0:0:0:0:
256,192,38000,1,0,0:0:0:0:
256,192,38143,1,0,0:0:0:0:
256,192,38286,1,8,0:0:0:0:
256,192,38571,5,0,0:0:0:0:
256,192,38643,1,0,0:0:0:0:
256,192,38714,1,8,0:0:0:0:
256,192,38857,1,0,0:0:0:0:
256,192,39000,1,12,0:0:0:0:
256,192,39428,5,0,0:0:0:0:
256,192,39571,5,8,0:0:0:0:
256,192,39857,5,0,0:0:0:0:
256,192,40428,5,8,0:0:0:0:
256,192,41286,5,0,0:0:0:0:
256,192,41857,5,8,0:0:0:0:
256,192,42143,5,0,0:0:0:0:
256,192,42714,5,8,0:0:0:0:
256,192,43571,5,0,0:0:0:0:
256,192,44000,5,0,0:0:0:0:
256,192,44143,5,8,0:0:0:0:
256,192,44428,5,0,0:0:0:0:
256,192,45000,5,8,0:0:0:0:
256,192,45143,5,0,0:0:0:0:
256,192,45571,5,0,0:0:0:0:
256,192,45857,5,0,0:0:0:0:
256,192,46286,5,0,0:0:0:0:
256,192,46428,5,8,0:0:0:0:
256,192,46714,5,0,0:0:0:0:
256,192,47286,5,8,0:0:0:0:
256,192,48143,5,0,0:0:0:0:
256,192,48571,5,0,0:0:0:0:
256,192,48714,5,8,0:0:0:0:
256,192,49000,5,0,0:0:0:0:
256,192,49571,5,8,0:0:0:0:
256,192,50428,5,0,0:0:0:0:
256,192,51000,5,8,0:0:0:0:
256,192,51286,5,0,0:0:0:0:
256,192,51857,5,8,0:0:0:0:
256,192,52714,5,0,0:0:0:0:
256,192,53143,5,0,0:0:0:0:
256,192,53286,5,8,0:0:0:0:
256,192,53571,5,0,0:0:0:0:
256,192,54143,5,8,0:0:0:0:
256,192,54286,5,0,0:0:0:0:
256,192,54714,5,0,0:0:0:0:
256,192,55000,5,8,0:0:0:0:
256,192,55143,1,0,0:0:0:0:
256,192,55286,1,8,0:0:0:0:
256,192,55428,1,8,0:0:0:0:
256,192,55571,1,0,0:0:0:0:
256,192,55714,1,8,0:0:0:0:
256,192,55857,1,0,0:0:0:0:
256,192,56000,1,0,0:0:0:0:
256,192,56143,1,8,0:0:0:0:
256,192,56428,1,0,0:0:0:0:
256,192,56571,1,0,0:0:0:0:
256,192,56714,1,8,0:0:0:0:
256,192,57286,1,12,0:0:0:0:
256,192,57428,1,12,0:0:0:0:
256,192,57571,1,12,0:0:0:0:
256,192,57714,1,12,0:0:0:0:
256,192,57857,1,8,0:0:0:0:
256,192,58428,1,12,0:0:0:0:
256,192,58571,1,12,0:0:0:0:
256,192,58714,1,12,0:0:0:0:
256,192,59000,1,4,0:0:0:0:
256,192,59143,1,4,0:0:0:0:
256,192,59286,1,4,0:0:0:0:
256,192,59571,1,12,0:0:0:0:
256,192,59714,1,4,0:0:0:0:
256,192,59857,1,12,0:0:0:0:
256,192,60000,1,12,0:0:0:0:
256,192,60143,1,8,0:0:0:0:
256,192,60714,1,12,0:0:0:0:
256,192,60857,1,12,0:0:0:0:
256,192,61000,1,12,0:0:0:0:
256,192,61286,1,12,0:0:0:0:
256,192,61428,1,4,0:0:0:0:
256,192,61571,1,12,0:0:0:0:
256,192,61857,1,4,0:0:0:0:
256,192,62000,1,12,0:0:0:0:
256,192,62143,1,4,0:0:0:0:
256,192,62286,1,4,0:0:0:0:
256,192,62428,1,8,0:0:0:0:
256,192,63000,1,12,0:0:0:0:
256,192,63143,1,12,0:0:0:0:
256,192,63286,1,4,0:0:0:0:
256,192,63571,1,12,0:0:0:0:
256,192,63714,1,4,0:0:0:0:
256,192,63857,1,12,0:0:0:0:
256,192,64143,1,12,0:0:0:0:
256,192,64286,1,12,0:0:0:0:
256,192,64428,1,4,0:0:0:0:
256,192,64571,1,4,0:0:0:0:
256,192,64714,1,8,0:0:0:0:
256,192,65000,1,0,0:0:0:0:
256,192,65143,1,8,0:0:0:0:
256,192,65428,1,8,0:0:0:0:
256,192,65571,1,0,0:0:0:0:
256,192,65643,1,0,0:0:0:0:
256,192,65714,1,0,0:0:0:0:
256,192,65857,1,8,0:0:0:0:
256,192,66000,1,8,0:0:0:0:
256,192,66428,1,12,0:0:0:0:
256,192,66570,1,12,0:0:0:0:
256,192,66713,1,12,0:0:0:0:
256,192,66999,1,8,0:0:0:0:
256,192,67570,1,12,0:0:0:0:
256,192,67713,1,12,0:0:0:0:
256,192,67856,1,12,0:0:0:0:
256,192,68142,1,4,0:0:0:0:
256,192,68285,1,4,0:0:0:0:
256,192,68428,1,4,0:0:0:0:
256,192,68713,1,12,0:0:0:0:
256,192,68856,1,4,0:0:0:0:
256,192,68999,1,12,0:0:0:0:
256,192,69143,1,4,0:0:0:0:
256,192,69285,1,8,0:0:0:0:
256,192,69856,1,12,0:0:0:0:
256,192,69999,1,12,0:0:0:0:
256,192,70142,1,12,0:0:0:0:
256,192,70428,1,12,0:0:0:0:
256,192,70570,1,4,0:0:0:0:
256,192,70713,1,12,0:0:0:0:
256,192,70999,1,12,0:0:0:0:
256,192,71142,1,12,0:0:0:0:
256,192,71285,1,4,0:0:0:0:
256,192,71428,1,4,0:0:0:0:
256,192,71570,1,8,0:0:0:0:
256,192,72142,1,12,0:0:0:0:
256,192,72285,1,12,0:0:0:0:
256,192,72428,1,4,0:0:0:0:
256,192,72713,1,12,0:0:0:0:
256,192,72856,1,4,0:0:0:0:
256,192,72999,1,12,0:0:0:0:
256,192,73285,1,4,0:0:0:0:
256,192,73428,1,12,0:0:0:0:
256,192,73570,1,4,0:0:0:0:
256,192,73714,1,4,0:0:0:0:
256,192,73856,1,8,0:0:0:0:
256,192,74143,1,0,0:0:0:0:
256,192,74286,1,0,0:0:0:0:
256,192,74428,1,8,0:0:0:0:
256,192,74571,1,0,0:0:0:0:
256,192,74714,1,0,0:0:0:0:
256,192,74857,1,8,0:0:0:0:
256,192,75143,1,0,0:0:0:0:
256,192,75214,1,0,0:0:0:0:
256,192,75286,1,8,0:0:0:0:
256,192,75571,1,4,0:0:0:0:
256,192,80143,5,0,0:0:0:0:
256,192,80428,1,0,0:0:0:0:
256,192,80571,1,0,0:0:0:0:
256,192,80714,1,0,0:0:0:0:
256,192,81000,1,0,0:0:0:0:
256,192,81286,1,0,0:0:0:0:
256,192,81428,1,0,0:0:0:0:
256,192,81571,1,8,0:0:0:0:
256,192,81714,1,0,0:0:0:0:
256,192,81857,1,8,0:0:0:0:
256,192,81928,1,0,0:0:0:0:
256,192,82000,1,0,0:0:0:0:
256,192,82071,1,0,0:0:0:0:
256,192,82143,1,8,0:0:0:0:
256,192,82286,1,0,0:0:0:0:
256,192,82428,1,8,0:0:0:0:
256,192,82571,1,0,0:0:0:0:
256,192,82714,1,0,0:0:0:0:
256,192,82857,1,8,0:0:0:0:
256,192,83143,1,8,0:0:0:0:
256,192,83286,1,0,0:0:0:0:
256,192,83571,1,8,0:0:0:0:
256,192,83714,1,8,0:0:0:0:
256,192,83857,1,0,0:0:0:0:
256,192,84000,1,8,0:0:0:0:
256,192,84143,1,0,0:0:0:0:
256,192,84428,1,8,0:0:0:0:
256,192,84714,1,12,0:0:0:0:
256,192,84857,1,8,0:0:0:0:
256,192,85000,1,0,0:0:0:0:
256,192,85071,1,0,0:0:0:0:
256,192,85143,1,8,0:0:0:0:
256,192,85286,1,0,0:0:0:0:
256,192,85428,1,8,0:0:0:0:
256,192,85714,1,0,0:0:0:0:
256,192,85857,1,8,0:0:0:0:
256,192,86000,1,0,0:0:0:0:
256,192,86143,1,8,0:0:0:0:
256,192,86214,1,0,0:0:0:0:
256,192,86286,1,8,0:0:0:0:
256,192,86428,1,8,0:0:0:0:
256,192,86500,1,8,0:0:0:0:
256,192,86571,1,0,0:0:0:0:
256,192,86643,1,0,0:0:0:0:
256,192,86714,1,8,0:0:0:0:
256,192,86857,1,0,0:0:0:0:
256,192,87000,1,8,0:0:0:0:
256,192,87143,1,0,0:0:0:0:
256,192,87286,1,8,0:0:0:0:
256,192,87428,1,8,0:0:0:0:
256,192,87714,1,8,0:0:0:0:
256,192,87857,1,8,0:0:0:0:
256,192,88000,1,0,0:0:0:0:
256,192,88286,1,8,0:0:0:0:
256,192,88357,1,0,0:0:0:0:
256,192,88428,1,8,0:0:0:0:
256,192,88571,1,0,0:0:0:0:
256,192,88643,1,0,0:0:0:0:
256,192,88714,1,8,0:0:0:0:
256,192,88786,1,8,0:0:0:0:
256,192,88857,1,0,0:0:0:0:
256,192,89000,1,8,0:0:0:0:
256,192,89143,1,0,0:0:0:0:
256,192,89214,1,0,0:0:0:0:
256,192,89286,1,8,0:0:0:0:
256,192,89571,1,8,0:0:0:0:
256,192,89714,1,8,0:0:0:0:
256,192,90000,1,0,0:0:0:0:
256,192,90143,1,8,0:0:0:0:
256,192,90286,1,0,0:0:0:0:
256,192,90357,1,0,0:0:0:0:
256,192,90428,1,8,0:0:0:0:
256,192,90714,1,8,0:0:0:0:
256,192,90857,1,0,0:0:0:0:
256,192,91143,1,0,0:0:0:0:
256,192,91286,1,8,0:0:0:0:
256,192,91428,1,8,0:0:0:0:
256,192,91571,1,0,0:0:0:0:
256,192,92000,1,8,0:0:0:0:
256,192,92143,1,8,0:0:0:0:
256,192,92286,1,0,0:0:0:0:
256,192,92428,1,8,0:0:0:0:
256,192,92571,1,0,0:0:0:0:
256,192,92714,1,8,0:0:0:0:
256,192,92857,1,0,0:0:0:0:
256,192,93000,1,0,0:0:0:0:
256,192,93143,1,8,0:0:0:0:
256,192,93428,1,0,0:0:0:0:
256,192,93500,1,0,0:0:0:0:
256,192,93571,1,8,0:0:0:0:
256,192,93857,1,4,0:0:0:0:
256,192,94143,1,8,0:0:0:0:
256,192,94286,1,0,0:0:0:0:
256,192,94357,1,0,0:0:0:0:
256,192,94428,1,8,0:0:0:0:
256,192,94571,1,8,0:0:0:0:
256,192,94714,1,0,0:0:0:0:
256,192,94857,1,8,0:0:0:0:
256,192,95143,1,0,0:0:0:0:
256,192,95286,1,8,0:0:0:0:
256,192,95428,1,0,0:0:0:0:
256,192,95571,1,8,0:0:0:0:
256,192,95643,1,8,0:0:0:0:
256,192,95714,1,0,0:0:0:0:
256,192,95857,1,8,0:0:0:0:
256,192,96000,1,8,0:0:0:0:
256,192,96143,1,0,0:0:0:0:
256,192,96286,1,0,0:0:0:0:
256,192,96428,1,0,0:0:0:0:
256,192,96571,1,8,0:0:0:0:
256,192,96857,1,0,0:0:0:0:
256,192,97000,1,0,0:0:0:0:
256,192,97143,1,8,0:0:0:0:
256,192,97428,1,0,0:0:0:0:
256,192,97571,1,8,0:0:0:0:
256,192,97857,1,8,0:0:0:0:
256,192,98000,1,0,0:0:0:0:
256,192,98143,1,8,0:0:0:0:
256,192,98286,1,8,0:0:0:0:
256,192,98428,1,0,0:0:0:0:
256,192,98714,1,0,0:0:0:0:
256,192,99000,1,8,0:0:0:0:
256,192,99143,1,0,0:0:0:0:
256,192,99214,1,0,0:0:0:0:
256,192,99286,1,8,0:0:0:0:
256,192,99428,1,0,0:0:0:0:
256,192,99571,1,8,0:0:0:0:
256,192,99714,1,8,0:0:0:0:
256,192,99857,1,0,0:0:0:0:
256,192,99928,1,8,0:0:0:0:
256,192,100000,1,0,0:0:0:0:
256,192,100143,1,8,0:0:0:0:
256,192,100286,1,0,0:0:0:0:
256,192,100357,1,0,0:0:0:0:
256,192,100428,1,8,0:0:0:0:
256,192,100571,1,0,0:0:0:0:
256,192,100714,1,8,0:0:0:0:
256,192,100857,1,8,0:0:0:0:
256,192,101000,1,0,0:0:0:0:
256,192,101143,1,8,0:0:0:0:
256,192,101286,1,8,0:0:0:0:
256,192,101428,1,0,0:0:0:0:
256,192,101571,1,8,0:0:0:0:
256,192,101714,1,0,0:0:0:0:
256,192,102000,1,8,0:0:0:0:
256,192,102143,1,8,0:0:0:0:
256,192,102286,1,0,0:0:0:0:
256,192,102428,1,8,0:0:0:0:
256,192,102571,1,8,0:0:0:0:
256,192,102714,1,0,0:0:0:0:
256,192,102857,1,8,0:0:0:0:
256,192,103000,1,4,0:0:0:0:
256,192,112143,5,0,0:0:0:0:
256,192,112428,5,0,0:0:0:0:
256,192,112714,5,8,0:0:0:0:
256,192,113143,5,0,0:0:0:0:
256,192,113286,5,0,0:0:0:0:
256,192,113571,5,0,0:0:0:0:
256,192,113857,5,8,0:0:0:0:
256,192,114286,5,0,0:0:0:0:
256,192,114428,5,0,0:0:0:0:
256,192,115000,5,8,0:0:0:0:
256,192,115428,5,0,0:0:0:0:
256,192,115857,5,0,0:0:0:0:
256,192,116143,5,8,0:0:0:0:
256,192,116714,5,0,0:0:0:0:
256,192,117286,5,8,0:0:0:0:
256,192,117714,5,0,0:0:0:0:
256,192,118143,5,0,0:0:0:0:
256,192,118428,5,8,0:0:0:0:
256,192,118857,5,0,0:0:0:0:
256,192,119000,5,0,0:0:0:0:
256,192,119571,5,8,0:0:0:0:
256,192,120000,5,0,0:0:0:0:
256,192,120428,5,0,0:0:0:0:
256,192,120714,5,8,0:0:0:0:
256,192,121571,5,8,0:0:0:0:
256,192,121714,5,0,0:0:0:0:
256,192,122000,5,8,0:0:0:0:
256,192,122143,5,0,0:0:0:0:
256,192,122428,5,8,0:0:0:0:
256,192,122571,5,0,0:0:0:0:
256,192,122857,5,0,0:0:0:0:
256,192,123000,5,8,0:0:0:0:
256,192,123143,1,0,0:0:0:0:
256,192,123286,5,0,0:0:0:0:
256,192,123428,5,0,0:0:0:0:
256,192,123571,5,8,0:0:0:0:
256,192,123857,5,8,0:0:0:0:
256,192,124000,1,0,0:0:0:0:
256,192,124143,1,0,0:0:0:0:
256,192,124286,1,8,0:0:0:0:
256,192,124571,5,8,0:0:0:0:
256,192,124857,5,0,0:0:0:0:
256,192,125143,5,0,0:0:0:0:
256,192,125857,5,0,0:0:0:0:
256,192,126143,5,8,0:0:0:0:
256,192,126286,5,0,0:0:0:0:
256,192,126571,5,8,0:0:0:0:
256,192,126714,1,0,0:0:0:0:
256,192,126857,5,8,0:0:0:0:
256,192,127143,5,0,0:0:0:0:
256,192,127286,5,8,0:0:0:0:
256,192,127428,1,8,0:0:0:0:
256,192,127571,1,0,0:0:0:0:
256,192,127714,1,0,0:0:0:0:
256,192,127857,1,8,0:0:0:0:
256,192,128000,1,0,0:0:0:0:
256,192,128143,5,8,0:0:0:0:
256,192,128286,5,0,0:0:0:0:
256,192,128428,5,0,0:0:0:0:
256,192,128571,5,8,0:0:0:0:
256,192,128714,5,0,0:0:0:0:
256,192,128857,5,0,0:0:0:0:
256,192,129000,5,8,0:0:0:0:
256,192,129286,5,0,0:0:0:0:
256,192,129428,5,8,0:0:0:0:
256,192,129714,5,0,0:0:0:0:
256,192,130000,5,0,0:0:0:0:
256,192,130071,1,0,0:0:0:0:
256,192,130143,5,8,0:0:0:0:
256,192,130428,5,0,0:0:0:0:
256,192,130714,5,0,0:0:0:0:
256,192,131000,5,0,0:0:0:0:
256,192,131286,5,0,0:0:0:0:
256,192,131571,5,8,0:0:0:0:
256,192,131857,5,8,0:0:0:0:
256,192,132143,5,8,0:0:0:0:
256,192,132428,5,8,0:0:0:0:
256,192,132714,5,0,0:0:0:0:
256,192,132857,5,0,0:0:0:0:
256,192,133000,5,8,0:0:0:0:
256,192,133143,5,8,0:0:0:0:
256,192,133286,5,0,0:0:0:0:
256,192,133428,1,0,0:0:0:0:
256,192,133571,5,8,0:0:0:0:
256,192,133857,5,0,0:0:0:0:
256,192,134143,5,8,0:0:0:0:
256,192,134286,5,8,0:0:0:0:
256,192,134428,5,0,0:0:0:0:
256,192,134571,1,0,0:0:0:0:
256,192,134714,5,8,0:0:0:0:
256,192,135000,5,0,0:0:0:0:
256,192,135143,5,0,0:0:0:0:
256,192,135286,5,0,0:0:0:0:
256,192,135428,5,0,0:0:0:0:
256,192,135571,5,8,0:0:0:0:
256,192,135714,5,8,0:0:0:0:
256,192,135857,5,8,0:0:0:0:
256,192,136000,1,8,0:0:0:0:
256,192,136143,5,0,0:0:0:0:
256,192,136286,5,0,0:0:0:0:
256,192,136428,5,0,0:0:0:0:
256,192,136571,5,0,0:0:0:0:
256,192,136714,5,8,0:0:0:0:
256,192,137000,5,8,0:0:0:0:
256,192,137286,5,0,0:0:0:0:
256,192,137357,1,0,0:0:0:0:
256,192,137428,1,0,0:0:0:0:
256,192,137571,1,8,0:0:0:0:
256,192,137643,1,8,0:0:0:0:
256,192,137714,1,8,0:0:0:0:
256,192,137857,1,8,0:0:0:0:
256,192,138000,1,0,0:0:0:0:
256,192,138071,1,0,0:0:0:0:
256,192,138143,1,0,0:0:0:0:
256,192,138214,1,0,0:0:0:0:
256,192,138286,5,8,0:0:0:0:
256,192,138714,5,0,0:0:0:0:
256,192,139000,1,8,0:0:0:0:
256,192,139286,1,0,0:0:0:0:
256,192,139571,1,12,0:0:0:0:
256,192,139857,1,0,0:0:0:0:
256,192,140000,1,0,0:0:0:0:
256,192,140143,1,8,0:0:0:0:
256,192,140214,1,8,0:0:0:0:
256,192,140286,1,0,0:0:0:0:
256,192,140428,1,8,0:0:0:0:
256,192,140571,1,8,0:0:0:0:
256,192,140857,1,0,0:0:0:0:
256,192,141000,1,8,0:0:0:0:
256,192,141143,1,0,0:0:0:0:
256,192,141214,1,0,0:0:0:0:
256,192,141286,1,8,0:0:0:0:
256,192,141428,1,8,0:0:0:0:
256,192,141571,1,0,0:0:0:0:
256,192,141857,1,8,0:0:0:0:
256,192,141928,1,0,0:0:0:0:
256,192,142000,1,0,0:0:0:0:
256,192,142143,1,8,0:0:0:0:
256,192,142286,1,0,0:0:0:0:
256,192,142428,1,8,0:0:0:0:
256,192,142500,1,8,0:0:0:0:
256,192,142571,1,0,0:0:0:0:
256,192,142643,1,0,0:0:0:0:
256,192,142714,1,8,0:0:0:0:
256,192,142857,1,0,0:0:0:0:
256,192,143000,1,8,0:0:0:0:
256,192,143286,1,0,0:0:0:0:
256,192,143428,1,0,0:0:0:0:
256,192,143571,1,8,0:0:0:0:
256,192,143714,1,0,0:0:0:0:
256,192,143857,1,8,0:0:0:0:
256,192,144143,1,8,0:0:0:0:
256,192,144286,1,0,0:0:0:0:
256,192,144428,1,8,0:0:0:0:
256,192,144500,1,0,0:0:0:0:
256,192,144571,1,8,0:0:0:0:
256,192,144857,1,8,0:0:0:0:
256,192,145000,1,0,0:0:0:0:
256,192,145286,1,0,0:0:0:0:
256,192,145428,1,8,0:0:0:0:
256,192,145571,1,8,0:0:0:0:
256,192,145714,1,0,0:0:0:0:
256,192,145786,1,0,0:0:0:0:
256,192,145857,1,8,0:0:0:0:
256,192,146000,1,0,0:0:0:0:
256,192,146143,1,8,0:0:0:0:
256,192,146214,1,8,0:0:0:0:
256,192,146286,1,0,0:0:0:0:
256,192,146428,1,8,0:0:0:0:
256,192,146714,1,0,0:0:0:0:
256,192,146857,1,0,0:0:0:0:
256,192,147000,1,8,0:0:0:0:
256,192,147071,1,0,0:0:0:0:
256,192,147143,1,0,0:0:0:0:
256,192,147286,1,8,0:0:0:0:
256,192,147428,1,0,0:0:0:0:
256,192,147500,1,0,0:0:0:0:
256,192,147571,1,8,0:0:0:0:
256,192,147714,1,0,0:0:0:0:
256,192,147857,1,0,0:0:0:0:
256,192,148000,1,8,0:0:0:0:
256,192,148286,1,0,0:0:0:0:
256,192,148357,1,0,0:0:0:0:
256,192,148428,1,8,0:0:0:0:
256,192,148714,1,4,0:0:0:0:
256,192,149000,1,8,0:0:0:0:
256,192,149286,1,8,0:0:0:0:
256,192,149428,1,0,0:0:0:0:
256,192,149571,1,8,0:0:0:0:
256,192,149643,1,0,0:0:0:0:
256,192,149714,1,8,0:0:0:0:
256,192,150000,1,0,0:0:0:0:
256,192,150143,1,8,0:0:0:0:
256,192,150214,1,8,0:0:0:0:
256,192,150286,1,0,0:0:0:0:
256,192,150428,1,8,0:0:0:0:
256,192,150571,1,0,0:0:0:0:
256,192,150643,1,0,0:0:0:0:
256,192,150714,1,8,0:0:0:0:
256,192,150857,1,8,0:0:0:0:
256,192,151000,1,0,0:0:0:0:
256,192,151286,1,8,0:0:0:0:
256,192,151428,1,8,0:0:0:0:
256,192,151714,1,0,0:0:0:0:
256,192,151857,1,8,0:0:0:0:
256,192,152000,1,0,0:0:0:0:
256,192,152286,1,8,0:0:0:0:
256,192,152428,1,0,0:0:0:0:
256,192,152571,1,8,0:0:0:0:
256,192,152857,1,8,0:0:0:0:
256,192,152928,1,8,0:0:0:0:
256,192,153000,1,8,0:0:0:0:
256,192,153071,1,8,0:0:0:0:
256,192,153143,1,0,0:0:0:0:
256,192,153286,1,8,0:0:0:0:
256,192,153428,1,8,0:0:0:0:
256,192,153571,1,0,0:0:0:0:
256,192,153714,1,8,0:0:0:0:
256,192,153857,1,8,0:0:0:0:
256,192,154000,1,0,0:0:0:0:
256,192,154143,1,8,0:0:0:0:
256,192,154286,1,8,0:0:0:0:
256,192,154571,1,8,0:0:0:0:
256,192,154714,1,8,0:0:0:0:
256,192,155000,1,0,0:0:0:0:
256,192,155143,1,8,0:0:0:0:
256,192,155286,1,8,0:0:0:0:
256,192,155428,1,0,0:0:0:0:
256,192,155571,1,8,0:0:0:0:
256,192,155714,1,0,0:0:0:0:
256,192,155786,1,0,0:0:0:0:
256,192,155857,1,0,0:0:0:0:
256,192,156000,1,8,0:0:0:0:
256,192,156286,1,0,0:0:0:0:
256,192,156428,1,8,0:0:0:0:
256,192,156571,1,8,0:0:0:0:
256,192,156857,1,8,0:0:0:0:
256,192,156928,1,8,0:0:0:0:
256,192,157000,1,8,0:0:0:0:
256,192,157143,1,8,0:0:0:0:
256,192,157428,1,8,0:0:0:0:
256,192,157500,1,0,0:0:0:0:
256,192,157571,1,0,0:0:0:0:
256,192,157643,1,0,0:0:0:0:
256,192,157714,1,8,0:0:0:0:
256,192,157857,1,4,0:0:0:0:
256,192,158000,5,8,0:0:0:0:
256,192,158143,5,8,0:0:0:0:
256,192,158286,5,0,0:0:0:0:
256,192,158428,5,8,0:0:0:0:
256,192,158571,5,8,0:0:0:0:
256,192,158714,5,0,0:0:0:0:
256,192,159000,5,8,0:0:0:0:
256,192,159286,5,0,0:0:0:0:
256,192,159571,5,8,0:0:0:0:
256,192,159714,5,8,0:0:0:0:
256,192,159857,5,0,0:0:0:0:
256,192,160143,5,0,0:0:0:0:
256,192,160286,5,8,0:0:0:0:
256,192,160428,5,8,0:0:0:0:
256,192,160571,5,0,0:0:0:0:
256,192,160714,5,8,0:0:0:0:
256,192,160857,5,8,0:0:0:0:
256,192,161000,5,0,0:0:0:0:
256,192,161286,5,8,0:0:0:0:
256,192,161571,5,0,0:0:0:0:
256,192,161714,5,8,0:0:0:0:
256,192,161857,5,0,0:0:0:0:
256,192,162000,5,0,0:0:0:0:
256,192,162143,5,8,0:0:0:0:
256,192,162428,5,8,0:0:0:0:
256,192,162714,5,0,0:0:0:0:
256,192,162857,5,8,0:0:0:0:
256,192,163000,5,8,0:0:0:0:
256,192,163143,5,0,0:0:0:0:
256,192,163286,5,8,0:0:0:0:
256,192,163571,5,8,0:0:0:0:
256,192,163714,5,8,0:0:0:0:
256,192,163857,5,0,0:0:0:0:
256,192,164000,5,0,0:0:0:0:
256,192,164143,5,8,0:0:0:0:
256,192,164286,5,8,0:0:0:0:
256,192,164428,5,0,0:0:0:0:
256,192,164571,5,0,0:0:0:0:
256,192,164714,5,8,0:0:0:0:
256,192,164857,5,0,0:0:0:0:
256,192,165000,5,0,0:0:0:0:
256,192,165143,5,8,0:0:0:0:
256,192,165286,5,0,0:0:0:0:
256,192,165428,5,0,0:0:0:0:
256,192,165571,5,8,0:0:0:0:
256,192,165714,5,0,0:0:0:0:
256,192,165857,5,8,0:0:0:0:
256,192,166000,5,8,0:0:0:0:
256,192,166143,5,0,0:0:0:0:
256,192,166286,5,0,0:0:0:0:
256,192,166428,5,8,0:0:0:0:
256,192,166571,5,0,0:0:0:0:
256,192,166714,5,8,0:0:0:0:
256,192,167000,5,8,0:0:0:0:
256,192,167286,5,0,0:0:0:0:
256,192,167571,5,8,0:0:0:0:
256,192,167714,5,0,0:0:0:0:
256,192,167857,5,8,0:0:0:0:
256,192,168143,5,0,0:0:0:0:
256,192,168286,5,8,0:0:0:0:
256,192,168428,5,0,0:0:0:0:
256,192,168571,5,0,0:0:0:0:
256,192,168714,5,8,0:0:0:0:
256,192,169000,5,0,0:0:0:0:
256,192,169286,5,8,0:0:0:0:
256,192,169571,5,0,0:0:0:0:
256,192,169714,5,0,0:0:0:0:
256,192,169857,5,8,0:0:0:0:
256,192,170000,5,0,0:0:0:0:
256,192,170143,5,8,0:0:0:0:
256,192,170286,5,0,0:0:0:0:
256,192,170428,5,0,0:0:0:0:
256,192,170571,5,8,0:0:0:0:
256,192,170857,5,0,0:0:0:0:
256,192,171000,5,8,0:0:0:0:
256,192,171286,5,8,0:0:0:0:
256,192,171571,5,8,0:0:0:0:
256,192,171714,5,0,0:0:0:0:
256,192,171857,5,8,0:0:0:0:
256,192,172000,5,0,0:0:0:0:
256,192,172143,5,8,0:0:0:0:
256,192,172286,5,0,0:0:0:0:
256,192,172428,5,8,0:0:0:0:
256,192,172571,5,0,0:0:0:0:
256,192,172714,5,8,0:0:0:0:
256,192,172857,5,0,0:0:0:0:
256,192,173000,5,8,0:0:0:0:
256,192,173143,5,0,0:0:0:0:
256,192,173286,5,8,0:0:0:0:
256,192,173571,5,8,0:0:0:0:
256,192,173857,5,8,0:0:0:0:
256,192,173928,1,8,0:0:0:0:
256,192,174000,1,0,0:0:0:0:
256,192,174071,1,0,0:0:0:0:
256,192,174143,1,8,0:0:0:0:
256,192,174286,1,0,0:0:0:0:
256,192,174428,1,8,0:0:0:0:
256,192,174500,1,0,0:0:0:0:
256,192,174571,1,0,0:0:0:0:
256,192,174643,1,0,0:0:0:0:
256,192,174714,1,8,0:0:0:0:
256,192,174857,1,8,0:0:0:0:
256,192,175000,1,0,0:0:0:0:
256,192,175143,5,0,0:0:0:0:
256,192,175286,5,8,0:0:0:0:
256,192,175428,5,0,0:0:0:0:
256,192,175571,5,8,0:0:0:0:
256,192,175714,5,8,0:0:0:0:
256,192,175857,5,0,0:0:0:0:
256,192,176000,5,8,0:0:0:0:
256,192,176143,5,4,0:0:0:0:
