osu file format v14

[General]
AudioFilename: audio.mp3
AudioLeadIn: 0
PreviewTime: 64924
Countdown: 0
SampleSet: Normal
StackLeniency: 0.7
Mode: 1
LetterboxInBreaks: 0
WidescreenStoryboard: 1

[Editor]
Bookmarks: 102996,112139
DistanceSpacing: 0.5
BeatDivisor: 4
GridSize: 32
TimelineZoom: 2.899999

[Metadata]
Title:Meikyoshisui
TitleUnicode:明鏡止水
Artist:Jun Kuroda
ArtistUnicode:Jun Kuroda
Creator:Capu
Version:Kantan
Source:
Tags:fa featured artist osu! electronic instrumental video rhythm game dnb drum and bass
BeatmapID:2772257
BeatmapSetID:1338121

[Difficulty]
HPDrainRate:8
CircleSize:2
OverallDifficulty:3
ApproachRate:10
SliderMultiplier:1.2
SliderTickRate:1

[Events]
//Background and Video events
0,0,"pexels-jakub-novacek-924824.jpg",0,0
//Break Periods
2,11486,15693
2,103200,112264
//Storyboard Layer 0 (Background)
//Storyboard Layer 1 (Fail)
//Storyboard Layer 2 (Pass)
//Storyboard Layer 3 (Foreground)
//Storyboard Layer 4 (Overlay)
//Storyboard Sound Samples

[TimingPoints]
1286,285.714285714286,4,1,0,100,1,0
1286,-100,4,1,0,100,0,0
9286,-100,4,1,0,100,0,0
9571,-100,4,1,0,100,0,0
9857,-100,4,1,0,100,0,0
10143,-100,4,1,0,100,0,0
10286,-100,4,1,0,100,0,0
10428,-100,4,1,0,100,0,0
10571,-100,4,1,0,100,0,0
10714,-100,4,1,0,100,0,0
10857,-100,4,1,0,100,0,0
11000,-100,4,1,0,100,0,0
11071,-100,4,1,0,100,0,0
11143,-100,4,1,0,100,0,0
11214,-100,4,1,0,100,0,0
11286,-100,4,1,0,100,0,0
11357,-100,4,1,0,100,0,0
11428,-100,4,1,0,100,0,0
11500,-100,4,1,0,100,0,0
11571,-100,4,1,0,100,0,0
12143,-100,4,1,0,68,0,0
15643,-100,4,1,0,68,0,0
15857,-100,4,1,0,68,0,0
16000,-100,4,1,0,68,0,0
16143,-100,4,1,0,72,0,0
18428,-100,4,1,0,72,0,0
18571,-100,4,1,0,72,0,0
18714,-100,4,1,0,72,0,0
18857,-100,4,1,0,72,0,0
19000,-100,4,1,0,72,0,0
19143,-100,4,1,0,72,0,0
19286,-100,4,1,0,72,0,0
19428,-100,4,1,0,72,0,0
19571,-100,4,1,0,72,0,0
19714,-100,4,1,0,72,0,0
19857,-100,4,1,0,72,0,0
20000,-100,4,1,0,72,0,0
20286,-100,4,1,0,72,0,0
20357,-100,4,1,0,72,0,0
20428,-100,4,1,0,72,0,0
20571,-100,4,1,0,100,0,0
20714,-100,4,1,0,100,0,0
38857,-100,4,1,0,100,0,0
39000,-100,4,1,0,68,0,0
39357,-100,4,1,0,68,0,0
39500,-100,4,1,0,68,0,0
39786,-100,4,1,0,68,0,0
40071,-100,4,1,0,68,0,0
40357,-100,4,1,0,68,0,0
41143,-100,4,1,0,68,0,0
57143,-100,4,1,0,100,0,0
57286,-100,4,1,0,100,0,1
57786,-100,4,1,0,100,0,1
57857,-100,4,1,0,100,0,0
57928,-100,4,1,0,100,0,0
58428,-100,4,1,0,100,0,1
60071,-100,4,1,0,100,0,1
60143,-100,4,1,0,100,0,0
60213,-100,4,1,0,100,0,0
60714,-100,4,1,0,100,0,1
62357,-100,4,1,0,100,0,1
62428,-100,4,1,0,100,0,0
62499,-100,4,1,0,100,0,0
63000,-100,4,1,0,100,0,1
64643,-100,4,1,0,100,0,1
64714,-100,4,1,0,100,0,0
64785,-100,4,1,0,100,0,0
65143,-100,4,1,0,100,0,0
66143,-100,4,1,0,100,0,0
66190,-100,4,1,0,100,0,0
66238,-100,4,1,0,100,0,0
66286,-100,4,1,0,100,0,0
66428,-100,4,1,0,100,0,1
66928,-100,4,1,0,100,0,1
67070,-100,4,1,0,100,0,1
69214,-100,4,1,0,100,0,1
69356,-100,4,1,0,100,0,1
71500,-100,4,1,0,100,0,1
71642,-100,4,1,0,100,0,1
73786,-100,4,1,0,100,0,1
73928,-100,4,1,0,100,0,1
75571,-100,4,1,0,100,0,0
75714,-100,4,1,0,72,0,0
75857,-100,4,1,0,72,0,0
81286,-100,4,1,0,72,0,0
81428,-100,4,1,0,72,0,0
81571,-100,4,1,0,72,0,0
81714,-100,4,1,0,72,0,0
81857,-100,4,1,0,72,0,0
81928,-100,4,1,0,72,0,0
82000,-100,4,1,0,72,0,0
82071,-100,4,1,0,72,0,0
82143,-100,4,1,0,72,0,0
82214,-100,4,1,0,72,0,0
82286,-100,4,1,0,72,0,0
82357,-100,4,1,0,72,0,0
82428,-100,4,1,0,72,0,0
84143,-100,4,1,0,72,0,0
84428,-100,4,1,0,72,0,0
84571,-100,4,1,0,100,0,0
84714,-100,4,1,0,100,0,1
103000,-100,4,1,0,100,0,0
103143,-100,4,1,0,68,0,0
104000,-100,4,1,0,68,0,0
105143,-100,4,1,0,68,0,0
128143,-100,4,1,0,100,0,0
128571,-100,4,1,0,100,0,0
129000,-100,4,1,0,100,0,0
129428,-100,4,1,0,100,0,0
130428,-100,4,1,0,80,0,0
137286,-100,4,1,0,80,0,0
137357,-100,4,1,0,80,0,0
137428,-100,4,1,0,80,0,0
137500,-100,4,1,0,80,0,0
137571,-100,4,1,0,80,0,0
137643,-100,4,1,0,80,0,0
137714,-100,4,1,0,80,0,0
137786,-100,4,1,0,80,0,0
137857,-100,4,1,0,80,0,0
137928,-100,4,1,0,80,0,0
138000,-100,4,1,0,80,0,0
138071,-100,4,1,0,80,0,0
138143,-100,4,1,0,80,0,0
138214,-100,4,1,0,80,0,0
138286,-100,4,1,0,80,0,0
138428,-100,4,1,0,80,0,0
138714,-100,4,1,0,80,0,0
139000,-100,4,1,0,80,0,0
139286,-100,4,1,0,80,0,0
139428,-100,4,1,0,100,0,0
139571,-100,4,1,0,100,0,1
157857,-100,4,1,0,100,0,0
173857,-100,4,1,0,100,0,0
173928,-100,4,1,0,100,0,0
174000,-100,4,1,0,100,0,0
174071,-100,4,1,0,100,0,0
174143,-100,4,1,0,100,0,0
174214,-100,4,1,0,100,0,0
174286,-100,4,1,0,100,0,0
174357,-100,4,1,0,100,0,0
174428,-100,4,1,0,100,0,0
174500,-100,4,1,0,100,0,0
174571,-100,4,1,0,100,0,0
174643,-100,4,1,0,100,0,0
174714,-100,4,1,0,100,0,0
174786,-100,4,1,0,100,0,0
174857,-100,4,1,0,100,0,0
174928,-100,4,1,0,100,0,0
175000,-100,4,1,0,100,0,0

[HitObjects]
256,192,2428,5,0,0:0:0:0:
256,192,3000,1,8,0:0:0:0:
256,192,4143,1,8,0:0:0:0:
256,192,4714,1,0,0:0:0:0:
256,192,5286,1,8,0:0:0:0:
256,192,5714,1,0,0:0:0:0:
256,192,6143,1,0,0:0:0:0:
256,192,6428,1,8,0:0:0:0:
256,192,7000,1,0,0:0:0:0:
256,192,7571,1,8,0:0:0:0:
256,192,8714,1,8,0:0:0:0:
256,192,9286,1,0,0:0:0:0:
256,192,9857,1,8,0:0:0:0:
256,192,10428,1,0,0:0:0:0:
256,192,10714,1,0,0:0:0:0:
256,192,11000,1,0,0:0:0:0:
256,192,11286,1,0,0:0:0:0:
256,192,16143,5,8,0:0:0:0:
256,192,16714,1,0,0:0:0:0:
256,192,17286,1,0,0:0:0:0:
256,192,17857,1,8,0:0:0:0:
256,192,18428,1,0,0:0:0:0:
256,192,18714,1,0,0:0:0:0:
256,192,19000,1,8,0:0:0:0:
256,192,19286,1,0,0:0:0:0:
256,192,19571,1,8,0:0:0:0:
256,192,20000,1,8,0:0:0:0:
256,192,20428,1,8,0:0:0:0:
256,192,20714,1,4,0:0:0:0:
256,192,21000,1,8,0:0:0:0:
256,192,21571,1,0,0:0:0:0:
256,192,22143,1,0,0:0:0:0:
256,192,22428,1,8,0:0:0:0:
256,192,23000,1,8,0:0:0:0:
256,192,23428,1,8,0:0:0:0:
256,192,23857,1,8,0:0:0:0:
256,192,25286,1,0,0:0:0:0:
256,192,25571,1,0,0:0:0:0:
256,192,25857,1,0,0:0:0:0:
256,192,26143,1,8,0:0:0:0:
256,192,26428,1,8,0:0:0:0:
256,192,26714,1,8,0:0:0:0:
256,192,27000,1,0,0:0:0:0:
256,192,27571,1,8,0:0:0:0:
256,192,28000,1,8,0:0:0:0:
256,192,28286,1,0,0:0:0:0:
256,192,28571,1,0,0:0:0:0:
256,192,28857,1,0,0:0:0:0:
256,192,29143,1,8,0:0:0:0:
256,192,29857,1,4,0:0:0:0:
256,192,30143,1,8,0:0:0:0:
256,192,30714,1,0,0:0:0:0:
256,192,31286,1,0,0:0:0:0:
256,192,31571,1,8,0:0:0:0:
256,192,32143,1,8,0:0:0:0:
256,192,32571,1,8,0:0:0:0:
256,192,33000,1,0,0:0:0:0:
256,192,34429,1,0,0:0:0:0:
256,192,34714,1,0,0:0:0:0:
256,192,35000,1,0,0:0:0:0:
256,192,35286,1,8,0:0:0:0:
256,192,35571,1,8,0:0:0:0:
256,192,35857,1,8,0:0:0:0:
256,192,36143,1,0,0:0:0:0:
256,192,36714,1,8,0:0:0:0:
256,192,37143,1,8,0:0:0:0:
256,192,37428,1,0,0:0:0:0:
256,192,37714,1,0,0:0:0:0:
256,192,38000,1,0,0:0:0:0:
256,192,38286,1,8,0:0:0:0:
256,192,38714,1,0,0:0:0:0:
256,192,39000,1,0,0:0:0:0:
256,192,39571,1,8,0:0:0:0:
256,192,40428,1,8,0:0:0:0:
256,192,41857,1,8,0:0:0:0:
256,192,42714,1,8,0:0:0:0:
256,192,44143,1,8,0:0:0:0:
256,192,45000,1,8,0:0:0:0:
256,192,46428,1,8,0:0:0:0:
256,192,47286,1,8,0:0:0:0:
256,192,48714,1,8,0:0:0:0:
256,192,49571,1,8,0:0:0:0:
256,192,51000,1,8,0:0:0:0:
256,192,51857,1,8,0:0:0:0:
256,192,53286,1,8,0:0:0:0:
256,192,54143,1,8,0:0:0:0:
256,192,55000,1,8,0:0:0:0:
256,192,55428,1,8,0:0:0:0:
256,192,55857,1,8,0:0:0:0:
256,192,56428,1,0,0:0:0:0:
256,192,56714,1,8,0:0:0:0:
256,192,57286,1,12,0:0:0:0:
256,192,57857,1,8,0:0:0:0:
256,192,58428,1,12,0:0:0:0:
256,192,58857,1,12,0:0:0:0:
256,192,59286,1,12,0:0:0:0:
256,192,59571,1,4,0:0:0:0:
256,192,60143,1,8,0:0:0:0:
256,192,60714,1,4,0:0:0:0:
256,192,61000,1,4,0:0:0:0:
256,192,61857,1,12,0:0:0:0:
256,192,62428,1,8,0:0:0:0:
256,192,63000,1,12,0:0:0:0:
256,192,63428,1,12,0:0:0:0:
256,192,63857,1,12,0:0:0:0:
256,192,64143,1,4,0:0:0:0:
256,192,64714,1,8,0:0:0:0:
256,192,65000,1,0,0:0:0:0:
256,192,65143,1,8,0:0:0:0:
256,192,66428,1,12,0:0:0:0:
256,192,66999,1,8,0:0:0:0:
256,192,67570,1,12,0:0:0:0:
256,192,67999,1,12,0:0:0:0:
256,192,68428,1,12,0:0:0:0:
256,192,68713,1,4,0:0:0:0:
256,192,69285,1,8,0:0:0:0:
256,192,69856,1,4,0:0:0:0:
256,192,70142,1,4,0:0:0:0:
256,192,70999,1,12,0:0:0:0:
256,192,71570,1,8,0:0:0:0:
256,192,72142,1,12,0:0:0:0:
256,192,72570,1,12,0:0:0:0:
256,192,72999,1,12,0:0:0:0:
256,192,73285,1,4,0:0:0:0:
256,192,73856,1,8,0:0:0:0:
256,192,74428,1,8,0:0:0:0:
256,192,74857,1,8,0:0:0:0:
256,192,75286,1,8,0:0:0:0:
256,192,75571,1,4,0:0:0:0:
256,192,80143,1,0,0:0:0:0:
256,192,80714,1,0,0:0:0:0:
256,192,81286,1,0,0:0:0:0:
256,192,81571,1,0,0:0:0:0:
256,192,81857,1,8,0:0:0:0:
256,192,82143,1,0,0:0:0:0:
256,192,82428,1,8,0:0:0:0:
256,192,82857,1,8,0:0:0:0:
256,192,83286,1,0,0:0:0:0:
256,192,83571,1,8,0:0:0:0:
256,192,84428,1,0,0:0:0:0:
256,192,84714,1,12,0:0:0:0:
256,192,85428,1,8,0:0:0:0:
256,192,85857,1,8,0:0:0:0:
256,192,86143,1,0,0:0:0:0:
256,192,86428,1,8,0:0:0:0:
256,192,86714,1,8,0:0:0:0:
256,192,87000,1,0,0:0:0:0:
256,192,87428,1,8,0:0:0:0:
256,192,87714,1,0,0:0:0:0:
256,192,88000,1,8,0:0:0:0:
256,192,89286,1,4,0:0:0:0:
256,192,89714,1,8,0:0:0:0:
256,192,90428,1,0,0:0:0:0:
256,192,90857,1,8,0:0:0:0:
256,192,91286,1,8,0:0:0:0:
256,192,91571,1,0,0:0:0:0:
256,192,92143,1,8,0:0:0:0:
256,192,92428,1,0,0:0:0:0:
256,192,92714,1,8,0:0:0:0:
256,192,93571,1,0,0:0:0:0:
256,192,93857,1,12,0:0:0:0:
256,192,94143,1,0,0:0:0:0:
256,192,94428,1,0,0:0:0:0:
256,192,94857,1,8,0:0:0:0:
256,192,95286,1,8,0:0:0:0:
256,192,95571,1,0,0:0:0:0:
256,192,95857,1,0,0:0:0:0:
256,192,96143,1,8,0:0:0:0:
256,192,96571,1,0,0:0:0:0:
256,192,96857,1,8,0:0:0:0:
256,192,97143,1,8,0:0:0:0:
256,192,97857,1,8,0:0:0:0:
256,192,98428,1,8,0:0:0:0:
256,192,99000,1,0,0:0:0:0:
256,192,99286,1,8,0:0:0:0:
256,192,99857,1,8,0:0:0:0:
256,192,100714,1,8,0:0:0:0:
256,192,101143,1,0,0:0:0:0:
256,192,101571,1,8,0:0:0:0:
256,192,102000,1,8,0:0:0:0:
256,192,102428,1,0,0:0:0:0:
256,192,102714,1,0,0:0:0:0:
256,192,103000,1,12,0:0:0:0:
256,192,112714,5,8,0:0:0:0:
256,192,113857,1,8,0:0:0:0:
256,192,115000,1,8,0:0:0:0:
256,192,116143,1,8,0:0:0:0:
256,192,117286,1,8,0:0:0:0:
256,192,118428,1,8,0:0:0:0:
256,192,119571,1,8,0:0:0:0:
256,192,120714,1,8,0:0:0:0:
256,192,121571,1,8,0:0:0:0:
256,192,122000,1,8,0:0:0:0:
256,192,122428,1,8,0:0:0:0:
256,192,126143,1,8,0:0:0:0:
256,192,126571,1,8,0:0:0:0:
256,192,126857,1,8,0:0:0:0:
256,192,127286,1,0,0:0:0:0:
256,192,127571,1,0,0:0:0:0:
256,192,127857,1,0,0:0:0:0:
256,192,128143,1,8,0:0:0:0:
256,192,128571,1,8,0:0:0:0:
256,192,129000,1,8,0:0:0:0:
256,192,129428,1,8,0:0:0:0:
256,192,130143,1,8,0:0:0:0:
256,192,130428,1,4,0:0:0:0:
256,192,131000,1,0,0:0:0:0:
256,192,131571,1,0,0:0:0:0:
256,192,132143,1,0,0:0:0:0:
256,192,133000,1,0,0:0:0:0:
256,192,133286,1,0,0:0:0:0:
256,192,133857,1,0,0:0:0:0:
256,192,134143,1,0,0:0:0:0:
256,192,134428,1,0,0:0:0:0:
256,192,135000,1,8,0:0:0:0:
256,192,135571,1,0,0:0:0:0:
256,192,136143,1,8,0:0:0:0:
256,192,136714,1,0,0:0:0:0:
256,192,137286,1,8,0:0:0:0:
256,192,137571,1,8,0:0:0:0:
256,192,137857,1,8,0:0:0:0:
256,192,138143,1,8,0:0:0:0:
256,192,138286,1,8,0:0:0:0:
256,192,139571,1,12,0:0:0:0:
256,192,140143,1,8,0:0:0:0:
256,192,140571,1,0,0:0:0:0:
256,192,141000,1,8,0:0:0:0:
256,192,141286,1,8,0:0:0:0:
256,192,141571,1,0,0:0:0:0:
256,192,141857,1,8,0:0:0:0:
256,192,142428,1,0,0:0:0:0:
256,192,143000,1,8,0:0:0:0:
256,192,144143,1,8,0:0:0:0:
256,192,144571,1,8,0:0:0:0:
256,192,145000,1,0,0:0:0:0:
256,192,145571,1,0,0:0:0:0:
256,192,145857,1,8,0:0:0:0:
256,192,146428,1,8,0:0:0:0:
256,192,147000,1,0,0:0:0:0:
256,192,147571,1,0,0:0:0:0:
256,192,148143,1,0,0:0:0:0:
256,192,149000,1,8,0:0:0:0:
256,192,149286,1,8,0:0:0:0:
256,192,149714,1,8,0:0:0:0:
256,192,150143,1,0,0:0:0:0:
256,192,150428,1,8,0:0:0:0:
256,192,150714,1,8,0:0:0:0:
256,192,151000,1,0,0:0:0:0:
256,192,151428,1,0,0:0:0:0:
256,192,151714,1,0,0:0:0:0:
256,192,152000,1,8,0:0:0:0:
256,192,152286,1,8,0:0:0:0:
256,192,152571,1,8,0:0:0:0:
256,192,153286,1,8,0:0:0:0:
256,192,153714,1,8,0:0:0:0:
256,192,154143,1,8,0:0:0:0:
256,192,154571,1,8,0:0:0:0:
256,192,155571,1,8,0:0:0:0:
256,192,156000,1,0,0:0:0:0:
256,192,156571,1,0,0:0:0:0:
256,192,157143,1,8,0:0:0:0:
256,192,157571,1,8,0:0:0:0:
256,192,157857,1,4,0:0:0:0:
256,192,159000,1,0,0:0:0:0:
256,192,159571,1,0,0:0:0:0:
256,192,160143,1,8,0:0:0:0:
256,192,161286,1,8,0:0:0:0:
256,192,161571,1,8,0:0:0:0:
256,192,161857,1,8,0:0:0:0:
256,192,162428,1,0,0:0:0:0:
256,192,163571,1,8,0:0:0:0:
256,192,164143,1,0,0:0:0:0:
256,192,164428,1,0,0:0:0:0:
256,192,164714,1,8,0:0:0:0:
256,192,165286,1,8,0:0:0:0:
256,192,165857,1,8,0:0:0:0:
256,192,166143,1,8,0:0:0:0:
256,192,166428,1,0,0:0:0:0:
256,192,167000,1,8,0:0:0:0:
256,192,167571,1,8,0:0:0:0:
256,192,167857,1,8,0:0:0:0:
256,192,168286,1,8,0:0:0:0:
256,192,168714,1,8,0:0:0:0:
256,192,169286,1,8,0:0:0:0:
256,192,169857,1,8,0:0:0:0:
256,192,170143,1,8,0:0:0:0:
256,192,170571,1,8,0:0:0:0:
256,192,171000,1,8,0:0:0:0:
256,192,171286,1,8,0:0:0:0:
256,192,171571,1,8,0:0:0:0:
256,192,172143,1,8,0:0:0:0:
256,192,172714,1,8,0:0:0:0:
256,192,173857,1,8,0:0:0:0:
256,192,174143,1,8,0:0:0:0:
256,192,174428,1,0,0:0:0:0:
256,192,174714,1,0,0:0:0:0:
256,192,175000,1,8,0:0:0:0:
256,192,175571,1,0,0:0:0:0:
256,192,175857,1,8,0:0:0:0:
256,192,176143,1,4,0:0:0:0:
