osu file format v14

[General]
AudioFilename: audio.mp3
AudioLeadIn: 0
PreviewTime: 111718
Countdown: 0
SampleSet: Normal
StackLeniency: 0.7
Mode: 1
LetterboxInBreaks: 0
WidescreenStoryboard: 0

[Editor]
Bookmarks: 82350,142981,173297
DistanceSpacing: 0.8
BeatDivisor: 4
GridSize: 32
TimelineZoom: 2.3

[Metadata]
Title:Into your memory feat. Aitsuki Nakuru
TitleUnicode:Into your memory feat. 藍月なくる
Artist:Jun Kuroda
ArtistUnicode:Jun Kuroda
Creator:Alwaysyukaz
Version:Oni
Source:
Tags:osu! fa featured artist mappers' guild mg mpg japanese 3rd album JK Sound Lab カミヤヒロト Kamiya Hiroto 鈴木一史 Suzuki Kazushi j-pop jpop pop j-rock jrock rock
BeatmapID:3402100
BeatmapSetID:1666365

[Difficulty]
HPDrainRate:6
CircleSize:2
OverallDifficulty:6
ApproachRate:0
SliderMultiplier:1.4
SliderTickRate:1

[Events]
//Background and Video events
0,0,"BG.jpg",0,-25
//Break Periods
//Storyboard Layer 0 (Background)
//Storyboard Layer 1 (Fail)
//Storyboard Layer 2 (Pass)
//Storyboard Layer 3 (Foreground)
//Storyboard Layer 4 (Overlay)
//Storyboard Sound Samples

[TimingPoints]
-3542,315.78947368421,4,1,0,75,1,0
11615,-100,4,1,0,70,0,0
31036,-100,4,1,0,50,0,0
36247,-100,4,1,0,70,0,0
41931,-100,4,1,0,80,0,1
72089,-100,4,1,0,75,0,0
82352,-100,4,1,0,65,0,0
106983,-100,4,1,0,70,0,0
112668,-100,4,1,0,80,0,1
142984,-100,4,1,0,75,0,0
173221,-100,4,1,0,65,0,0
188457,-100,4,1,0,70,0,0
194773,-100,4,1,0,80,0,1
224931,-100,4,1,0,75,0,0
235115,-100,4,1,0,65,0,0
235194,-100,4,1,0,50,0,0

[HitObjects]
256,192,879,5,0,0:0:0:0:
256,192,1036,1,0,0:0:0:0:
256,192,1352,1,12,0:0:0:0:
256,192,1668,1,0,0:0:0:0:
256,192,1826,1,8,0:0:0:0:
256,192,2142,1,0,0:0:0:0:
256,192,2300,1,0,0:0:0:0:
256,192,2457,1,8,0:0:0:0:
256,192,2536,1,8,0:0:0:0:
256,192,2615,1,0,0:0:0:0:
256,192,2931,1,0,0:0:0:0:
256,192,3089,1,8,0:0:0:0:
256,192,3247,1,0,0:0:0:0:
256,192,3405,1,0,0:0:0:0:
256,192,3563,1,0,0:0:0:0:
256,192,3721,1,8,0:0:0:0:
256,192,3879,1,8,0:0:0:0:
256,192,4194,1,0,0:0:0:0:
256,192,4352,1,8,0:0:0:0:
256,192,4510,1,0,0:0:0:0:
256,192,4668,1,0,0:0:0:0:
256,192,4826,1,0,0:0:0:0:
256,192,4984,1,8,0:0:0:0:
256,192,5142,1,0,0:0:0:0:
256,192,5457,1,0,0:0:0:0:
256,192,5615,1,8,0:0:0:0:
256,192,5773,1,8,0:0:0:0:
256,192,5931,1,0,0:0:0:0:
256,192,6089,1,8,0:0:0:0:
256,192,6168,1,8,0:0:0:0:
256,192,6247,1,8,0:0:0:0:
256,192,6326,1,8,0:0:0:0:
256,192,6405,1,0,0:0:0:0:
256,192,6721,1,0,0:0:0:0:
256,192,6879,1,8,0:0:0:0:
256,192,7036,1,8,0:0:0:0:
256,192,7194,1,0,0:0:0:0:
256,192,7352,1,0,0:0:0:0:
256,192,7510,1,8,0:0:0:0:
256,192,7589,1,8,0:0:0:0:
256,192,7668,1,0,0:0:0:0:
256,192,7984,1,0,0:0:0:0:
256,192,8142,1,8,0:0:0:0:
256,192,8300,1,8,0:0:0:0:
256,192,8457,1,0,0:0:0:0:
256,192,8615,1,0,0:0:0:0:
256,192,8773,1,8,0:0:0:0:
256,192,8852,1,0,0:0:0:0:
256,192,8931,1,8,0:0:0:0:
256,192,9089,1,0,0:0:0:0:
256,192,9247,1,0,0:0:0:0:
256,192,9405,1,8,0:0:0:0:
256,192,9721,1,8,0:0:0:0:
256,192,9879,1,8,0:0:0:0:
256,192,10036,1,0,0:0:0:0:
256,192,10194,1,0,0:0:0:0:
256,192,10352,1,8,0:0:0:0:
256,192,10826,1,0,0:0:0:0:
256,192,11142,1,0,0:0:0:0:
256,192,11221,1,0,0:0:0:0:
256,192,11300,1,8,0:0:0:0:
256,192,11615,1,0,0:0:0:0:
256,192,11931,1,0,0:0:0:0:
256,192,12089,1,8,0:0:0:0:
256,192,12247,1,8,0:0:0:0:
256,192,12405,1,0,0:0:0:0:
256,192,12563,1,0,0:0:0:0:
256,192,12721,1,0,0:0:0:0:
256,192,12879,1,8,0:0:0:0:
256,192,13194,1,0,0:0:0:0:
256,192,13510,1,8,0:0:0:0:
256,192,13668,1,8,0:0:0:0:
256,192,13826,1,0,0:0:0:0:
256,192,13984,1,8,0:0:0:0:
256,192,14142,1,0,0:0:0:0:
256,192,14457,1,0,0:0:0:0:
256,192,14615,1,0,0:0:0:0:
256,192,14773,1,8,0:0:0:0:
256,192,14931,1,0,0:0:0:0:
256,192,15089,1,8,0:0:0:0:
256,192,15247,1,0,0:0:0:0:
256,192,15405,1,8,0:0:0:0:
256,192,15721,1,0,0:0:0:0:
256,192,15879,1,8,0:0:0:0:
256,192,15957,1,0,0:0:0:0:
256,192,16036,1,8,0:0:0:0:
256,192,16194,1,0,0:0:0:0:
256,192,16352,1,8,0:0:0:0:
256,192,16510,1,4,0:0:0:0:
256,192,16984,1,8,0:0:0:0:
256,192,17142,1,0,0:0:0:0:
256,192,17300,1,8,0:0:0:0:
256,192,17457,1,0,0:0:0:0:
256,192,17615,1,8,0:0:0:0:
256,192,17773,1,0,0:0:0:0:
256,192,17931,1,8,0:0:0:0:
256,192,18089,1,0,0:0:0:0:
256,192,18247,1,8,0:0:0:0:
256,192,18405,1,0,0:0:0:0:
256,192,18563,1,8,0:0:0:0:
256,192,18721,1,0,0:0:0:0:
256,192,18800,1,0,0:0:0:0:
256,192,18879,1,8,0:0:0:0:
256,192,19036,1,4,0:0:0:0:
256,192,19510,1,8,0:0:0:0:
256,192,19668,1,0,0:0:0:0:
256,192,19826,1,8,0:0:0:0:
256,192,19984,1,0,0:0:0:0:
256,192,20142,1,8,0:0:0:0:
256,192,20300,1,0,0:0:0:0:
256,192,20457,1,8,0:0:0:0:
256,192,20615,1,0,0:0:0:0:
256,192,20773,1,8,0:0:0:0:
256,192,20931,1,0,0:0:0:0:
256,192,21089,1,8,0:0:0:0:
256,192,21168,1,8,0:0:0:0:
256,192,21247,1,8,0:0:0:0:
256,192,21326,1,8,0:0:0:0:
256,192,21405,1,0,0:0:0:0:
256,192,21484,1,0,0:0:0:0:
256,192,21563,1,0,0:0:0:0:
256,192,21642,1,0,0:0:0:0:
256,192,21721,1,0,0:0:0:0:
256,192,22036,1,0,0:0:0:0:
256,192,22194,1,8,0:0:0:0:
256,192,22352,1,8,0:0:0:0:
256,192,22510,1,0,0:0:0:0:
256,192,22826,1,8,0:0:0:0:
256,192,22984,1,0,0:0:0:0:
256,192,23300,1,0,0:0:0:0:
256,192,23615,1,0,0:0:0:0:
256,192,23773,1,8,0:0:0:0:
256,192,23931,1,0,0:0:0:0:
256,192,24089,1,8,0:0:0:0:
256,192,24247,1,8,0:0:0:0:
256,192,24563,1,8,0:0:0:0:
256,192,24721,1,0,0:0:0:0:
256,192,25036,1,8,0:0:0:0:
256,192,25194,1,0,0:0:0:0:
256,192,25352,1,8,0:0:0:0:
256,192,25668,1,0,0:0:0:0:
256,192,25826,1,0,0:0:0:0:
256,192,25984,1,8,0:0:0:0:
256,192,26142,1,8,0:0:0:0:
256,192,26300,1,0,0:0:0:0:
256,192,26457,1,8,0:0:0:0:
256,192,26615,1,4,0:0:0:0:
256,192,27089,1,8,0:0:0:0:
256,192,27247,1,0,0:0:0:0:
256,192,27405,1,8,0:0:0:0:
256,192,27563,1,0,0:0:0:0:
256,192,27721,1,8,0:0:0:0:
256,192,27879,1,0,0:0:0:0:
256,192,28036,1,8,0:0:0:0:
256,192,28194,1,0,0:0:0:0:
256,192,28352,1,8,0:0:0:0:
256,192,28510,1,0,0:0:0:0:
256,192,28668,1,8,0:0:0:0:
256,192,28826,1,8,0:0:0:0:
256,192,28905,1,0,0:0:0:0:
256,192,28984,1,8,0:0:0:0:
256,192,29142,1,4,0:0:0:0:
256,192,29615,1,8,0:0:0:0:
256,192,29773,1,0,0:0:0:0:
256,192,29931,1,8,0:0:0:0:
256,192,30010,1,8,0:0:0:0:
256,192,30089,1,0,0:0:0:0:
256,192,30168,1,0,0:0:0:0:
256,192,30247,1,8,0:0:0:0:
256,192,30405,1,8,0:0:0:0:
256,192,30563,1,0,0:0:0:0:
256,192,31036,1,0,0:0:0:0:
256,192,31194,1,8,0:0:0:0:
256,192,31352,1,8,0:0:0:0:
256,192,31510,1,0,0:0:0:0:
256,192,31668,1,8,0:0:0:0:
256,192,31826,1,4,0:0:0:0:
256,192,32142,1,0,0:0:0:0:
256,192,32300,1,0,0:0:0:0:
256,192,32457,1,8,0:0:0:0:
256,192,32615,1,0,0:0:0:0:
256,192,32931,1,0,0:0:0:0:
256,192,33089,1,0,0:0:0:0:
256,192,33405,1,0,0:0:0:0:
256,192,33721,1,8,0:0:0:0:
256,192,34036,1,0,0:0:0:0:
256,192,34194,1,8,0:0:0:0:
256,192,34352,1,0,0:0:0:0:
256,192,34826,1,0,0:0:0:0:
256,192,34984,1,8,0:0:0:0:
256,192,35142,1,0,0:0:0:0:
256,192,35221,1,0,0:0:0:0:
256,192,35300,1,8,0:0:0:0:
256,192,35457,1,0,0:0:0:0:
256,192,35615,1,0,0:0:0:0:
256,192,35931,1,0,0:0:0:0:
256,192,36089,1,0,0:0:0:0:
256,192,36247,1,8,0:0:0:0:
256,192,36326,1,8,0:0:0:0:
256,192,36405,1,8,0:0:0:0:
256,192,36484,1,8,0:0:0:0:
256,192,36563,1,8,0:0:0:0:
256,192,36642,1,8,0:0:0:0:
256,192,36721,1,8,0:0:0:0:
256,192,36800,1,8,0:0:0:0:
256,192,36879,1,0,0:0:0:0:
256,192,37194,1,12,0:0:0:0:
256,192,37510,1,0,0:0:0:0:
256,192,37668,1,0,0:0:0:0:
256,192,37826,1,8,0:0:0:0:
256,192,37984,1,8,0:0:0:0:
256,192,38063,1,8,0:0:0:0:
256,192,38142,1,0,0:0:0:0:
256,192,38300,1,0,0:0:0:0:
256,192,38457,1,8,0:0:0:0:
256,192,38773,1,0,0:0:0:0:
256,192,38931,1,0,0:0:0:0:
256,192,39089,1,8,0:0:0:0:
256,192,39405,1,4,0:0:0:0:
256,192,39721,1,8,0:0:0:0:
256,192,39879,1,8,0:0:0:0:
256,192,40036,1,8,0:0:0:0:
256,192,40194,1,8,0:0:0:0:
256,192,40352,1,8,0:0:0:0:
256,192,40510,1,4,0:0:0:0:
256,192,40826,1,4,0:0:0:0:
256,192,40984,1,4,0:0:0:0:
256,192,41142,1,8,0:0:0:0:
256,192,41221,1,8,0:0:0:0:
256,192,41300,1,0,0:0:0:0:
256,192,41457,1,12,0:0:0:0:
256,192,41931,1,4,0:0:0:0:
256,192,42247,1,8,0:0:0:0:
256,192,42405,1,0,0:0:0:0:
256,192,42563,1,8,0:0:0:0:
256,192,42642,1,8,0:0:0:0:
256,192,42721,1,0,0:0:0:0:
256,192,42800,1,0,0:0:0:0:
256,192,42879,1,8,0:0:0:0:
256,192,43036,1,0,0:0:0:0:
256,192,43194,1,8,0:0:0:0:
256,192,43352,1,0,0:0:0:0:
256,192,43510,1,8,0:0:0:0:
256,192,43668,1,8,0:0:0:0:
256,192,43984,1,0,0:0:0:0:
256,192,44142,1,8,0:0:0:0:
256,192,44300,1,8,0:0:0:0:
256,192,44457,1,4,0:0:0:0:
256,192,44773,1,8,0:0:0:0:
256,192,44931,1,8,0:0:0:0:
256,192,45089,1,0,0:0:0:0:
256,192,45405,1,8,0:0:0:0:
256,192,45484,1,8,0:0:0:0:
256,192,45563,1,0,0:0:0:0:
256,192,45721,1,8,0:0:0:0:
256,192,45879,1,0,0:0:0:0:
256,192,46036,1,8,0:0:0:0:
256,192,46194,1,8,0:0:0:0:
256,192,46352,1,0,0:0:0:0:
256,192,46668,1,8,0:0:0:0:
256,192,46826,1,0,0:0:0:0:
256,192,46905,1,0,0:0:0:0:
256,192,46984,1,0,0:0:0:0:
256,192,47300,5,12,0:0:0:0:
256,192,47615,1,0,0:0:0:0:
256,192,47773,1,0,0:0:0:0:
256,192,47931,1,8,0:0:0:0:
256,192,48089,1,0,0:0:0:0:
256,192,48168,1,0,0:0:0:0:
256,192,48247,1,8,0:0:0:0:
256,192,48405,1,0,0:0:0:0:
256,192,48563,1,8,0:0:0:0:
256,192,48721,1,8,0:0:0:0:
256,192,49036,1,0,0:0:0:0:
256,192,49194,1,8,0:0:0:0:
256,192,49273,1,8,0:0:0:0:
256,192,49352,1,8,0:0:0:0:
256,192,49431,1,0,0:0:0:0:
256,192,49510,1,0,0:0:0:0:
256,192,49826,1,8,0:0:0:0:
256,192,50142,1,0,0:0:0:0:
256,192,50300,1,0,0:0:0:0:
256,192,50379,1,0,0:0:0:0:
256,192,50457,1,8,0:0:0:0:
256,192,50615,1,0,0:0:0:0:
256,192,50773,1,0,0:0:0:0:
256,192,50931,1,0,0:0:0:0:
256,192,51089,1,8,0:0:0:0:
256,192,51247,1,8,0:0:0:0:
256,192,51563,1,8,0:0:0:0:
256,192,51642,1,8,0:0:0:0:
256,192,51721,1,0,0:0:0:0:
256,192,51800,1,0,0:0:0:0:
256,192,51879,1,0,0:0:0:0:
256,192,52036,1,4,0:0:0:0:
256,192,52352,1,8,0:0:0:0:
256,192,52510,1,0,0:0:0:0:
256,192,52668,1,8,0:0:0:0:
256,192,52747,1,8,0:0:0:0:
256,192,52826,1,0,0:0:0:0:
256,192,52905,1,0,0:0:0:0:
256,192,52984,1,8,0:0:0:0:
256,192,53142,1,0,0:0:0:0:
256,192,53300,1,8,0:0:0:0:
256,192,53457,1,0,0:0:0:0:
256,192,53615,1,8,0:0:0:0:
256,192,53773,1,8,0:0:0:0:
256,192,54089,1,0,0:0:0:0:
256,192,54247,1,8,0:0:0:0:
256,192,54326,1,8,0:0:0:0:
256,192,54405,1,0,0:0:0:0:
256,192,54563,1,4,0:0:0:0:
256,192,54879,1,8,0:0:0:0:
256,192,55036,1,0,0:0:0:0:
256,192,55194,1,0,0:0:0:0:
256,192,55352,1,8,0:0:0:0:
256,192,55510,1,8,0:0:0:0:
256,192,55668,1,0,0:0:0:0:
256,192,55826,1,8,0:0:0:0:
256,192,55984,1,0,0:0:0:0:
256,192,56142,1,8,0:0:0:0:
256,192,56457,1,0,0:0:0:0:
256,192,56615,1,8,0:0:0:0:
256,192,56773,1,8,0:0:0:0:
256,192,56931,1,0,0:0:0:0:
256,192,57010,1,0,0:0:0:0:
256,192,57089,1,0,0:0:0:0:
256,192,57405,1,12,0:0:0:0:
256,192,57721,1,0,0:0:0:0:
256,192,57879,1,0,0:0:0:0:
256,192,57957,1,0,0:0:0:0:
256,192,58036,1,8,0:0:0:0:
256,192,58194,1,8,0:0:0:0:
256,192,58352,1,0,0:0:0:0:
256,192,58510,1,0,0:0:0:0:
256,192,58668,1,8,0:0:0:0:
256,192,58984,1,0,0:0:0:0:
256,192,59142,1,0,0:0:0:0:
256,192,59300,1,8,0:0:0:0:
256,192,59379,1,8,0:0:0:0:
256,192,59457,1,8,0:0:0:0:
256,192,59536,1,0,0:0:0:0:
256,192,59615,1,0,0:0:0:0:
256,192,59931,1,8,0:0:0:0:
256,192,60089,1,8,0:0:0:0:
256,192,60168,1,8,0:0:0:0:
256,192,60247,1,0,0:0:0:0:
256,192,60405,1,0,0:0:0:0:
256,192,60563,1,8,0:0:0:0:
256,192,60879,1,0,0:0:0:0:
256,192,60957,1,0,0:0:0:0:
256,192,61036,1,8,0:0:0:0:
256,192,61194,1,0,0:0:0:0:
256,192,61352,1,8,0:0:0:0:
256,192,61510,1,0,0:0:0:0:
256,192,61668,1,8,0:0:0:0:
256,192,61747,1,8,0:0:0:0:
256,192,61826,1,0,0:0:0:0:
256,192,61905,1,0,0:0:0:0:
256,192,61984,1,0,0:0:0:0:
256,192,62142,1,4,0:0:0:0:
256,192,62457,1,8,0:0:0:0:
256,192,62615,1,0,0:0:0:0:
256,192,62694,1,0,0:0:0:0:
256,192,62773,1,0,0:0:0:0:
256,192,62931,1,0,0:0:0:0:
256,192,63089,1,8,0:0:0:0:
256,192,63247,1,0,0:0:0:0:
256,192,63563,1,0,0:0:0:0:
256,192,63721,1,8,0:0:0:0:
256,192,63879,1,8,0:0:0:0:
256,192,64036,1,0,0:0:0:0:
256,192,64194,1,0,0:0:0:0:
256,192,64352,1,8,0:0:0:0:
256,192,64431,1,8,0:0:0:0:
256,192,64510,1,0,0:0:0:0:
256,192,64668,1,4,0:0:0:0:
256,192,64984,1,8,0:0:0:0:
256,192,65142,1,0,0:0:0:0:
256,192,65300,1,0,0:0:0:0:
256,192,65457,1,8,0:0:0:0:
256,192,65615,1,8,0:0:0:0:
256,192,65773,1,0,0:0:0:0:
256,192,66089,1,0,0:0:0:0:
256,192,66247,1,8,0:0:0:0:
256,192,66405,1,8,0:0:0:0:
256,192,66563,1,0,0:0:0:0:
256,192,66721,1,0,0:0:0:0:
256,192,66879,1,8,0:0:0:0:
256,192,67036,1,0,0:0:0:0:
256,192,67115,1,0,0:0:0:0:
256,192,67194,1,0,0:0:0:0:
256,192,67510,1,12,0:0:0:0:
256,192,67826,1,0,0:0:0:0:
256,192,67984,1,0,0:0:0:0:
256,192,68142,1,8,0:0:0:0:
256,192,68300,1,0,0:0:0:0:
256,192,68457,1,8,0:0:0:0:
256,192,68773,1,8,0:0:0:0:
256,192,68931,1,8,0:0:0:0:
256,192,69089,1,0,0:0:0:0:
256,192,69247,1,0,0:0:0:0:
256,192,69405,1,8,0:0:0:0:
256,192,69484,1,8,0:0:0:0:
256,192,69563,1,8,0:0:0:0:
256,192,69642,1,0,0:0:0:0:
256,192,69721,1,0,0:0:0:0:
256,192,70036,1,8,0:0:0:0:
256,192,70194,1,0,0:0:0:0:
256,192,70352,1,0,0:0:0:0:
256,192,70510,1,8,0:0:0:0:
256,192,70668,1,8,0:0:0:0:
256,192,70826,1,0,0:0:0:0:
256,192,70984,1,8,0:0:0:0:
256,192,71063,1,8,0:0:0:0:
256,192,71142,1,8,0:0:0:0:
256,192,71221,1,8,0:0:0:0:
256,192,71300,1,8,0:0:0:0:
256,192,71379,1,8,0:0:0:0:
256,192,71457,1,8,0:0:0:0:
256,192,71536,1,8,0:0:0:0:
256,192,71615,1,0,0:0:0:0:
256,192,71773,1,0,0:0:0:0:
256,192,72089,1,12,0:0:0:0:
256,192,72405,1,0,0:0:0:0:
256,192,72563,1,8,0:0:0:0:
256,192,72879,1,0,0:0:0:0:
256,192,73036,1,0,0:0:0:0:
256,192,73194,1,8,0:0:0:0:
256,192,73273,1,8,0:0:0:0:
256,192,73352,1,0,0:0:0:0:
256,192,73668,1,0,0:0:0:0:
256,192,73826,1,8,0:0:0:0:
256,192,73984,1,0,0:0:0:0:
256,192,74142,1,0,0:0:0:0:
256,192,74300,1,8,0:0:0:0:
256,192,74457,1,8,0:0:0:0:
256,192,74615,1,0,0:0:0:0:
256,192,74931,1,0,0:0:0:0:
256,192,75089,1,8,0:0:0:0:
256,192,75247,1,8,0:0:0:0:
256,192,75405,1,8,0:0:0:0:
256,192,75563,1,0,0:0:0:0:
256,192,75721,1,8,0:0:0:0:
256,192,75879,1,0,0:0:0:0:
256,192,76194,1,0,0:0:0:0:
256,192,76352,1,8,0:0:0:0:
256,192,76510,1,0,0:0:0:0:
256,192,76668,1,0,0:0:0:0:
256,192,76826,1,8,0:0:0:0:
256,192,76905,1,8,0:0:0:0:
256,192,76984,1,8,0:0:0:0:
256,192,77063,1,8,0:0:0:0:
256,192,77142,1,0,0:0:0:0:
256,192,77457,1,0,0:0:0:0:
256,192,77615,1,8,0:0:0:0:
256,192,77773,1,8,0:0:0:0:
256,192,77931,1,0,0:0:0:0:
256,192,78089,1,0,0:0:0:0:
256,192,78247,1,8,0:0:0:0:
256,192,78326,1,8,0:0:0:0:
256,192,78405,1,0,0:0:0:0:
256,192,78721,1,0,0:0:0:0:
256,192,78879,1,8,0:0:0:0:
256,192,79036,1,0,0:0:0:0:
256,192,79194,1,0,0:0:0:0:
256,192,79352,1,0,0:0:0:0:
256,192,79510,1,8,0:0:0:0:
256,192,79668,1,8,0:0:0:0:
256,192,79826,1,0,0:0:0:0:
256,192,79984,1,0,0:0:0:0:
256,192,80142,1,8,0:0:0:0:
256,192,80457,1,8,0:0:0:0:
256,192,80615,1,8,0:0:0:0:
256,192,80773,1,0,0:0:0:0:
256,192,80931,1,0,0:0:0:0:
256,192,81089,1,8,0:0:0:0:
256,192,81563,1,0,0:0:0:0:
256,192,81879,1,0,0:0:0:0:
256,192,81957,1,0,0:0:0:0:
256,192,82036,1,8,0:0:0:0:
256,192,82352,1,8,0:0:0:0:
256,192,82668,1,0,0:0:0:0:
256,192,82984,1,8,0:0:0:0:
256,192,83142,1,0,0:0:0:0:
256,192,83457,1,0,0:0:0:0:
256,192,83931,1,8,0:0:0:0:
256,192,84247,1,0,0:0:0:0:
256,192,84405,1,8,0:0:0:0:
256,192,84721,1,8,0:0:0:0:
256,192,84800,1,8,0:0:0:0:
256,192,84879,1,8,0:0:0:0:
256,192,85352,1,0,0:0:0:0:
256,192,85510,1,8,0:0:0:0:
256,192,85668,1,8,0:0:0:0:
256,192,85984,1,0,0:0:0:0:
256,192,86457,1,8,0:0:0:0:
256,192,86773,1,0,0:0:0:0:
256,192,87089,1,8,0:0:0:0:
256,192,87247,1,0,0:0:0:0:
256,192,87405,1,8,0:0:0:0:
256,192,89142,1,8,0:0:0:0:
256,192,89300,1,0,0:0:0:0:
256,192,89457,1,8,0:0:0:0:
256,192,89615,1,8,0:0:0:0:
256,192,89773,1,0,0:0:0:0:
256,192,89931,1,0,0:0:0:0:
256,192,90563,1,0,0:0:0:0:
256,192,91194,1,0,0:0:0:0:
256,192,91510,1,0,0:0:0:0:
256,192,91668,1,8,0:0:0:0:
256,192,91826,1,0,0:0:0:0:
256,192,91984,1,8,0:0:0:0:
256,192,92142,1,0,0:0:0:0:
256,192,92221,1,0,0:0:0:0:
256,192,92300,1,8,0:0:0:0:
256,192,92457,1,4,0:0:0:0:
256,192,92931,1,0,0:0:0:0:
256,192,93089,1,8,0:0:0:0:
256,192,93405,1,8,0:0:0:0:
256,192,93563,1,0,0:0:0:0:
256,192,93721,1,0,0:0:0:0:
256,192,94036,1,0,0:0:0:0:
256,192,94352,1,8,0:0:0:0:
256,192,94510,1,0,0:0:0:0:
256,192,94668,1,8,0:0:0:0:
256,192,94826,1,0,0:0:0:0:
256,192,94984,1,0,0:0:0:0:
256,192,95300,1,0,0:0:0:0:
256,192,95457,1,0,0:0:0:0:
256,192,95615,1,8,0:0:0:0:
256,192,95773,1,0,0:0:0:0:
256,192,96089,1,0,0:0:0:0:
256,192,96247,1,0,0:0:0:0:
256,192,96563,1,0,0:0:0:0:
256,192,96721,1,0,0:0:0:0:
256,192,96879,1,8,0:0:0:0:
256,192,97036,1,8,0:0:0:0:
256,192,97352,1,0,0:0:0:0:
256,192,97510,1,12,0:0:0:0:
256,192,98142,1,8,0:0:0:0:
256,192,98615,1,0,0:0:0:0:
256,192,98773,1,0,0:0:0:0:
256,192,99089,1,0,0:0:0:0:
256,192,99405,1,8,0:0:0:0:
256,192,99563,1,0,0:0:0:0:
256,192,99721,1,0,0:0:0:0:
256,192,99879,1,8,0:0:0:0:
256,192,100036,1,0,0:0:0:0:
256,192,100668,1,8,0:0:0:0:
256,192,101142,1,0,0:0:0:0:
256,192,101300,1,0,0:0:0:0:
256,192,101615,1,0,0:0:0:0:
256,192,101773,1,0,0:0:0:0:
256,192,101931,1,8,0:0:0:0:
256,192,102089,1,8,0:0:0:0:
256,192,102247,1,0,0:0:0:0:
256,192,102563,1,12,0:0:0:0:
256,192,102879,1,0,0:0:0:0:
256,192,103036,1,0,0:0:0:0:
256,192,103194,1,8,0:0:0:0:
256,192,103352,1,0,0:0:0:0:
256,192,103510,1,8,0:0:0:0:
256,192,103668,1,0,0:0:0:0:
256,192,103826,1,0,0:0:0:0:
256,192,104142,1,0,0:0:0:0:
256,192,104457,1,8,0:0:0:0:
256,192,104773,1,8,0:0:0:0:
256,192,104931,1,0,0:0:0:0:
256,192,105089,1,0,0:0:0:0:
256,192,105563,1,0,0:0:0:0:
256,192,105721,1,8,0:0:0:0:
256,192,105879,1,0,0:0:0:0:
256,192,106036,1,8,0:0:0:0:
256,192,106194,1,8,0:0:0:0:
256,192,106352,1,0,0:0:0:0:
256,192,106668,1,0,0:0:0:0:
256,192,106826,1,0,0:0:0:0:
256,192,106984,5,8,0:0:0:0:
256,192,107063,1,8,0:0:0:0:
256,192,107142,1,8,0:0:0:0:
256,192,107221,1,8,0:0:0:0:
256,192,107300,1,8,0:0:0:0:
256,192,107379,1,8,0:0:0:0:
256,192,107457,1,8,0:0:0:0:
256,192,107536,1,8,0:0:0:0:
256,192,107615,1,0,0:0:0:0:
256,192,107931,1,12,0:0:0:0:
256,192,108247,1,0,0:0:0:0:
256,192,108405,1,0,0:0:0:0:
256,192,108563,1,8,0:0:0:0:
256,192,108642,1,8,0:0:0:0:
256,192,108721,1,0,0:0:0:0:
256,192,108879,1,0,0:0:0:0:
256,192,109194,1,8,0:0:0:0:
256,192,109352,1,8,0:0:0:0:
256,192,109510,1,0,0:0:0:0:
256,192,109668,1,0,0:0:0:0:
256,192,109826,1,8,0:0:0:0:
256,192,110142,1,4,0:0:0:0:
256,192,110457,1,8,0:0:0:0:
256,192,110615,1,8,0:0:0:0:
256,192,110773,1,8,0:0:0:0:
256,192,110931,1,8,0:0:0:0:
256,192,111089,1,8,0:0:0:0:
256,192,111247,1,4,0:0:0:0:
256,192,111563,1,4,0:0:0:0:
256,192,111721,1,4,0:0:0:0:
256,192,111879,1,8,0:0:0:0:
256,192,111957,1,8,0:0:0:0:
256,192,112036,1,0,0:0:0:0:
256,192,112194,1,12,0:0:0:0:
256,192,112668,1,4,0:0:0:0:
256,192,112984,1,8,0:0:0:0:
256,192,113142,1,0,0:0:0:0:
256,192,113221,1,0,0:0:0:0:
256,192,113300,1,8,0:0:0:0:
256,192,113379,1,8,0:0:0:0:
256,192,113457,1,0,0:0:0:0:
256,192,113615,1,8,0:0:0:0:
256,192,113773,1,0,0:0:0:0:
256,192,113931,1,8,0:0:0:0:
256,192,114089,1,0,0:0:0:0:
256,192,114247,1,8,0:0:0:0:
256,192,114405,1,0,0:0:0:0:
256,192,114721,1,0,0:0:0:0:
256,192,114879,1,8,0:0:0:0:
256,192,115036,1,8,0:0:0:0:
256,192,115194,1,4,0:0:0:0:
256,192,115510,1,8,0:0:0:0:
256,192,115668,1,0,0:0:0:0:
256,192,115984,1,8,0:0:0:0:
256,192,116142,1,8,0:0:0:0:
256,192,116221,1,8,0:0:0:0:
256,192,116300,1,0,0:0:0:0:
256,192,116457,1,8,0:0:0:0:
256,192,116615,1,0,0:0:0:0:
256,192,116773,1,8,0:0:0:0:
256,192,116931,1,8,0:0:0:0:
256,192,117089,1,0,0:0:0:0:
256,192,117405,1,8,0:0:0:0:
256,192,117563,1,0,0:0:0:0:
256,192,117642,1,0,0:0:0:0:
256,192,117721,1,0,0:0:0:0:
256,192,118036,1,12,0:0:0:0:
256,192,118352,1,0,0:0:0:0:
256,192,118510,1,0,0:0:0:0:
256,192,118589,1,0,0:0:0:0:
256,192,118668,1,8,0:0:0:0:
256,192,118826,1,8,0:0:0:0:
256,192,118984,1,0,0:0:0:0:
256,192,119300,1,8,0:0:0:0:
256,192,119457,1,0,0:0:0:0:
256,192,119615,1,0,0:0:0:0:
256,192,119773,1,8,0:0:0:0:
256,192,119931,1,8,0:0:0:0:
256,192,120010,1,8,0:0:0:0:
256,192,120089,1,8,0:0:0:0:
256,192,120168,1,8,0:0:0:0:
256,192,120247,1,0,0:0:0:0:
256,192,120563,1,8,0:0:0:0:
256,192,120721,1,8,0:0:0:0:
256,192,120879,1,0,0:0:0:0:
256,192,121036,1,0,0:0:0:0:
256,192,121194,1,8,0:0:0:0:
256,192,121510,1,0,0:0:0:0:
256,192,121668,1,0,0:0:0:0:
256,192,121826,1,0,0:0:0:0:
256,192,121905,1,0,0:0:0:0:
256,192,121984,1,8,0:0:0:0:
256,192,122142,1,0,0:0:0:0:
256,192,122300,1,8,0:0:0:0:
256,192,122379,1,8,0:0:0:0:
256,192,122457,1,0,0:0:0:0:
256,192,122536,1,0,0:0:0:0:
256,192,122615,1,0,0:0:0:0:
256,192,122773,1,4,0:0:0:0:
256,192,123089,1,8,0:0:0:0:
256,192,123247,1,0,0:0:0:0:
256,192,123405,1,0,0:0:0:0:
256,192,123484,1,0,0:0:0:0:
256,192,123563,1,8,0:0:0:0:
256,192,123721,1,8,0:0:0:0:
256,192,123879,1,0,0:0:0:0:
256,192,124036,1,0,0:0:0:0:
256,192,124352,1,8,0:0:0:0:
256,192,124510,1,8,0:0:0:0:
256,192,124668,1,0,0:0:0:0:
256,192,124826,1,0,0:0:0:0:
256,192,124984,1,8,0:0:0:0:
256,192,125063,1,0,0:0:0:0:
256,192,125142,1,8,0:0:0:0:
256,192,125300,1,4,0:0:0:0:
256,192,125615,1,8,0:0:0:0:
256,192,125773,1,0,0:0:0:0:
256,192,125931,1,8,0:0:0:0:
256,192,126089,1,0,0:0:0:0:
256,192,126168,1,0,0:0:0:0:
256,192,126247,1,8,0:0:0:0:
256,192,126405,1,0,0:0:0:0:
256,192,126563,1,8,0:0:0:0:
256,192,126879,1,8,0:0:0:0:
256,192,127036,1,0,0:0:0:0:
256,192,127194,1,8,0:0:0:0:
256,192,127273,1,8,0:0:0:0:
256,192,127352,1,0,0:0:0:0:
256,192,127510,1,8,0:0:0:0:
256,192,127668,1,0,0:0:0:0:
256,192,127747,1,0,0:0:0:0:
256,192,127826,1,0,0:0:0:0:
256,192,128142,1,12,0:0:0:0:
256,192,128457,1,0,0:0:0:0:
256,192,128615,1,8,0:0:0:0:
256,192,128694,1,8,0:0:0:0:
256,192,128773,1,0,0:0:0:0:
256,192,128931,1,0,0:0:0:0:
256,192,129089,1,8,0:0:0:0:
256,192,129247,1,0,0:0:0:0:
256,192,129405,1,8,0:0:0:0:
256,192,129721,1,8,0:0:0:0:
256,192,129879,1,0,0:0:0:0:
256,192,130036,1,8,0:0:0:0:
256,192,130115,1,8,0:0:0:0:
256,192,130194,1,8,0:0:0:0:
256,192,130273,1,0,0:0:0:0:
256,192,130352,1,0,0:0:0:0:
256,192,130668,1,8,0:0:0:0:
256,192,130826,1,0,0:0:0:0:
256,192,130984,1,8,0:0:0:0:
256,192,131063,1,8,0:0:0:0:
256,192,131142,1,0,0:0:0:0:
256,192,131300,1,8,0:0:0:0:
256,192,131457,1,0,0:0:0:0:
256,192,131615,1,0,0:0:0:0:
256,192,131694,1,0,0:0:0:0:
256,192,131773,1,0,0:0:0:0:
256,192,131931,1,0,0:0:0:0:
256,192,132089,1,8,0:0:0:0:
256,192,132405,1,8,0:0:0:0:
256,192,132484,1,8,0:0:0:0:
256,192,132563,1,0,0:0:0:0:
256,192,132642,1,0,0:0:0:0:
256,192,132721,1,0,0:0:0:0:
256,192,132879,1,4,0:0:0:0:
256,192,133194,1,8,0:0:0:0:
256,192,133352,1,0,0:0:0:0:
256,192,133431,1,0,0:0:0:0:
256,192,133510,1,0,0:0:0:0:
256,192,133668,1,0,0:0:0:0:
256,192,133826,1,8,0:0:0:0:
256,192,133984,1,0,0:0:0:0:
256,192,134300,1,8,0:0:0:0:
256,192,134457,1,8,0:0:0:0:
256,192,134615,1,0,0:0:0:0:
256,192,134773,1,0,0:0:0:0:
256,192,134931,1,8,0:0:0:0:
256,192,135010,1,0,0:0:0:0:
256,192,135089,1,8,0:0:0:0:
256,192,135247,1,8,0:0:0:0:
256,192,135405,1,4,0:0:0:0:
256,192,135721,1,8,0:0:0:0:
256,192,135879,1,0,0:0:0:0:
256,192,136036,1,8,0:0:0:0:
256,192,136194,1,8,0:0:0:0:
256,192,136352,1,8,0:0:0:0:
256,192,136510,1,0,0:0:0:0:
256,192,136826,1,0,0:0:0:0:
256,192,136984,1,8,0:0:0:0:
256,192,137142,1,0,0:0:0:0:
256,192,137300,1,8,0:0:0:0:
256,192,137457,1,8,0:0:0:0:
256,192,137615,1,8,0:0:0:0:
256,192,137773,1,0,0:0:0:0:
256,192,137852,1,0,0:0:0:0:
256,192,137931,1,0,0:0:0:0:
256,192,138247,1,12,0:0:0:0:
256,192,138405,1,0,0:0:0:0:
256,192,138563,1,8,0:0:0:0:
256,192,138642,1,8,0:0:0:0:
256,192,138721,1,0,0:0:0:0:
256,192,138879,1,8,0:0:0:0:
256,192,139036,1,8,0:0:0:0:
256,192,139194,1,0,0:0:0:0:
256,192,139510,1,8,0:0:0:0:
256,192,139668,1,0,0:0:0:0:
256,192,139747,1,0,0:0:0:0:
256,192,139826,1,0,0:0:0:0:
256,192,139984,1,8,0:0:0:0:
256,192,140142,1,8,0:0:0:0:
256,192,140221,1,8,0:0:0:0:
256,192,140300,1,8,0:0:0:0:
256,192,140379,1,0,0:0:0:0:
256,192,140457,1,0,0:0:0:0:
256,192,140773,1,8,0:0:0:0:
256,192,140931,1,0,0:0:0:0:
256,192,141089,1,0,0:0:0:0:
256,192,141247,1,8,0:0:0:0:
256,192,141405,1,8,0:0:0:0:
256,192,141563,1,0,0:0:0:0:
256,192,141721,1,8,0:0:0:0:
256,192,141800,1,8,0:0:0:0:
256,192,141879,1,8,0:0:0:0:
256,192,141957,1,8,0:0:0:0:
256,192,142036,1,8,0:0:0:0:
256,192,142115,1,8,0:0:0:0:
256,192,142194,1,8,0:0:0:0:
256,192,142273,1,8,0:0:0:0:
256,192,142352,1,0,0:0:0:0:
256,192,142510,1,0,0:0:0:0:
256,192,142984,1,4,0:0:0:0:
256,192,143300,1,0,0:0:0:0:
256,192,143457,1,8,0:0:0:0:
256,192,143615,1,8,0:0:0:0:
256,192,143773,1,0,0:0:0:0:
256,192,143931,1,8,0:0:0:0:
256,192,144089,1,0,0:0:0:0:
256,192,144247,1,8,0:0:0:0:
256,192,144563,1,8,0:0:0:0:
256,192,144721,1,8,0:0:0:0:
256,192,144879,1,0,0:0:0:0:
256,192,145036,1,0,0:0:0:0:
256,192,145194,1,8,0:0:0:0:
256,192,145352,1,8,0:0:0:0:
256,192,145510,1,4,0:0:0:0:
256,192,145826,1,8,0:0:0:0:
256,192,145984,1,0,0:0:0:0:
256,192,146142,1,0,0:0:0:0:
256,192,146300,1,8,0:0:0:0:
256,192,146457,1,8,0:0:0:0:
256,192,146615,1,0,0:0:0:0:
256,192,146773,1,0,0:0:0:0:
256,192,147089,1,8,0:0:0:0:
256,192,147247,1,0,0:0:0:0:
256,192,147405,1,0,0:0:0:0:
256,192,147563,1,8,0:0:0:0:
256,192,147721,1,8,0:0:0:0:
256,192,147879,1,0,0:0:0:0:
256,192,147957,1,0,0:0:0:0:
256,192,148036,1,0,0:0:0:0:
256,192,148352,1,12,0:0:0:0:
256,192,148668,1,0,0:0:0:0:
256,192,148826,1,0,0:0:0:0:
256,192,148984,1,8,0:0:0:0:
256,192,149142,1,0,0:0:0:0:
256,192,149300,1,8,0:0:0:0:
256,192,149615,1,8,0:0:0:0:
256,192,149773,1,0,0:0:0:0:
256,192,149931,1,0,0:0:0:0:
256,192,150089,1,8,0:0:0:0:
256,192,150247,1,8,0:0:0:0:
256,192,150326,1,8,0:0:0:0:
256,192,150405,1,8,0:0:0:0:
256,192,150484,1,0,0:0:0:0:
256,192,150563,1,0,0:0:0:0:
256,192,150879,1,8,0:0:0:0:
256,192,151036,1,8,0:0:0:0:
256,192,151194,1,0,0:0:0:0:
256,192,151352,1,0,0:0:0:0:
256,192,151510,1,8,0:0:0:0:
256,192,151826,1,0,0:0:0:0:
256,192,151905,1,0,0:0:0:0:
256,192,151984,1,0,0:0:0:0:
256,192,152142,1,0,0:0:0:0:
256,192,152300,1,8,0:0:0:0:
256,192,152615,1,8,0:0:0:0:
256,192,152694,1,8,0:0:0:0:
256,192,152773,1,8,0:0:0:0:
256,192,152852,1,0,0:0:0:0:
256,192,152931,1,0,0:0:0:0:
256,192,153089,1,4,0:0:0:0:
256,192,153405,1,8,0:0:0:0:
256,192,153721,1,0,0:0:0:0:
256,192,153879,1,0,0:0:0:0:
256,192,154036,1,8,0:0:0:0:
256,192,154194,1,0,0:0:0:0:
256,192,154352,1,8,0:0:0:0:
256,192,154668,1,8,0:0:0:0:
256,192,154826,1,8,0:0:0:0:
256,192,154984,1,0,0:0:0:0:
256,192,155142,1,0,0:0:0:0:
256,192,155300,1,8,0:0:0:0:
256,192,155457,1,8,0:0:0:0:
256,192,155615,1,4,0:0:0:0:
256,192,155931,1,8,0:0:0:0:
256,192,156247,1,0,0:0:0:0:
256,192,156405,1,8,0:0:0:0:
256,192,156563,1,8,0:0:0:0:
256,192,156721,1,0,0:0:0:0:
256,192,156879,1,8,0:0:0:0:
256,192,157194,1,0,0:0:0:0:
256,192,157352,1,8,0:0:0:0:
256,192,157510,1,8,0:0:0:0:
256,192,157668,1,0,0:0:0:0:
256,192,157826,1,8,0:0:0:0:
256,192,157984,1,0,0:0:0:0:
256,192,158063,1,0,0:0:0:0:
256,192,158142,1,0,0:0:0:0:
256,192,158457,1,12,0:0:0:0:
256,192,158773,1,0,0:0:0:0:
256,192,158931,1,0,0:0:0:0:
256,192,159089,1,8,0:0:0:0:
256,192,159405,1,0,0:0:0:0:
256,192,159563,1,0,0:0:0:0:
256,192,159721,1,8,0:0:0:0:
256,192,160036,1,0,0:0:0:0:
256,192,160194,1,8,0:0:0:0:
256,192,160352,1,8,0:0:0:0:
256,192,160431,1,8,0:0:0:0:
256,192,160510,1,8,0:0:0:0:
256,192,160589,1,0,0:0:0:0:
256,192,160668,1,0,0:0:0:0:
256,192,160984,1,8,0:0:0:0:
256,192,161142,1,0,0:0:0:0:
256,192,161300,1,8,0:0:0:0:
256,192,161379,1,8,0:0:0:0:
256,192,161457,1,0,0:0:0:0:
256,192,161615,1,8,0:0:0:0:
256,192,161931,1,0,0:0:0:0:
256,192,162010,1,0,0:0:0:0:
256,192,162089,1,0,0:0:0:0:
256,192,162247,1,0,0:0:0:0:
256,192,162405,1,8,0:0:0:0:
256,192,162721,1,8,0:0:0:0:
256,192,162800,1,8,0:0:0:0:
256,192,162879,1,0,0:0:0:0:
256,192,163036,1,0,0:0:0:0:
256,192,163194,1,4,0:0:0:0:
256,192,163510,1,8,0:0:0:0:
256,192,163668,1,8,0:0:0:0:
256,192,163826,1,0,0:0:0:0:
256,192,163984,1,0,0:0:0:0:
256,192,164142,1,8,0:0:0:0:
256,192,164300,1,8,0:0:0:0:
256,192,164457,1,8,0:0:0:0:
256,192,164773,1,8,0:0:0:0:
256,192,164931,1,0,0:0:0:0:
256,192,165089,1,0,0:0:0:0:
256,192,165405,1,8,0:0:0:0:
256,192,165563,1,8,0:0:0:0:
256,192,165721,1,4,0:0:0:0:
256,192,166036,1,8,0:0:0:0:
256,192,166194,1,0,0:0:0:0:
256,192,166352,1,0,0:0:0:0:
256,192,166510,1,8,0:0:0:0:
256,192,166668,1,8,0:0:0:0:
256,192,166826,1,0,0:0:0:0:
256,192,167142,1,0,0:0:0:0:
256,192,167300,1,8,0:0:0:0:
256,192,167457,1,8,0:0:0:0:
256,192,167615,1,0,0:0:0:0:
256,192,167773,1,0,0:0:0:0:
256,192,167931,1,8,0:0:0:0:
256,192,168089,1,0,0:0:0:0:
256,192,168168,1,0,0:0:0:0:
256,192,168247,1,0,0:0:0:0:
256,192,168563,1,12,0:0:0:0:
256,192,169036,1,0,0:0:0:0:
256,192,169194,1,8,0:0:0:0:
256,192,169352,1,0,0:0:0:0:
256,192,169510,1,0,0:0:0:0:
256,192,169826,1,8,0:0:0:0:
256,192,169984,1,8,0:0:0:0:
256,192,170142,1,0,0:0:0:0:
256,192,170300,1,0,0:0:0:0:
256,192,170457,1,8,0:0:0:0:
256,192,170536,1,8,0:0:0:0:
256,192,170615,1,8,0:0:0:0:
256,192,170694,1,0,0:0:0:0:
256,192,170773,1,0,0:0:0:0:
256,192,171089,1,8,0:0:0:0:
256,192,171247,1,0,0:0:0:0:
256,192,171405,1,0,0:0:0:0:
256,192,171563,1,8,0:0:0:0:
256,192,171721,1,8,0:0:0:0:
256,192,172036,1,8,0:0:0:0:
256,192,172115,1,8,0:0:0:0:
256,192,172194,1,8,0:0:0:0:
256,192,172273,1,8,0:0:0:0:
256,192,172352,1,8,0:0:0:0:
256,192,172431,1,8,0:0:0:0:
256,192,172510,1,8,0:0:0:0:
256,192,172589,1,8,0:0:0:0:
256,192,172668,1,0,0:0:0:0:
256,192,173300,1,0,0:0:0:0:
256,192,173931,1,8,0:0:0:0:
256,192,174563,1,8,0:0:0:0:
256,192,175194,1,0,0:0:0:0:
256,192,175668,1,8,0:0:0:0:
256,192,176615,1,0,0:0:0:0:
256,192,176773,1,8,0:0:0:0:
256,192,176931,1,0,0:0:0:0:
256,192,177089,1,0,0:0:0:0:
256,192,177405,1,8,0:0:0:0:
256,192,177563,1,8,0:0:0:0:
256,192,177879,1,0,0:0:0:0:
256,192,178984,1,0,0:0:0:0:
256,192,179300,1,8,0:0:0:0:
256,192,179615,1,0,0:0:0:0:
256,192,179931,1,8,0:0:0:0:
256,192,180089,1,0,0:0:0:0:
256,192,180563,1,0,0:0:0:0:
256,192,181826,1,8,0:0:0:0:
256,192,182142,1,0,0:0:0:0:
256,192,182457,1,8,0:0:0:0:
256,192,182773,1,0,0:0:0:0:
256,192,183089,1,0,0:0:0:0:
256,192,183879,1,0,0:0:0:0:
256,192,184036,1,8,0:0:0:0:
256,192,184352,1,0,0:0:0:0:
256,192,184510,1,0,0:0:0:0:
256,192,184984,1,8,0:0:0:0:
256,192,185300,1,0,0:0:0:0:
256,192,185615,1,8,0:0:0:0:
256,192,185773,1,8,0:0:0:0:
256,192,185931,1,0,0:0:0:0:
256,192,186247,1,0,0:0:0:0:
256,192,186405,1,8,0:0:0:0:
256,192,186721,1,0,0:0:0:0:
256,192,186879,1,8,0:0:0:0:
256,192,187036,1,8,0:0:0:0:
256,192,188300,1,8,0:0:0:0:
256,192,188457,1,0,0:0:0:0:
256,192,188773,1,8,0:0:0:0:
256,192,188931,1,0,0:0:0:0:
256,192,189089,1,8,0:0:0:0:
256,192,189247,1,0,0:0:0:0:
256,192,189405,1,8,0:0:0:0:
256,192,189563,1,0,0:0:0:0:
256,192,189721,1,8,0:0:0:0:
256,192,189879,1,0,0:0:0:0:
256,192,190036,1,8,0:0:0:0:
256,192,190194,1,0,0:0:0:0:
256,192,190352,1,8,0:0:0:0:
256,192,190510,1,0,0:0:0:0:
256,192,190668,1,8,0:0:0:0:
256,192,190826,1,0,0:0:0:0:
256,192,190984,1,8,0:0:0:0:
256,192,191063,1,8,0:0:0:0:
256,192,191142,1,8,0:0:0:0:
256,192,191221,1,8,0:0:0:0:
256,192,191300,1,0,0:0:0:0:
256,192,191379,1,0,0:0:0:0:
256,192,191457,1,0,0:0:0:0:
256,192,191615,1,0,0:0:0:0:
256,192,191773,1,0,0:0:0:0:
256,192,191931,1,8,0:0:0:0:
256,192,192010,1,8,0:0:0:0:
256,192,192089,1,0,0:0:0:0:
256,192,192405,1,0,0:0:0:0:
256,192,192721,1,0,0:0:0:0:
256,192,193036,1,8,0:0:0:0:
256,192,193115,1,8,0:0:0:0:
256,192,193194,1,0,0:0:0:0:
256,192,193352,1,0,0:0:0:0:
256,192,194773,1,4,0:0:0:0:
256,192,195089,1,8,0:0:0:0:
256,192,195247,1,0,0:0:0:0:
256,192,195405,1,8,0:0:0:0:
256,192,195484,1,8,0:0:0:0:
256,192,195563,1,0,0:0:0:0:
256,192,195642,1,0,0:0:0:0:
256,192,195721,1,8,0:0:0:0:
256,192,195879,1,0,0:0:0:0:
256,192,196036,1,8,0:0:0:0:
256,192,196194,1,0,0:0:0:0:
256,192,196352,1,8,0:0:0:0:
256,192,196510,1,8,0:0:0:0:
256,192,196826,1,0,0:0:0:0:
256,192,196984,1,8,0:0:0:0:
256,192,197142,1,8,0:0:0:0:
256,192,197300,1,4,0:0:0:0:
256,192,197615,1,8,0:0:0:0:
256,192,197773,1,8,0:0:0:0:
256,192,197931,1,0,0:0:0:0:
256,192,198247,1,8,0:0:0:0:
256,192,198326,1,8,0:0:0:0:
256,192,198405,1,0,0:0:0:0:
256,192,198563,1,8,0:0:0:0:
256,192,198721,1,0,0:0:0:0:
256,192,198879,1,8,0:0:0:0:
256,192,199036,1,8,0:0:0:0:
256,192,199194,1,0,0:0:0:0:
256,192,199510,1,8,0:0:0:0:
256,192,199668,1,0,0:0:0:0:
256,192,199747,1,0,0:0:0:0:
256,192,199826,1,0,0:0:0:0:
256,192,200142,5,12,0:0:0:0:
256,192,200457,1,0,0:0:0:0:
256,192,200615,1,0,0:0:0:0:
256,192,200773,1,8,0:0:0:0:
256,192,200931,1,0,0:0:0:0:
256,192,201089,1,8,0:0:0:0:
256,192,201247,1,0,0:0:0:0:
256,192,201405,1,8,0:0:0:0:
256,192,201563,1,8,0:0:0:0:
256,192,201879,1,0,0:0:0:0:
256,192,202036,1,8,0:0:0:0:
256,192,202115,1,8,0:0:0:0:
256,192,202194,1,8,0:0:0:0:
256,192,202273,1,0,0:0:0:0:
256,192,202352,1,0,0:0:0:0:
256,192,202668,1,8,0:0:0:0:
256,192,202984,1,0,0:0:0:0:
256,192,203142,1,0,0:0:0:0:
256,192,203300,1,8,0:0:0:0:
256,192,203457,1,8,0:0:0:0:
256,192,203615,1,0,0:0:0:0:
256,192,203773,1,0,0:0:0:0:
256,192,203931,1,8,0:0:0:0:
256,192,204089,1,8,0:0:0:0:
256,192,204405,1,8,0:0:0:0:
256,192,204484,1,8,0:0:0:0:
256,192,204563,1,0,0:0:0:0:
256,192,204642,1,0,0:0:0:0:
256,192,204721,1,0,0:0:0:0:
256,192,204879,1,4,0:0:0:0:
256,192,205194,1,8,0:0:0:0:
256,192,205352,1,0,0:0:0:0:
256,192,205510,1,8,0:0:0:0:
256,192,205589,1,8,0:0:0:0:
256,192,205668,1,0,0:0:0:0:
256,192,205747,1,0,0:0:0:0:
256,192,205826,1,8,0:0:0:0:
256,192,205984,1,0,0:0:0:0:
256,192,206142,1,8,0:0:0:0:
256,192,206300,1,0,0:0:0:0:
256,192,206457,1,8,0:0:0:0:
256,192,206615,1,8,0:0:0:0:
256,192,206931,1,0,0:0:0:0:
256,192,207089,1,8,0:0:0:0:
256,192,207168,1,8,0:0:0:0:
256,192,207247,1,0,0:0:0:0:
256,192,207405,1,4,0:0:0:0:
256,192,207721,1,8,0:0:0:0:
256,192,207879,1,0,0:0:0:0:
256,192,208036,1,0,0:0:0:0:
256,192,208194,1,8,0:0:0:0:
256,192,208352,1,8,0:0:0:0:
256,192,208510,1,0,0:0:0:0:
256,192,208668,1,8,0:0:0:0:
256,192,208826,1,0,0:0:0:0:
256,192,208984,1,8,0:0:0:0:
256,192,209300,1,0,0:0:0:0:
256,192,209457,1,8,0:0:0:0:
256,192,209615,1,8,0:0:0:0:
256,192,209773,1,0,0:0:0:0:
256,192,209852,1,0,0:0:0:0:
256,192,209931,1,0,0:0:0:0:
256,192,210247,1,12,0:0:0:0:
256,192,210563,1,0,0:0:0:0:
256,192,210721,1,0,0:0:0:0:
256,192,210800,1,0,0:0:0:0:
256,192,210879,1,8,0:0:0:0:
256,192,211036,1,8,0:0:0:0:
256,192,211194,1,0,0:0:0:0:
256,192,211352,1,0,0:0:0:0:
256,192,211510,1,8,0:0:0:0:
256,192,211826,1,0,0:0:0:0:
256,192,211984,1,0,0:0:0:0:
256,192,212142,1,8,0:0:0:0:
256,192,212221,1,8,0:0:0:0:
256,192,212300,1,8,0:0:0:0:
256,192,212379,1,0,0:0:0:0:
256,192,212457,1,0,0:0:0:0:
256,192,212773,1,8,0:0:0:0:
256,192,212931,1,8,0:0:0:0:
256,192,213010,1,8,0:0:0:0:
256,192,213089,1,0,0:0:0:0:
256,192,213247,1,0,0:0:0:0:
256,192,213405,1,8,0:0:0:0:
256,192,213721,1,0,0:0:0:0:
256,192,213800,1,0,0:0:0:0:
256,192,213879,1,8,0:0:0:0:
256,192,214036,1,0,0:0:0:0:
256,192,214194,1,8,0:0:0:0:
256,192,214352,1,0,0:0:0:0:
256,192,214510,1,8,0:0:0:0:
256,192,214589,1,8,0:0:0:0:
256,192,214668,1,0,0:0:0:0:
256,192,214747,1,0,0:0:0:0:
256,192,214826,1,0,0:0:0:0:
256,192,214984,1,4,0:0:0:0:
256,192,215300,1,8,0:0:0:0:
256,192,215457,1,0,0:0:0:0:
256,192,215536,1,0,0:0:0:0:
256,192,215615,1,0,0:0:0:0:
256,192,215773,1,0,0:0:0:0:
256,192,215931,1,8,0:0:0:0:
256,192,216089,1,0,0:0:0:0:
256,192,216405,1,0,0:0:0:0:
256,192,216563,1,8,0:0:0:0:
256,192,216721,1,8,0:0:0:0:
256,192,216879,1,0,0:0:0:0:
256,192,217036,1,0,0:0:0:0:
256,192,217194,1,8,0:0:0:0:
256,192,217273,1,8,0:0:0:0:
256,192,217352,1,0,0:0:0:0:
256,192,217510,1,4,0:0:0:0:
256,192,217826,1,8,0:0:0:0:
256,192,217984,1,0,0:0:0:0:
256,192,218142,1,0,0:0:0:0:
256,192,218300,1,8,0:0:0:0:
256,192,218457,1,8,0:0:0:0:
256,192,218615,1,0,0:0:0:0:
256,192,218931,1,0,0:0:0:0:
256,192,219089,1,8,0:0:0:0:
256,192,219247,1,8,0:0:0:0:
256,192,219405,1,0,0:0:0:0:
256,192,219563,1,0,0:0:0:0:
256,192,219721,1,8,0:0:0:0:
256,192,219879,1,0,0:0:0:0:
256,192,219957,1,0,0:0:0:0:
256,192,220036,1,0,0:0:0:0:
256,192,220352,1,12,0:0:0:0:
256,192,220668,1,8,0:0:0:0:
256,192,220826,1,8,0:0:0:0:
256,192,220984,1,0,0:0:0:0:
256,192,221142,1,0,0:0:0:0:
256,192,221300,1,8,0:0:0:0:
256,192,221615,1,8,0:0:0:0:
256,192,221773,1,8,0:0:0:0:
256,192,221931,1,0,0:0:0:0:
256,192,222089,1,0,0:0:0:0:
256,192,222247,1,8,0:0:0:0:
256,192,222326,1,8,0:0:0:0:
256,192,222405,1,8,0:0:0:0:
256,192,222484,1,0,0:0:0:0:
256,192,222563,1,0,0:0:0:0:
256,192,222879,1,8,0:0:0:0:
256,192,223036,1,0,0:0:0:0:
256,192,223194,5,0,0:0:0:0:
256,192,223352,1,8,0:0:0:0:
256,192,223510,1,8,0:0:0:0:
256,192,223668,1,0,0:0:0:0:
256,192,223826,1,8,0:0:0:0:
256,192,223905,1,8,0:0:0:0:
256,192,223984,1,8,0:0:0:0:
256,192,224063,1,8,0:0:0:0:
256,192,224142,1,8,0:0:0:0:
256,192,224221,1,8,0:0:0:0:
256,192,224300,1,8,0:0:0:0:
256,192,224379,1,8,0:0:0:0:
256,192,224457,1,0,0:0:0:0:
256,192,224615,1,0,0:0:0:0:
256,192,224931,5,12,0:0:0:0:
256,192,225247,1,0,0:0:0:0:
256,192,225405,1,8,0:0:0:0:
256,192,225721,1,0,0:0:0:0:
256,192,225879,1,0,0:0:0:0:
256,192,226036,1,8,0:0:0:0:
256,192,226115,1,8,0:0:0:0:
256,192,226194,1,0,0:0:0:0:
256,192,226510,1,0,0:0:0:0:
256,192,226668,1,8,0:0:0:0:
256,192,226826,1,0,0:0:0:0:
256,192,226984,1,0,0:0:0:0:
256,192,227142,1,8,0:0:0:0:
256,192,227300,1,8,0:0:0:0:
256,192,227457,1,0,0:0:0:0:
256,192,227773,1,0,0:0:0:0:
256,192,227931,1,8,0:0:0:0:
256,192,228089,1,0,0:0:0:0:
256,192,228247,1,8,0:0:0:0:
256,192,228405,1,8,0:0:0:0:
256,192,228563,1,8,0:0:0:0:
256,192,228721,1,0,0:0:0:0:
256,192,229036,1,0,0:0:0:0:
256,192,229194,1,8,0:0:0:0:
256,192,229352,1,0,0:0:0:0:
256,192,229510,1,0,0:0:0:0:
256,192,229668,1,8,0:0:0:0:
256,192,229747,1,8,0:0:0:0:
256,192,229826,1,8,0:0:0:0:
256,192,229905,1,8,0:0:0:0:
256,192,229984,1,0,0:0:0:0:
256,192,230300,1,0,0:0:0:0:
256,192,230457,1,8,0:0:0:0:
256,192,230615,1,8,0:0:0:0:
256,192,230773,1,0,0:0:0:0:
256,192,230931,1,0,0:0:0:0:
256,192,231089,1,8,0:0:0:0:
256,192,231168,1,8,0:0:0:0:
256,192,231247,1,0,0:0:0:0:
256,192,231563,1,0,0:0:0:0:
256,192,231721,1,8,0:0:0:0:
256,192,231879,1,8,0:0:0:0:
256,192,232036,1,0,0:0:0:0:
256,192,232194,1,0,0:0:0:0:
256,192,232352,1,8,0:0:0:0:
256,192,232510,1,8,0:0:0:0:
256,192,232589,1,8,0:0:0:0:
256,192,232668,1,0,0:0:0:0:
256,192,232826,1,0,0:0:0:0:
256,192,232984,1,8,0:0:0:0:
256,192,233300,1,8,0:0:0:0:
256,192,233457,1,8,0:0:0:0:
256,192,233615,5,0,0:0:0:0:
256,192,233773,1,0,0:0:0:0:
256,192,233931,1,8,0:0:0:0:
256,192,234405,1,0,0:0:0:0:
256,192,234721,1,0,0:0:0:0:
256,192,234800,1,0,0:0:0:0:
256,192,234879,1,8,0:0:0:0:
256,192,235194,12,0,237721,0:0:0:0:
