osu file format v14

[General]
AudioFilename: audio.mp3
AudioLeadIn: 0
PreviewTime: 61878
Countdown: 1
SampleSet: None
StackLeniency: 0.7
Mode: 0
LetterboxInBreaks: 0
WidescreenStoryboard: 1

[Editor]
DistanceSpacing: 0.5
BeatDivisor: 4
GridSize: 8
TimelineZoom: 2.2

[Metadata]
Title:Into your memory feat. Aitsuki Nakuru [TV Size.]
TitleUnicode:Into your memory feat. 藍月なくる [TV Size]
Artist:Jun Kuroda
ArtistUnicode:Jun Kuroda
Creator:AJiSAI-
Version:timing
Source:
Tags:
BeatmapID:2051020
BeatmapSetID:978578

[Difficulty]
HPDrainRate:6
CircleSize:4.2
OverallDifficulty:8.4
ApproachRate:9.2
SliderMultiplier:1.7
SliderTickRate:1

[Events]
//Background and Video events
0,0,"63386871_p0 1080p.jpg",0,0
//Break Periods
//Storyboard Layer 0 (Background)
//Storyboard Layer 1 (Fail)
//Storyboard Layer 2 (Pass)
//Storyboard Layer 3 (Foreground)
//Storyboard Sound Samples

[TimingPoints]
743,315.789473684211,4,1,0,100,1,0
1216,315.789473684211,4,1,0,100,1,0
1216,-100,4,1,1,75,0,1
1689,-111.111111111111,4,1,1,75,0,0
2352,-100,4,1,1,75,0,0
2668,-111.111111111111,4,1,1,75,0,0
5826,-125,4,1,1,75,0,0
6142,-76.9230769230769,4,1,1,75,0,0
6458,-111.111111111111,4,1,1,75,0,0
8826,-111.111111111111,4,1,1,75,0,0
10089,-133.333333333333,4,1,1,75,0,0
11352,315.789473684211,4,2,1,75,1,0
11479,315.789473684211,4,1,0,100,1,0
11479,-125,4,2,1,75,0,0
16294,-83.3333333333333,4,2,1,75,0,1
16689,-90.9090909090909,4,2,1,75,0,0
18773,-83.3333333333333,4,2,1,75,0,1
19088,-90.9090909090909,4,2,1,75,0,0
21457,-125,4,2,1,75,0,0
26352,-83.3333333333333,4,2,1,75,0,1
26667,-90.9090909090908,4,2,1,75,0,0
28878,-83.3333333333333,4,2,1,75,0,1
29194,-90.9090909090908,4,2,1,75,0,0
30299,-133.333333333333,4,2,1,75,0,0
30615,-142.857142857143,4,2,1,75,0,0
31562,-111.111111111111,4,2,1,75,0,0
31878,-125,4,2,1,75,0,0
36615,-100,4,2,1,75,0,0
36930,-90.9090909090909,4,2,1,75,0,0
40246,-111.111111111111,4,2,1,75,0,0
41667,-83.3333333333333,4,2,1,75,0,1
41983,-90.9090909090909,4,2,1,75,0,1
44194,-83.3333333333333,4,2,1,75,0,1
44509,-90.9090909090909,4,2,1,75,0,1
46720,-100,4,2,1,75,0,1
47036,-83.3333333333333,4,2,1,75,0,1
47352,-90.9090909090909,4,2,1,75,0,1
49246,-83.3333333333333,4,2,1,75,0,1
49562,-90.9090909090909,4,2,1,75,0,1
51773,-83.3333333333333,4,2,1,75,0,1
52088,-90.9090909090909,4,2,1,75,0,0
54299,-83.3333333333333,4,2,1,75,0,0
54615,-90.9090909090909,4,2,1,75,0,0
56667,-76.9230769230769,4,2,1,75,0,0
56825,-83.3333333333333,4,2,1,75,0,0
57141,-90.9090909090909,4,2,1,75,0,0
59036,-100,4,2,1,75,0,0
59352,-90.9090909090909,4,2,1,75,0,0
61878,-90.9090909090909,4,2,1,75,0,1
66615,-83.3333333333333,4,2,1,75,0,0
66930,-83.3333333333333,4,2,1,75,0,1
67246,-90.9090909090909,4,2,1,75,0,1
69457,-83.3333333333333,4,2,1,75,0,1
69773,-90.9090909090909,4,2,1,75,0,1
71036,-90.9090909090909,4,2,1,75,0,1
71194,-83.3333333333333,4,2,1,75,0,1
71352,-76.9230769230769,4,2,1,75,0,1
71825,-99.9999999999999,4,1,1,75,0,0
71952,315.789473684211,4,1,0,100,1,0
72141,-111.111111111111,4,1,1,75,0,0
73088,-99.9999999999999,4,1,1,75,0,0
73404,-111.111111111111,4,1,1,75,0,0
76562,-125,4,1,1,75,0,0
76878,-76.9230769230769,4,1,1,75,0,0
77194,-111.111111111111,4,1,1,75,0,0
79562,-100,4,1,1,75,0,0
81141,-90.9090909090909,4,1,1,75,0,0

[Colours]
Combo1 : 128,128,255
Combo2 : 255,174,215
Combo3 : 117,180,255

[HitObjects]
400,80,743,5,0,0:0:0:0:
400,80,900,1,0,0:0:0:0:
400,88,1216,6,0,P|376:152|376:256,1,170,6|0,1:0|0:0,0:0:0:0:
232,376,1689,2,0,P|248:336|256:296,1,76.4999976654053,4|0,1:0|1:1,1:1:0:0:
192,120,2005,1,4,0:0:0:0:
376,256,2163,1,0,0:0:0:0:
152,216,2320,1,4,1:1:0:0:
336,112,2478,6,0,B|376:104|376:104|432:120|432:120|464:112,1,127.5,6|0,0:0|0:0,0:0:0:0:
488,104,2794,1,0,0:0:0:0:
360,200,2952,1,0,0:0:0:0:
432,40,3110,1,4,0:0:0:0:
272,184,3268,6,0,P|240:200|192:216,1,76.4999976654053
256,96,3584,1,4,0:1:0:0:
304,280,3742,6,0,P|336:296|384:312,1,76.4999976654053,2|0,0:0|0:0,0:0:0:0:
336,112,4057,1,0,0:0:0:0:
201,213,4215,2,0,P|190:247|183:297,1,76.4999976654053,4|0,0:0|0:0,0:0:0:0:
360,200,4531,1,4,0:1:0:0:
168,112,4689,1,0,0:0:0:0:
304,280,4847,1,4,0:1:0:0:
336,112,5005,6,0,P|311:86|272:56,1,76.4999976654053,6|0,0:0|0:0,0:0:0:0:
352,296,5320,2,0,P|386:287|432:268,1,76.4999976654053,4|0,0:0|0:0,0:0:0:0:
200,208,5636,2,0,P|189:242|183:291,1,76.4999976654053,4|0,0:0|0:0,0:0:0:0:
432,111,5952,6,0,B|400:95|400:95|336:111,1,102,4|0,0:0|0:0,0:0:0:0:
256,144,6268,6,0,B|296:168|296:168|280:40,1,165.749992412568,2|0,0:0|0:0,0:0:0:0:
272,24,6584,5,0,0:0:0:0:
200,208,6742,1,4,0:0:0:0:
136,56,6899,1,4,0:0:0:0:
320,184,7057,1,4,0:0:0:0:
128,136,7215,2,4,P|104:128|48:120,1,76.4999976654053,4|0,0:0|0:0,0:0:0:0:
208,296,7531,6,4,P|231:286|279:256,1,76.4999976654053,4|0,0:0|0:0,0:0:0:0:
128,136,7847,2,4,P|124:161|126:217,1,76.4999976654053,4|0,0:0|0:0,0:0:0:0:
304,128,8163,2,4,P|284:112|234:85,1,76.4999976654053,4|0,0:0|0:0,0:0:0:0:
274,259,8478,2,4,P|298:266|353:275,1,76.4999976654053,4|0,0:0|0:0,0:0:0:0:
304,128,8794,1,4,0:1:0:0:
192,200,8952,6,0,B|168:232|168:232|176:312,1,114.749996498108,4|0,0:1|0:1,0:1:0:0:
176,328,9268,1,0,0:0:0:0:
120,160,9426,1,0,0:0:0:0:
272,264,9584,6,4,P|295:254|343:224,1,76.4999976654053,4|0,0:0|0:0,0:0:0:0:
192,200,9899,1,0,0:0:0:0:
176,296,10057,1,8,0:0:0:0:
176,296,10215,6,0,P|232:288|296:328,1,127.500004863739,4|0,0:0|0:0,0:0:0:0:
416,264,10689,2,0,P|378:256|352:240,1,63.7500024318696,4|0,0:0|0:0,0:0:0:0:
344,232,10926,1,0,0:0:0:0:
344,232,11005,1,0,0:0:0:0:
291,322,11163,1,0,0:0:0:0:
240,192,11320,1,0,0:0:0:0:
416,168,11478,5,0,0:0:0:0:
416,168,11793,6,0,P|432:136|408:40,1,136
336,112,12267,2,0,P|304:120|264:120,1,68
192,72,12583,1,0,0:0:0:0:
120,168,12741,2,0,P|160:168|192:176,1,68
328,216,13056,6,0,P|292:218|221:286,1,136
312,376,13530,2,0,P|320:336|312:304,1,68
222,283,13846,1,0,0:0:0:0:
328,216,14004,1,0,0:0:0:0:
128,256,14320,6,0,L|136:328,1,68
272,192,14635,1,0,0:0:0:0:
272,192,14793,2,0,L|256:264,1,68
120,176,15109,1,0,0:0:0:0:
216,120,15267,6,0,P|248:104|280:96,1,68
352,152,15583,1,0,0:0:0:0:
368,64,15741,1,0,0:0:0:0:
272,192,15899,6,0,P|274:227|283:259,1,68
368,280,16214,1,0,0:0:0:0:
312,120,16372,6,0,B|264:112|264:112|216:128|216:128|160:120,1,152.999995330811,6|0,0:0|0:0,0:0:0:0:
136,112,16688,1,0,0:0:0:0:
392,80,16846,2,0,B|400:128|400:128|384:176,1,93.5000028533936
264,304,17162,2,0,B|248:256|248:256|264:216,1,93.5000028533936
456,280,17478,2,0,L|360:264,1,93.5000028533936
216,128,17793,2,0,L|312:120,1,93.5000028533936
363,264,18109,5,0,0:0:0:0:
392,80,18267,1,0,0:0:0:0:
264,216,18425,1,0,0:0:0:0:
472,176,18583,1,0,0:0:0:0:
224,128,18741,1,0,0:0:0:0:
472,8,18899,6,0,B|504:40|504:40|520:88|488:144,1,152.999995330811
472,176,19214,1,0,0:0:0:0:
304,88,19372,2,0,P|352:72|400:80,1,93.5000028533936
240,224,19688,2,0,P|192:240|144:232,1,93.5000028533936
360,176,20004,2,0,L|352:280,1,93.5000028533936
192,128,20320,2,0,L|184:32,1,93.5000028533936
360,176,20635,5,0,0:0:0:0:
152,232,20793,1,0,0:0:0:0:
304,88,20951,1,0,0:0:0:0:
232,280,21108,1,0,0:0:0:0:
232,280,21187,1,0,0:0:0:0:
232,280,21267,5,0,0:0:0:0:
210,309,21346,1,0,0:0:0:0:
177,327,21425,1,0,0:0:0:0:
140,331,21504,1,0,0:0:0:0:
105,319,21583,6,0,P|72:312|32:312,1,68,4|0,0:0|0:0,0:0:0:0:
152,232,21899,1,0,0:0:0:0:
232,280,22056,2,0,P|272:288|304:288,1,68
200,152,22372,2,0,P|160:144|128:144,1,68
280,208,22688,6,0,P|296:120|272:80,1,136
128,160,23162,2,0,L|208:152,1,68
274,82,23478,1,0,0:0:0:0:
347,215,23635,2,0,L|275:207,1,68
195,153,23951,1,8,0:0:0:0:
272,16,24109,6,0,B|304:48|304:48|288:144,1,136
209,219,24583,2,0,L|193:147,1,68
88,24,24899,2,0,L|72:96,1,68
194,152,25214,1,0,0:0:0:0:
112,200,25372,1,0,0:0:0:0:
160,72,25530,6,0,B|192:64|192:64|232:72,1,68
336,96,25846,1,0,0:0:0:0:
192,240,26004,1,0,0:0:0:0:
192,152,26162,1,0,0:0:0:0:
320,296,26320,1,0,0:0:0:0:
480,176,26478,6,0,B|440:152|440:152|336:176,1,152.999995330811
264,192,26793,1,0,0:0:0:0:
496,96,26951,6,0,B|512:48|512:48|496:0,1,93.5000028533936
424,240,27267,2,0,B|408:288|408:288|416:336,1,93.5000028533936
416,48,27583,2,0,L|320:56,1,93.5000028533936
208,176,27899,2,0,L|304:192,1,93.5000028533936
416,48,28214,5,0,0:0:0:0:
464,176,28372,1,0,0:0:0:0:
288,56,28530,1,0,0:0:0:0:
296,208,28688,1,0,0:0:0:0:
424,32,28846,1,0,0:0:0:0:
208,176,29004,6,0,B|160:184|160:184|104:176|104:176|56:184,1,152.999995330811,2|0,0:0|0:0,0:0:0:0:
0,191,29320,1,0,0:0:0:0:
160,96,29478,1,0,0:0:0:0:
104,256,29635,1,0,0:0:0:0:
272,136,29793,2,0,B|288:88|288:88|272:48,1,93.5000028533936
104,256,30109,2,0,B|88:304|88:304|104:352,1,93.5000028533936
328,304,30425,6,0,B|232:288|232:288|200:296,1,127.500004863739
104,336,30899,1,0,0:0:0:0:
128,232,31056,2,0,P|136:208|144:168,1,59.4999981842042
202,295,31372,2,0,P|210:335|218:359,1,59.4999981842042
272,232,31688,6,0,P|328:224|384:248,1,114.749996498108
400,264,32004,2,0,P|432:272|472:272,1,68
448,184,32320,1,0,0:0:0:0:
320,312,32478,2,0,L|328:384,1,68
272,232,32793,1,0,0:0:0:0:
224,312,32951,6,0,P|192:328|160:336,1,68
40,232,33267,2,0,P|72:248|104:256,1,68
184,200,33583,1,0,0:0:0:0:
103,255,33899,5,0,0:0:0:0:
96,160,34056,1,0,0:0:0:0:
200,288,34214,6,0,P|232:304|264:312,1,68
103,255,34530,2,0,P|70:263|39:278,1,68
128,352,34846,1,0,0:0:0:0:
256,216,35004,2,0,P|265:183|266:149,1,68
168,72,35320,1,0,0:0:0:0:
104,184,35478,2,0,L|176:176,1,68
256,216,35793,1,0,0:0:0:0:
280,24,35951,1,0,0:0:0:0:
192,272,36109,5,0,0:0:0:0:
192,272,36188,1,0,0:0:0:0:
192,272,36267,2,0,L|200:312,1,34
336,264,36425,1,0,0:0:0:0:
336,264,36504,1,0,0:0:0:0:
336,264,36583,2,0,L|344:224,1,34
432,128,36741,6,0,B|368:144|368:144|320:104,1,127.5,2|0,0:0|0:0,0:0:0:0:
256,56,37056,5,4,0:0:0:0:
424,216,37214,1,0,0:0:0:0:
232,144,37372,2,0,L|136:136,1,93.5000028533936
336,264,37688,1,0,0:0:0:0:
392,48,37846,6,0,L|488:56,1,93.5000028533936,2|2,0:0|0:0,0:0:0:0:
232,144,38162,1,0,0:0:0:0:
432,128,38320,1,8,0:0:0:0:
192,56,38478,1,0,0:0:0:0:
424,216,38635,6,0,B|440:264|440:264|424:312,1,93.5000028533936,2|0,0:0|0:0,0:0:0:0:
232,231,38951,2,0,B|216:183|216:183|232:143,1,93.5000028533936,8|0,0:0|0:0,0:0:0:0:
392,48,39267,5,0,0:0:0:0:
304,184,39425,1,0,0:0:0:0:
432,128,39583,1,0,0:0:0:0:
424,304,39741,1,0,0:0:0:0:
224,144,39899,1,0,0:0:0:0:
424,216,40056,1,0,0:0:0:0:
232,231,40214,1,0,0:0:0:0:
480,56,40372,1,2,0:0:0:0:
336,264,40688,5,0,0:0:0:0:
192,56,40846,1,0,0:0:0:0:
184,80,41004,5,0,0:0:0:0:
152,168,41162,1,8,0:0:0:0:
208,352,41320,1,4,0:0:0:0:
312,192,41478,1,0,0:0:0:0:
152,272,41635,5,0,0:0:0:0:
464,280,41793,6,0,B|400:272|400:272|328:296|328:296|264:288,1,203.999993774414
408,360,42267,1,0,0:0:0:0:
312,192,42425,2,0,B|288:136|288:136|312:56,1,140.25000428009
392,128,42741,2,0,P|440:144|488:144,1,93.5000028533936
264,288,43056,6,0,B|224:264|224:264|128:288,1,140.25000428009
48,312,43372,1,8,0:0:0:0:
256,80,43530,2,0,L|240:176,1,93.5000028533936
208,352,43846,1,0,0:0:0:0:
64,224,44004,1,0,0:0:0:0:
224,264,44162,1,0,0:0:0:0:
168,32,44320,6,0,B|120:56|120:56|136:160,1,152.999995330811,2|0,0:0|0:0,0:0:0:0:
144,248,44635,1,0,0:0:0:0:
312,128,44793,2,0,P|272:112|216:104,1,93.5000028533936,2|0,0:0|0:0,0:0:0:0:
64,224,45109,1,0,0:0:0:0:
272,296,45267,6,0,P|254:252|247:206,1,93.5000028533936,2|0,0:0|0:0,0:0:0:0:
168,16,45583,2,0,P|138:52|102:81,1,93.5000028533936
8,296,45899,2,0,P|54:302|97:319,1,93.5000028533936,8|0,0:0|0:0,0:0:0:0:
224,384,46214,5,0,0:0:0:0:
64,224,46372,1,0,0:0:0:0:
272,296,46530,1,0,0:0:0:0:
24,304,46688,5,0,0:0:0:0:
97,319,46767,1,0,0:0:0:0:
168,328,46846,2,0,B|232:344|232:344|272:296,1,127.5
216,168,47162,6,0,B|176:136|176:136|200:240,1,152.999995330811,4|0,0:0|0:0,0:0:0:0:
232,344,47478,5,0,0:0:0:0:
328,216,47635,1,0,0:0:0:0:
112,256,47793,1,0,0:0:0:0:
368,304,47951,1,0,0:0:0:0:
216,160,48109,2,0,P|192:112|184:72,1,93.5000028533936
328,216,48425,1,0,0:0:0:0:
112,120,48583,6,0,P|67:106|20:104,1,93.5000028533936,2|0,0:0|0:0,0:0:0:0:
216,160,48899,1,0,0:0:0:0:
128,0,49056,1,0,0:0:0:0:
128,0,49135,1,0,0:0:0:0:
128,0,49214,2,0,L|120:48,1,46.7500014266968
56,192,49372,6,0,B|112:176|152:216|152:216|192:256|248:240,1,203.999993774414
80,296,49846,1,0,0:0:0:0:
296,168,50004,1,0,0:0:0:0:
56,192,50162,1,0,0:0:0:0:
243,241,50320,1,0,0:0:0:0:
88,120,50478,1,2,0:0:0:0:
176,328,50635,5,0,0:0:0:0:
216,160,50793,1,0,0:0:0:0:
80,296,50951,5,0,0:0:0:0:
328,248,51109,1,0,0:0:0:0:
120,48,51267,1,0,0:0:0:0:
240,240,51425,1,0,0:0:0:0:
240,240,51504,1,0,0:0:0:0:
240,240,51583,1,0,0:0:0:0:
40,56,51741,5,0,0:0:0:0:
88,120,51820,1,0,0:0:0:0:
144,176,51899,2,0,B|224:144|224:144|248:104|248:104|312:72,1,203.999993774414
152,72,52372,1,0,0:0:0:0:
320,176,52530,6,0,P|344:248|328:312,1,140.25000428009,2|0,0:0|0:0,0:0:0:0:
240,240,52846,2,0,P|195:217|147:209,1,93.5000028533936
312,72,53162,2,0,B|360:96|360:96|448:72,1,140.25000428009,2|0,0:0|0:0,0:0:0:0:
512,32,53478,1,0,0:0:0:0:
320,264,53635,6,0,B|304:216|304:216|320:176,1,93.5000028533936
376,16,53951,1,0,0:0:0:0:
488,248,54109,2,0,P|448:232|392:224,1,93.5000028533936,2|0,0:0|0:0,0:0:0:0:
200,312,54425,6,0,B|248:336|248:336|224:232,1,152.999995330811,4|0,0:0|0:0,0:0:0:0:
208,152,54741,5,0,0:0:0:0:
56,272,54899,2,0,P|96:256|152:248,1,93.5000028533936,8|0,0:0|0:0,0:0:0:0:
320,264,55214,1,0,0:0:0:0:
120,160,55372,6,0,P|102:116|95:70,1,93.5000028533936,4|0,0:0|0:0,0:0:0:0:
385,198,55688,2,0,P|355:234|319:263,1,93.5000028533936,2|0,0:0|0:0,0:0:0:0:
56,272,56004,2,0,P|102:278|145:295,1,93.5000028533936,8|0,0:0|0:0,0:0:0:0:
248,336,56320,1,0,0:0:0:0:
120,160,56478,1,0,0:0:0:0:
120,160,56556,6,0,P|102:116|95:70,1,93.5000028533936,4|0,0:0|0:0,0:0:0:0:
200,144,56793,2,0,P|200:176|192:200,1,55.2499974708558,8|0,0:0|0:0,0:0:0:0:
56,272,56951,6,2,P|136:280|192:328,1,152.999995330811,8|0,0:0|0:0,0:0:0:0:
232,384,57267,1,4,0:0:0:0:
408,240,57425,6,0,P|361:246|318:263,1,93.5000028533936,2|0,0:0|0:0,0:0:0:0:
176,56,57741,2,0,P|222:62|265:79,1,93.5000028533936,2|8,0:0|0:0,0:0:0:0:
318,263,58056,1,0,0:0:0:0:
192,197,58214,1,0,0:0:0:0:
352,128,58372,1,0,0:0:0:0:
192,328,58530,1,8,0:0:0:0:
264,80,58688,1,2,0:0:0:0:
416,240,58846,5,0,0:0:0:0:
416,240,58925,1,0,0:0:0:0:
416,240,59004,1,0,0:0:0:0:
192,328,59162,6,0,B|224:320|256:336|256:336|288:352|320:344,1,127.5,2|0,0:0|0:0,0:0:0:0:
405,329,59478,6,0,P|421:281|413:233,1,93.5000028533936,8|0,0:0|0:0,0:0:0:0:
265,79,59793,1,0,0:0:0:0:
192,200,59951,6,0,P|235:216|281:222,1,93.5000028533936,2|2,0:0|0:0,0:0:0:0:
416,240,60267,1,0,0:0:0:0:
328,16,60425,6,0,P|291:45|263:82,1,93.5000028533936,8|2,0:0|0:0,0:0:0:0:
192,200,60741,1,2,0:0:0:0:
368,112,60899,5,2,0:0:0:0:
152,48,61056,1,8,0:0:0:0:
281,222,61214,1,0,0:0:0:0:
263,82,61372,1,0,0:0:0:0:
120,304,61530,1,0,0:0:0:0:
328,168,61688,1,0,0:0:0:0:
112,176,61846,1,0,0:0:0:0:
415,239,62004,5,0,0:0:0:0:
328,16,62320,6,0,P|291:45|263:82,1,93.5000028533936,2|0,0:0|0:0,0:0:0:0:
192,200,62635,1,0,0:0:0:0:
368,112,62793,1,0,0:0:0:0:
281,222,62951,1,8,0:0:0:0:
152,48,63109,1,0,0:0:0:0:
368,112,63267,6,0,P|411:129|457:135,1,93.5000028533936,2|0,0:0|0:0,0:0:0:0:
312,328,63583,2,0,P|268:310|222:304,1,93.5000028533936,8|0,0:0|0:0,0:0:0:0:
96,328,63899,1,0,0:0:0:0:
280,224,64056,1,0,0:0:0:0:
104,176,64214,1,8,0:0:0:0:
104,176,64293,1,0,0:0:0:0:
104,176,64372,1,2,0:0:0:0:
312,328,64530,6,0,P|348:298|377:261,1,93.5000028533936,2|0,0:0|0:0,0:0:0:0:
408,128,64846,1,8,0:0:0:0:
192,200,65004,6,0,P|235:217|281:223,1,93.5000028533936,8|2,0:0|0:0,0:0:0:0:
504,216,65320,1,0,0:0:0:0:
272,88,65478,1,0,0:0:0:0:
376,264,65635,6,0,P|394:306|400:353,1,93.5000028533936,8|0,0:0|0:0,0:0:0:0:
192,200,65951,1,0,0:0:0:0:
408,128,66109,1,0,0:0:0:0:
208,304,66267,6,0,P|161:298|118:280,1,93.5000028533936,0|2,0:0|0:0,0:0:0:0:
376,264,66583,1,0,0:0:0:0:
192,200,66741,2,0,P|173:157|168:96,1,101.999996887207,2|2,0:0|0:0,0:0:0:0:
272,16,66978,5,0,0:0:0:0:
272,16,67056,2,0,B|216:32|216:32|168:24|168:24|120:32,1,152.999995330811
40,48,67372,5,4,0:0:0:0:
192,200,67530,2,0,P|210:243|216:289,1,93.5000028533936,0|2,0:0|0:0,0:0:0:0:
465,287,67846,2,0,P|417:281|375:263,1,93.5000028533936
272,16,68162,2,0,P|253:59|247:105,1,93.5000028533936,0|2,0:0|0:0,0:0:0:0:
375,263,68478,5,0,0:0:0:0:
192,200,68635,1,0,0:0:0:0:
344,80,68793,1,0,0:0:0:0:
216,288,68951,1,0,0:0:0:0:
248,104,69109,1,0,0:0:0:0:
400,360,69267,1,8,0:0:0:0:
304,200,69425,5,0,0:0:0:0:
376,176,69504,1,0,0:0:0:0:
448,160,69583,2,0,P|466:204|472:249,1,93.5000028533936
400,360,69899,5,12,0:0:0:0:
488,88,70056,1,0,0:0:0:0:
375,263,70214,2,0,P|327:257|285:239,1,93.5000028533936,2|0,0:0|0:0,0:0:0:0:
448,160,70530,1,0,0:0:0:0:
304,336,70688,6,0,L|256:328,1,46.7500014266968,8|0,0:0|0:0,0:0:0:0:
160,304,70846,1,2,0:0:0:0:
352,168,71004,5,0,0:0:0:0:
360,144,71082,1,0,0:0:0:0:
368,120,71162,2,0,L|320:128,1,46.7500014266968,4|0,1:0|0:0,0:0:0:0:
288,240,71320,2,0,L|232:232,1,50.9999984436036,4|0,1:0|0:0,0:0:0:0:
160,136,71478,2,0,L|104:144,1,55.2499974708558,4|0,1:0|0:0,0:0:0:0:
24,208,71635,1,2,0:0:0:0:
136,304,71951,6,0,P|160:240|160:136,1,170,4|0,1:0|0:0,0:0:0:0:
298,55,72425,2,0,P|306:95|322:127,1,76.4999976654053,4|0,1:0|0:0,0:0:0:0:
384,208,72741,1,4,0:0:0:0:
160,144,72899,1,0,0:0:0:0:
384,64,73056,1,4,0:0:0:0:
288,224,73214,6,0,B|240:232|240:232|200:224|200:224|160:232,1,127.5,4|0,0:0|0:0,0:0:0:0:
88,248,73530,1,2,0:0:0:0:
240,144,73688,1,0,0:0:0:0:
192,312,73846,1,4,0:0:0:0:
320,128,74004,6,0,P|360:112|400:104,1,76.4999976654053,4|0,0:0|0:0,0:0:0:0:
288,224,74320,1,12,0:0:0:0:
256,56,74478,6,0,P|216:40|176:32,1,76.4999976654053,4|0,0:0|0:0,0:0:0:0:
240,144,74793,1,0,0:0:0:0:
392,104,74951,6,0,P|425:77|452:46,1,76.4999976654053,4|0,0:0|0:0,0:0:0:0:
256,56,75267,1,4,0:0:0:0:
384,192,75425,1,0,0:0:0:0:
360,16,75583,1,12,0:0:0:0:
240,144,75741,6,0,P|214:172|183:195,1,76.4999976654053,4|2,0:0|0:0,0:0:0:0:
8,160,76056,2,0,P|45:168|80:183,1,76.4999976654053,4|8,0:0|0:0,0:0:0:0:
136,344,76372,2,0,P|124:307|119:269,1,76.4999976654053,4|2,0:0|0:0,0:0:0:0:
240,144,76688,6,0,B|288:160|288:160|344:144,1,102,4|0,0:0|0:0,0:0:0:0:
408,104,77004,2,0,B|360:88|360:88|392:200,1,165.749992412568,10|0,0:0|0:0,0:0:0:0:
416,288,77320,5,0,0:0:0:0:
408,24,77478,1,4,0:0:0:0:
488,160,77635,1,4,0:0:0:0:
328,64,77793,1,4,0:0:0:0:
391,198,77951,6,0,P|365:226|334:249,1,76.4999976654053,4|8,0:0|0:0,0:0:0:0:
255,40,78267,2,0,P|292:48|327:63,1,76.4999976654053,4|0,0:0|0:0,0:0:0:0:
184,232,78583,2,0,P|172:195|167:157,1,76.4999976654053,4|8,0:0|0:0,0:0:0:0:
327,63,78899,2,0,P|301:91|270:114,1,76.4999976654053,4|8,0:0|0:0,0:0:0:0:
111,208,79214,2,0,P|148:216|183:231,1,76.4999976654053,4|8,0:0|0:0,0:0:0:0:
288,304,79530,1,4,0:0:0:0:
368,96,79688,6,0,B|328:64|328:64|344:184,1,170,4|8,0:0|0:0,0:0:0:0:
288,304,80162,1,0,0:0:0:0:
183,231,80320,1,4,0:0:0:0:
343,181,80478,1,2,0:0:0:0:
176,344,80635,1,8,0:0:0:0:
240,144,80793,1,2,0:0:0:0:
288,304,80951,5,4,0:0:0:0:
200,240,81109,5,0,0:0:0:0:
200,240,81188,1,0,0:0:0:0:
200,240,81267,5,0,0:0:0:0:
236,211,81345,1,0,0:0:0:0:
281,200,81424,1,0,0:0:0:0:
327,207,81503,1,0,0:0:0:0:
367,231,81583,5,0,0:0:0:0:
403,259,81661,1,0,0:0:0:0:
448,270,81740,1,0,0:0:0:0:
448,270,81820,1,0,0:0:0:0:
448,270,81899,6,0,L|456:224,1,46.7500014266968,8|0,0:0|0:0,0:0:0:0:
472,120,82056,1,0,0:0:0:0:
480,96,82135,1,0,0:0:0:0:
488,72,82214,1,0,0:0:0:0:
496,56,82293,1,0,0:0:0:0:
504,24,82372,6,0,L|481:29,2,23.3750007133484
256,192,82530,12,0,84425,0:0:0:0:
304,240,84583,6,4,L|352:248,2,46.7500014266968
