osu file format v14

[General]
AudioFilename: audio.mp3
AudioLeadIn: 0
PreviewTime: 61878
Countdown: 1
SampleSet: None
StackLeniency: 0.7
Mode: 0
LetterboxInBreaks: 0
WidescreenStoryboard: 0

[Editor]
Bookmarks: 616,1089,11352,16246,26352,30299,71509,82246,84457
DistanceSpacing: 0.5
BeatDivisor: 4
GridSize: 8
TimelineZoom: 2.2

[Metadata]
Title:Into your memory feat. Aitsuki Nakuru [TV Size.]
TitleUnicode:Into your memory feat. 藍月なくる [TV Size]
Artist:Jun Kuroda
ArtistUnicode:Jun Kuroda
Creator:AJiSAI-
Version:old Recollection
Source:
Tags:
BeatmapID:2051018
BeatmapSetID:978578

[Difficulty]
HPDrainRate:6
CircleSize:4.2
OverallDifficulty:8.4
ApproachRate:9.2
SliderMultiplier:1.7
SliderTickRate:1

[Events]
//Background and Video events
0,0,"63386871_p0 1080p.jpg",0,0
//Break Periods
//Storyboard Layer 0 (Background)
//Storyboard Layer 1 (Fail)
//Storyboard Layer 2 (Pass)
//Storyboard Layer 3 (Foreground)
//Storyboard Sound Samples

[TimingPoints]
616,315.789473684211,4,1,0,100,1,0
1089,-100,4,1,1,75,0,1
1405,-111.111111111111,4,1,1,75,0,0
2352,-100,4,1,1,75,0,0
2668,-111.111111111111,4,1,1,75,0,0
5826,-125,4,1,1,75,0,0
6142,-76.9230769230769,4,1,1,75,0,0
6458,-111.111111111111,4,1,1,75,0,0
8826,-111.111111111111,4,1,1,75,0,0
10089,-133.333333333333,4,1,1,75,0,0
11352,315.789473684211,4,2,1,75,1,0
11352,-125,4,2,1,75,0,0
16246,-83.3333333333333,4,2,1,75,0,1
16562,-90.9090909090909,4,2,1,75,0,0
18773,-83.3333333333333,4,2,1,75,0,1
19088,-90.9090909090909,4,2,1,75,0,0
21457,-125,4,2,1,75,0,0
26352,-83.3333333333333,4,2,1,75,0,1
26667,-90.9090909090908,4,2,1,75,0,0
28878,-83.3333333333333,4,2,1,75,0,1
29194,-90.9090909090908,4,2,1,75,0,0
30299,-133.333333333333,4,2,1,75,0,0
30615,-142.857142857143,4,2,1,75,0,0
31562,-111.111111111111,4,2,1,75,0,0
31878,-125,4,2,1,75,0,0
36615,-100,4,2,1,75,0,0
36930,-90.9090909090909,4,2,1,75,0,0
40246,-111.111111111111,4,2,1,75,0,0
41667,-83.3333333333333,4,2,1,75,0,1
41983,-90.9090909090909,4,2,1,75,0,1
44194,-83.3333333333333,4,2,1,75,0,1
44509,-90.9090909090909,4,2,1,75,0,1
46720,-100,4,2,1,75,0,1
47036,-83.3333333333333,4,2,1,75,0,1
47352,-90.9090909090909,4,2,1,75,0,1
49246,-83.3333333333333,4,2,1,75,0,1
49562,-90.9090909090909,4,2,1,75,0,1
51773,-83.3333333333333,4,2,1,75,0,1
52088,-90.9090909090909,4,2,1,75,0,0
54299,-83.3333333333333,4,2,1,75,0,0
54615,-90.9090909090909,4,2,1,75,0,0
56667,-76.9230769230769,4,2,1,75,0,0
56825,-83.3333333333333,4,2,1,75,0,0
57141,-90.9090909090909,4,2,1,75,0,0
59036,-100,4,2,1,75,0,0
59352,-90.9090909090909,4,2,1,75,0,0
61878,-90.9090909090909,4,2,1,75,0,1
66615,-83.3333333333333,4,2,1,75,0,0
66930,-83.3333333333333,4,2,1,75,0,1
67246,-90.9090909090909,4,2,1,75,0,1
69457,-83.3333333333333,4,2,1,75,0,1
69773,-90.9090909090909,4,2,1,75,0,1
71036,-90.9090909090909,4,2,1,75,0,1
71194,-83.3333333333333,4,2,1,75,0,1
71352,-76.9230769230769,4,2,1,75,0,1
71825,-99.9999999999999,4,1,1,75,0,0
72141,-111.111111111111,4,1,1,75,0,0
73088,-99.9999999999999,4,1,1,75,0,0
73404,-111.111111111111,4,1,1,75,0,0
76562,-125,4,1,1,75,0,0
76878,-76.9230769230769,4,1,1,75,0,0
77194,-111.111111111111,4,1,1,75,0,0
79562,-100,4,1,1,75,0,0
81141,-90.9090909090909,4,1,1,75,0,0

[Colours]
Combo1 : 128,128,255
Combo2 : 255,174,215
Combo3 : 117,180,255

[HitObjects]
400,80,616,5,0,0:0:0:0:
400,80,773,1,0,0:0:0:0:
400,88,1089,6,0,P|376:152|376:256,1,170,6|0,1:0|0:0,0:0:0:0:
232,376,1563,2,0,P|248:336|256:296,1,76.4999976654053,4|0,1:0|1:1,1:1:0:0:
192,120,1879,1,4,0:0:0:0:
376,256,2037,1,0,0:0:0:0:
152,216,2194,1,4,1:1:0:0:
336,112,2352,6,0,B|376:104|376:104|432:120|432:120|464:112,1,127.5,6|0,0:0|0:0,0:0:0:0:
488,104,2668,1,0,0:0:0:0:
360,200,2826,1,0,0:0:0:0:
432,40,2984,1,4,0:0:0:0:
272,184,3142,6,0,P|240:200|192:216,1,76.4999976654053
256,96,3458,1,4,0:1:0:0:
304,280,3616,6,0,P|336:296|384:312,1,76.4999976654053,2|0,0:0|0:0,0:0:0:0:
336,112,3931,1,0,0:0:0:0:
201,213,4089,2,0,P|190:247|183:297,1,76.4999976654053,4|0,0:0|0:0,0:0:0:0:
360,200,4405,1,4,0:1:0:0:
168,112,4563,1,0,0:0:0:0:
304,280,4721,1,4,0:1:0:0:
336,112,4879,6,0,P|311:86|272:56,1,76.4999976654053,6|0,0:0|0:0,0:0:0:0:
352,296,5194,2,0,P|386:287|432:268,1,76.4999976654053,4|0,0:0|0:0,0:0:0:0:
200,208,5510,2,0,P|189:242|183:291,1,76.4999976654053,4|0,0:0|0:0,0:0:0:0:
432,111,5826,6,0,B|400:95|400:95|336:111,1,102,4|0,0:0|0:0,0:0:0:0:
256,144,6142,6,0,B|296:168|296:168|280:40,1,165.749992412568,2|0,0:0|0:0,0:0:0:0:
272,24,6458,5,0,0:0:0:0:
200,208,6616,1,4,0:0:0:0:
136,56,6773,1,4,0:0:0:0:
320,184,6931,1,4,0:0:0:0:
128,136,7089,2,4,P|104:128|48:120,1,76.4999976654053,4|0,0:0|0:0,0:0:0:0:
208,296,7405,6,4,P|231:286|279:256,1,76.4999976654053,4|0,0:0|0:0,0:0:0:0:
128,136,7721,2,4,P|124:161|126:217,1,76.4999976654053,4|0,0:0|0:0,0:0:0:0:
304,128,8037,2,4,P|284:112|234:85,1,76.4999976654053,4|0,0:0|0:0,0:0:0:0:
274,259,8352,2,4,P|298:266|353:275,1,76.4999976654053,4|0,0:0|0:0,0:0:0:0:
304,128,8668,1,4,0:1:0:0:
192,200,8826,6,0,B|168:232|168:232|176:312,1,114.749996498108,4|0,0:1|0:1,0:1:0:0:
176,328,9142,1,0,0:0:0:0:
120,160,9300,1,0,0:0:0:0:
272,264,9458,6,4,P|295:254|343:224,1,76.4999976654053,4|0,0:0|0:0,0:0:0:0:
192,200,9773,1,0,0:0:0:0:
176,296,9931,1,8,0:0:0:0:
176,296,10089,6,0,P|232:288|296:328,1,127.500004863739,4|0,0:0|0:0,0:0:0:0:
416,264,10563,2,0,P|378:256|352:240,1,63.7500024318696,4|0,0:0|0:0,0:0:0:0:
344,232,10800,1,0,0:0:0:0:
344,232,10879,1,0,0:0:0:0:
291,322,11037,1,0,0:0:0:0:
240,192,11194,1,0,0:0:0:0:
416,168,11352,5,0,0:0:0:0:
416,168,11667,6,0,P|432:136|408:40,1,136
336,112,12141,2,0,P|304:120|264:120,1,68
192,72,12457,1,0,0:0:0:0:
120,168,12615,2,0,P|160:168|192:176,1,68
328,216,12930,6,0,P|292:218|221:286,1,136
312,376,13404,2,0,P|320:336|312:304,1,68
222,283,13720,1,0,0:0:0:0:
328,216,13878,1,0,0:0:0:0:
128,256,14194,6,0,L|136:328,1,68
272,192,14509,1,0,0:0:0:0:
272,192,14667,2,0,L|256:264,1,68
120,176,14983,1,0,0:0:0:0:
216,120,15141,6,0,P|248:104|280:96,1,68
352,152,15457,1,0,0:0:0:0:
368,64,15615,1,0,0:0:0:0:
272,192,15773,6,0,P|274:227|283:259,1,68
368,280,16088,1,0,0:0:0:0:
312,120,16246,6,0,B|264:112|264:112|216:128|216:128|160:120,1,152.999995330811,6|0,0:0|0:0,0:0:0:0:
136,112,16562,1,0,0:0:0:0:
392,80,16720,2,0,B|400:128|400:128|384:176,1,93.5000028533936
264,304,17036,2,0,B|248:256|248:256|264:216,1,93.5000028533936
456,280,17352,2,0,L|360:264,1,93.5000028533936
216,128,17667,2,0,L|312:120,1,93.5000028533936
363,264,17983,5,0,0:0:0:0:
392,80,18141,1,0,0:0:0:0:
264,216,18299,1,0,0:0:0:0:
472,176,18457,1,0,0:0:0:0:
224,128,18615,1,0,0:0:0:0:
472,8,18773,6,0,B|504:40|504:40|520:88|488:144,1,152.999995330811
472,176,19088,1,0,0:0:0:0:
304,88,19246,2,0,P|352:72|400:80,1,93.5000028533936
240,224,19562,2,0,P|192:240|144:232,1,93.5000028533936
360,176,19878,2,0,L|352:280,1,93.5000028533936
192,128,20194,2,0,L|184:32,1,93.5000028533936
360,176,20509,5,0,0:0:0:0:
152,232,20667,1,0,0:0:0:0:
304,88,20825,1,0,0:0:0:0:
232,280,20982,1,0,0:0:0:0:
232,280,21061,1,0,0:0:0:0:
232,280,21141,5,0,0:0:0:0:
210,309,21220,1,0,0:0:0:0:
177,327,21299,1,0,0:0:0:0:
140,331,21378,1,0,0:0:0:0:
105,319,21457,6,0,P|72:312|32:312,1,68,4|0,0:0|0:0,0:0:0:0:
152,232,21773,1,0,0:0:0:0:
232,280,21930,2,0,P|272:288|304:288,1,68
200,152,22246,2,0,P|160:144|128:144,1,68
280,208,22562,6,0,P|296:120|272:80,1,136
128,160,23036,2,0,L|208:152,1,68
274,82,23352,1,0,0:0:0:0:
347,215,23509,2,0,L|275:207,1,68
195,153,23825,1,8,0:0:0:0:
272,16,23983,6,0,B|304:48|304:48|288:144,1,136
209,219,24457,2,0,L|193:147,1,68
88,24,24773,2,0,L|72:96,1,68
194,152,25088,1,0,0:0:0:0:
112,200,25246,1,0,0:0:0:0:
160,72,25404,6,0,B|192:64|192:64|232:72,1,68
336,96,25720,1,0,0:0:0:0:
192,240,25878,1,0,0:0:0:0:
192,152,26036,1,0,0:0:0:0:
320,296,26194,1,0,0:0:0:0:
480,176,26352,6,0,B|440:152|440:152|336:176,1,152.999995330811
264,192,26667,1,0,0:0:0:0:
496,96,26825,6,0,B|512:48|512:48|496:0,1,93.5000028533936
424,240,27141,2,0,B|408:288|408:288|416:336,1,93.5000028533936
416,48,27457,2,0,L|320:56,1,93.5000028533936
208,176,27773,2,0,L|304:192,1,93.5000028533936
416,48,28088,5,0,0:0:0:0:
464,176,28246,1,0,0:0:0:0:
288,56,28404,1,0,0:0:0:0:
296,208,28562,1,0,0:0:0:0:
424,32,28720,1,0,0:0:0:0:
208,176,28878,6,0,B|160:184|160:184|104:176|104:176|56:184,1,152.999995330811,2|0,0:0|0:0,0:0:0:0:
0,191,29194,1,0,0:0:0:0:
160,96,29352,1,0,0:0:0:0:
104,256,29509,1,0,0:0:0:0:
272,136,29667,2,0,B|288:88|288:88|272:48,1,93.5000028533936
104,256,29983,2,0,B|88:304|88:304|104:352,1,93.5000028533936
328,304,30299,6,0,B|232:288|232:288|200:296,1,127.500004863739
104,336,30773,1,0,0:0:0:0:
128,232,30930,2,0,P|136:208|144:168,1,59.4999981842042
202,295,31246,2,0,P|210:335|218:359,1,59.4999981842042
272,232,31562,6,0,P|328:224|384:248,1,114.749996498108
400,264,31878,2,0,P|432:272|472:272,1,68
448,184,32194,1,0,0:0:0:0:
320,312,32352,2,0,L|328:384,1,68
272,232,32667,1,0,0:0:0:0:
224,312,32825,6,0,P|192:328|160:336,1,68
40,232,33141,2,0,P|72:248|104:256,1,68
184,200,33457,1,0,0:0:0:0:
103,255,33773,5,0,0:0:0:0:
96,160,33930,1,0,0:0:0:0:
200,288,34088,6,0,P|232:304|264:312,1,68
103,255,34404,2,0,P|70:263|39:278,1,68
128,352,34720,1,0,0:0:0:0:
256,216,34878,2,0,P|265:183|266:149,1,68
168,72,35194,1,0,0:0:0:0:
104,184,35352,2,0,L|176:176,1,68
256,216,35667,1,0,0:0:0:0:
280,24,35825,1,0,0:0:0:0:
192,272,35983,5,0,0:0:0:0:
192,272,36062,1,0,0:0:0:0:
192,272,36141,2,0,L|200:312,1,34
336,264,36299,1,0,0:0:0:0:
336,264,36378,1,0,0:0:0:0:
336,264,36457,2,0,L|344:224,1,34
432,128,36615,6,0,B|368:144|368:144|320:104,1,127.5,2|0,0:0|0:0,0:0:0:0:
256,56,36930,5,4,0:0:0:0:
424,216,37088,1,0,0:0:0:0:
232,144,37246,2,0,L|136:136,1,93.5000028533936
336,264,37562,1,0,0:0:0:0:
392,48,37720,6,0,L|488:56,1,93.5000028533936,2|2,0:0|0:0,0:0:0:0:
232,144,38036,1,0,0:0:0:0:
432,128,38194,1,8,0:0:0:0:
192,56,38352,1,0,0:0:0:0:
424,216,38509,6,0,B|440:264|440:264|424:312,1,93.5000028533936,2|0,0:0|0:0,0:0:0:0:
232,231,38825,2,0,B|216:183|216:183|232:143,1,93.5000028533936,8|0,0:0|0:0,0:0:0:0:
392,48,39141,5,0,0:0:0:0:
304,184,39299,1,0,0:0:0:0:
432,128,39457,1,0,0:0:0:0:
424,304,39615,1,0,0:0:0:0:
224,144,39773,1,0,0:0:0:0:
424,216,39930,1,0,0:0:0:0:
232,231,40088,1,0,0:0:0:0:
480,56,40246,1,2,0:0:0:0:
336,264,40562,5,0,0:0:0:0:
192,56,40720,1,0,0:0:0:0:
184,80,40878,5,0,0:0:0:0:
152,168,41036,1,8,0:0:0:0:
208,352,41194,1,4,0:0:0:0:
312,192,41352,1,0,0:0:0:0:
152,272,41509,5,0,0:0:0:0:
464,280,41667,6,0,B|400:272|400:272|328:296|328:296|264:288,1,203.999993774414
408,360,42141,1,0,0:0:0:0:
312,192,42299,2,0,B|288:136|288:136|312:56,1,140.25000428009
392,128,42615,2,0,P|440:144|488:144,1,93.5000028533936
264,288,42930,6,0,B|224:264|224:264|128:288,1,140.25000428009
48,312,43246,1,8,0:0:0:0:
256,80,43404,2,0,L|240:176,1,93.5000028533936
208,352,43720,1,0,0:0:0:0:
64,224,43878,1,0,0:0:0:0:
224,264,44036,1,0,0:0:0:0:
168,32,44194,6,0,B|120:56|120:56|136:160,1,152.999995330811,2|0,0:0|0:0,0:0:0:0:
144,248,44509,1,0,0:0:0:0:
312,128,44667,2,0,P|272:112|216:104,1,93.5000028533936,2|0,0:0|0:0,0:0:0:0:
64,224,44983,1,0,0:0:0:0:
272,296,45141,6,0,P|254:252|247:206,1,93.5000028533936,2|0,0:0|0:0,0:0:0:0:
168,16,45457,2,0,P|138:52|102:81,1,93.5000028533936
8,296,45773,2,0,P|54:302|97:319,1,93.5000028533936,8|0,0:0|0:0,0:0:0:0:
224,384,46088,5,0,0:0:0:0:
64,224,46246,1,0,0:0:0:0:
272,296,46404,1,0,0:0:0:0:
24,304,46562,5,0,0:0:0:0:
97,319,46641,1,0,0:0:0:0:
168,328,46720,2,0,B|232:344|232:344|272:296,1,127.5
216,168,47036,6,0,B|176:136|176:136|200:240,1,152.999995330811,4|0,0:0|0:0,0:0:0:0:
232,344,47352,5,0,0:0:0:0:
328,216,47509,1,0,0:0:0:0:
112,256,47667,1,0,0:0:0:0:
368,304,47825,1,0,0:0:0:0:
216,160,47983,2,0,P|192:112|184:72,1,93.5000028533936
328,216,48299,1,0,0:0:0:0:
112,120,48457,6,0,P|67:106|20:104,1,93.5000028533936,2|0,0:0|0:0,0:0:0:0:
216,160,48773,1,0,0:0:0:0:
128,0,48930,1,0,0:0:0:0:
128,0,49009,1,0,0:0:0:0:
128,0,49088,2,0,L|120:48,1,46.7500014266968
56,192,49246,6,0,B|112:176|152:216|152:216|192:256|248:240,1,203.999993774414
80,296,49720,1,0,0:0:0:0:
296,168,49878,1,0,0:0:0:0:
56,192,50036,1,0,0:0:0:0:
243,241,50194,1,0,0:0:0:0:
88,120,50352,1,2,0:0:0:0:
176,328,50509,5,0,0:0:0:0:
216,160,50667,1,0,0:0:0:0:
80,296,50825,5,0,0:0:0:0:
328,248,50983,1,0,0:0:0:0:
120,48,51141,1,0,0:0:0:0:
240,240,51299,1,0,0:0:0:0:
240,240,51378,1,0,0:0:0:0:
240,240,51457,1,0,0:0:0:0:
40,56,51615,5,0,0:0:0:0:
88,120,51694,1,0,0:0:0:0:
144,176,51773,2,0,B|224:144|224:144|248:104|248:104|312:72,1,203.999993774414
152,72,52246,1,0,0:0:0:0:
320,176,52404,6,0,P|344:248|328:312,1,140.25000428009,2|0,0:0|0:0,0:0:0:0:
240,240,52720,2,0,P|195:217|147:209,1,93.5000028533936
312,72,53036,2,0,B|360:96|360:96|448:72,1,140.25000428009,2|0,0:0|0:0,0:0:0:0:
512,32,53352,1,0,0:0:0:0:
320,264,53509,6,0,B|304:216|304:216|320:176,1,93.5000028533936
376,16,53825,1,0,0:0:0:0:
488,248,53983,2,0,P|448:232|392:224,1,93.5000028533936,2|0,0:0|0:0,0:0:0:0:
200,312,54299,6,0,B|248:336|248:336|224:232,1,152.999995330811,4|0,0:0|0:0,0:0:0:0:
208,152,54615,5,0,0:0:0:0:
56,272,54773,2,0,P|96:256|152:248,1,93.5000028533936,8|0,0:0|0:0,0:0:0:0:
320,264,55088,1,0,0:0:0:0:
120,160,55246,6,0,P|102:116|95:70,1,93.5000028533936,4|0,0:0|0:0,0:0:0:0:
385,198,55562,2,0,P|355:234|319:263,1,93.5000028533936,2|0,0:0|0:0,0:0:0:0:
56,272,55878,2,0,P|102:278|145:295,1,93.5000028533936,8|0,0:0|0:0,0:0:0:0:
248,336,56194,1,0,0:0:0:0:
120,160,56352,1,0,0:0:0:0:
120,160,56430,6,0,P|102:116|95:70,1,93.5000028533936,4|0,0:0|0:0,0:0:0:0:
200,144,56667,2,0,P|200:176|192:200,1,55.2499974708558,8|0,0:0|0:0,0:0:0:0:
56,272,56825,6,2,P|136:280|192:328,1,152.999995330811,8|0,0:0|0:0,0:0:0:0:
232,384,57141,1,4,0:0:0:0:
408,240,57299,6,0,P|361:246|318:263,1,93.5000028533936,2|0,0:0|0:0,0:0:0:0:
176,56,57615,2,0,P|222:62|265:79,1,93.5000028533936,2|8,0:0|0:0,0:0:0:0:
318,263,57930,1,0,0:0:0:0:
192,197,58088,1,0,0:0:0:0:
352,128,58246,1,0,0:0:0:0:
192,328,58404,1,8,0:0:0:0:
264,80,58562,1,2,0:0:0:0:
416,240,58720,5,0,0:0:0:0:
416,240,58799,1,0,0:0:0:0:
416,240,58878,1,0,0:0:0:0:
192,328,59036,6,0,B|224:320|256:336|256:336|288:352|320:344,1,127.5,2|0,0:0|0:0,0:0:0:0:
405,329,59352,6,0,P|421:281|413:233,1,93.5000028533936,8|0,0:0|0:0,0:0:0:0:
265,79,59667,1,0,0:0:0:0:
192,200,59825,6,0,P|235:216|281:222,1,93.5000028533936,2|2,0:0|0:0,0:0:0:0:
416,240,60141,1,0,0:0:0:0:
328,16,60299,6,0,P|291:45|263:82,1,93.5000028533936,8|2,0:0|0:0,0:0:0:0:
192,200,60615,1,2,0:0:0:0:
368,112,60773,5,2,0:0:0:0:
152,48,60930,1,8,0:0:0:0:
281,222,61088,1,0,0:0:0:0:
263,82,61246,1,0,0:0:0:0:
120,304,61404,1,0,0:0:0:0:
328,168,61562,1,0,0:0:0:0:
112,176,61720,1,0,0:0:0:0:
415,239,61878,5,0,0:0:0:0:
328,16,62194,6,0,P|291:45|263:82,1,93.5000028533936,2|0,0:0|0:0,0:0:0:0:
192,200,62509,1,0,0:0:0:0:
368,112,62667,1,0,0:0:0:0:
281,222,62825,1,8,0:0:0:0:
152,48,62983,1,0,0:0:0:0:
368,112,63141,6,0,P|411:129|457:135,1,93.5000028533936,2|0,0:0|0:0,0:0:0:0:
312,328,63457,2,0,P|268:310|222:304,1,93.5000028533936,8|0,0:0|0:0,0:0:0:0:
96,328,63773,1,0,0:0:0:0:
280,224,63930,1,0,0:0:0:0:
104,176,64088,1,8,0:0:0:0:
104,176,64167,1,0,0:0:0:0:
104,176,64246,1,2,0:0:0:0:
312,328,64404,6,0,P|348:298|377:261,1,93.5000028533936,2|0,0:0|0:0,0:0:0:0:
408,128,64720,1,8,0:0:0:0:
192,200,64878,6,0,P|235:217|281:223,1,93.5000028533936,8|2,0:0|0:0,0:0:0:0:
504,216,65194,1,0,0:0:0:0:
272,88,65352,1,0,0:0:0:0:
376,264,65509,6,0,P|394:306|400:353,1,93.5000028533936,8|0,0:0|0:0,0:0:0:0:
192,200,65825,1,0,0:0:0:0:
408,128,65983,1,0,0:0:0:0:
208,304,66141,6,0,P|161:298|118:280,1,93.5000028533936,0|2,0:0|0:0,0:0:0:0:
376,264,66457,1,0,0:0:0:0:
192,200,66615,2,0,P|173:157|168:96,1,101.999996887207,2|2,0:0|0:0,0:0:0:0:
272,16,66852,5,0,0:0:0:0:
272,16,66930,2,0,B|216:32|216:32|168:24|168:24|120:32,1,152.999995330811
40,48,67246,5,4,0:0:0:0:
192,200,67404,2,0,P|210:243|216:289,1,93.5000028533936,0|2,0:0|0:0,0:0:0:0:
465,287,67720,2,0,P|417:281|375:263,1,93.5000028533936
272,16,68036,2,0,P|253:59|247:105,1,93.5000028533936,0|2,0:0|0:0,0:0:0:0:
375,263,68352,5,0,0:0:0:0:
192,200,68509,1,0,0:0:0:0:
344,80,68667,1,0,0:0:0:0:
216,288,68825,1,0,0:0:0:0:
248,104,68983,1,0,0:0:0:0:
400,360,69141,1,8,0:0:0:0:
304,200,69299,5,0,0:0:0:0:
376,176,69378,1,0,0:0:0:0:
448,160,69457,2,0,P|466:204|472:249,1,93.5000028533936
400,360,69773,5,12,0:0:0:0:
488,88,69930,1,0,0:0:0:0:
375,263,70088,2,0,P|327:257|285:239,1,93.5000028533936,2|0,0:0|0:0,0:0:0:0:
448,160,70404,1,0,0:0:0:0:
304,336,70562,6,0,L|256:328,1,46.7500014266968,8|0,0:0|0:0,0:0:0:0:
160,304,70720,1,2,0:0:0:0:
352,168,70878,5,0,0:0:0:0:
360,144,70956,1,0,0:0:0:0:
368,120,71036,2,0,L|320:128,1,46.7500014266968,4|0,1:0|0:0,0:0:0:0:
288,240,71194,2,0,L|232:232,1,50.9999984436036,4|0,1:0|0:0,0:0:0:0:
160,136,71352,2,0,L|104:144,1,55.2499974708558,4|0,1:0|0:0,0:0:0:0:
24,208,71509,1,2,0:0:0:0:
136,304,71825,6,0,P|160:240|160:136,1,170,4|0,1:0|0:0,0:0:0:0:
298,55,72299,2,0,P|306:95|322:127,1,76.4999976654053,4|0,1:0|0:0,0:0:0:0:
384,208,72615,1,4,0:0:0:0:
160,144,72773,1,0,0:0:0:0:
384,64,72930,1,4,0:0:0:0:
288,224,73088,6,0,B|240:232|240:232|200:224|200:224|160:232,1,127.5,4|0,0:0|0:0,0:0:0:0:
88,248,73404,1,2,0:0:0:0:
240,144,73562,1,0,0:0:0:0:
192,312,73720,1,4,0:0:0:0:
320,128,73878,6,0,P|360:112|400:104,1,76.4999976654053,4|0,0:0|0:0,0:0:0:0:
288,224,74194,1,12,0:0:0:0:
256,56,74352,6,0,P|216:40|176:32,1,76.4999976654053,4|0,0:0|0:0,0:0:0:0:
240,144,74667,1,0,0:0:0:0:
392,104,74825,6,0,P|425:77|452:46,1,76.4999976654053,4|0,0:0|0:0,0:0:0:0:
256,56,75141,1,4,0:0:0:0:
384,192,75299,1,0,0:0:0:0:
360,16,75457,1,12,0:0:0:0:
240,144,75615,6,0,P|214:172|183:195,1,76.4999976654053,4|2,0:0|0:0,0:0:0:0:
8,160,75930,2,0,P|45:168|80:183,1,76.4999976654053,4|8,0:0|0:0,0:0:0:0:
136,344,76246,2,0,P|124:307|119:269,1,76.4999976654053,4|2,0:0|0:0,0:0:0:0:
240,144,76562,6,0,B|288:160|288:160|344:144,1,102,4|0,0:0|0:0,0:0:0:0:
408,104,76878,2,0,B|360:88|360:88|392:200,1,165.749992412568,10|0,0:0|0:0,0:0:0:0:
416,288,77194,5,0,0:0:0:0:
408,24,77352,1,4,0:0:0:0:
488,160,77509,1,4,0:0:0:0:
328,64,77667,1,4,0:0:0:0:
391,198,77825,6,0,P|365:226|334:249,1,76.4999976654053,4|8,0:0|0:0,0:0:0:0:
255,40,78141,2,0,P|292:48|327:63,1,76.4999976654053,4|0,0:0|0:0,0:0:0:0:
184,232,78457,2,0,P|172:195|167:157,1,76.4999976654053,4|8,0:0|0:0,0:0:0:0:
327,63,78773,2,0,P|301:91|270:114,1,76.4999976654053,4|8,0:0|0:0,0:0:0:0:
111,208,79088,2,0,P|148:216|183:231,1,76.4999976654053,4|8,0:0|0:0,0:0:0:0:
288,304,79404,1,4,0:0:0:0:
368,96,79562,6,0,B|328:64|328:64|344:184,1,170,4|8,0:0|0:0,0:0:0:0:
288,304,80036,1,0,0:0:0:0:
183,231,80194,1,4,0:0:0:0:
343,181,80352,1,2,0:0:0:0:
176,344,80509,1,8,0:0:0:0:
240,144,80667,1,2,0:0:0:0:
288,304,80825,5,4,0:0:0:0:
200,240,80983,5,0,0:0:0:0:
200,240,81062,1,0,0:0:0:0:
200,240,81141,5,0,0:0:0:0:
236,211,81219,1,0,0:0:0:0:
281,200,81298,1,0,0:0:0:0:
327,207,81377,1,0,0:0:0:0:
367,231,81457,5,0,0:0:0:0:
403,259,81535,1,0,0:0:0:0:
448,270,81614,1,0,0:0:0:0:
448,270,81694,1,0,0:0:0:0:
448,270,81773,6,0,L|456:224,1,46.7500014266968,8|0,0:0|0:0,0:0:0:0:
472,120,81930,1,0,0:0:0:0:
480,96,82009,1,0,0:0:0:0:
488,72,82088,1,0,0:0:0:0:
496,56,82167,1,0,0:0:0:0:
504,24,82246,6,0,L|481:29,2,23.3750007133484
256,192,82404,12,0,84299,0:0:0:0:
304,240,84457,6,4,L|352:248,2,46.7500014266968
