osu file format v14

[General]
AudioFilename: audio.mp3
AudioLeadIn: 0
PreviewTime: 40373
Countdown: 1
SampleSet: Soft
StackLeniency: 0.7
Mode: 0
LetterboxInBreaks: 0
WidescreenStoryboard: 1

[Editor]
DistanceSpacing: 0.5
BeatDivisor: 4
GridSize: 8
TimelineZoom: 2.2

[Metadata]
Title:Into your memory feat. Aitsuki Nakuru [TV Size.]
TitleUnicode:Into your memory feat. 藍月なくる [TV Size]
Artist:Jun Kuroda
ArtistUnicode:Jun Kuroda
Creator:AJiSAI-
Version:Recollection
Source:
Tags:jun kuroda
BeatmapID:2051019
BeatmapSetID:978578

[Difficulty]
HPDrainRate:6
CircleSize:4.3
OverallDifficulty:8.5
ApproachRate:9.3
SliderMultiplier:1.76
SliderTickRate:1

[Events]
//Background and Video events
0,0,"63386871_p0 1080p.jpg",0,0
//Break Periods
2,22414,33503
//Storyboard Layer 0 (Background)
//Storyboard Layer 1 (Fail)
//Storyboard Layer 2 (Pass)
//Storyboard Layer 3 (Foreground)
//Storyboard Sound Samples

[TimingPoints]
743,315.789473684211,4,1,0,100,1,0
1216,315.789473684211,4,1,0,100,1,0
1216,-100,4,1,1,75,0,1
1689,-111.111111111111,4,1,1,75,0,0
2321,-100,4,1,1,75,0,0
2794,-111.111111111111,4,1,1,75,0,0
3742,-100,4,1,1,75,0,0
4058,-111.111111111111,4,1,1,75,0,0
5794,-100,4,1,1,75,0,0
6268,-90.9090909090909,4,1,1,75,0,0
6742,-111.111111111111,4,1,1,75,0,0
7531,-99.9999999999999,4,1,1,75,0,0
7847,-111.111111111111,4,1,1,75,0,0
8794,-111.111111111111,4,1,1,75,0,0
10058,-133.333333333333,4,1,1,75,0,0
11479,315.789473684211,4,1,0,100,1,0
11479,-125,4,2,1,75,0,0
16373,-83.3333333333333,4,2,1,75,0,1
16531,-90.9090909090909,4,2,1,75,0,0
18742,-83.3333333333333,4,2,1,75,0,1
18900,-83.3333333333333,4,2,1,75,0,0
19215,-90.9090909090909,4,2,1,75,0,0
21584,-125,4,2,1,75,0,0
26479,-83.3333333333333,4,2,1,75,0,1
26952,-90.9090909090908,4,2,1,75,0,0
29005,-83.3333333333333,4,2,1,75,0,1
29479,-90.9090909090908,4,2,1,75,0,0
30426,-133.333333333333,4,2,1,75,0,0
30900,-142.857142857143,4,2,1,75,0,0
31689,-111.111111111111,4,2,1,75,0,0
36110,-111.111111111111,4,2,1,75,0,0
36742,-111.111111111111,4,2,1,75,0,0
37057,-90.9090909090909,4,2,1,75,0,0
40373,-83.3333333333333,4,2,1,75,0,0
40689,-111.111111111111,4,3,1,75,0,0
41794,-76.9230769230769,4,2,1,75,0,1
42110,-100,4,2,1,75,0,1
44321,-76.9230769230769,4,2,1,75,0,1
44636,-90.9090909090909,4,2,1,75,0,1
46847,-125,4,2,1,75,0,1
47163,-76.9230769230769,4,2,1,75,0,1
47479,-90.9090909090909,4,2,1,75,0,1
49373,-83.3333333333333,4,2,1,75,0,1
49689,-90.9090909090909,4,2,1,75,0,1
51900,-76.9230769230769,4,2,1,75,0,1
52215,-90.9090909090909,4,2,1,75,0,0
54426,-76.9230769230769,4,2,1,75,0,0
54742,-90.9090909090909,4,2,1,75,0,0
56636,-83.3333333333333,4,2,1,75,0,0
56794,-83.3333333333333,4,2,1,75,0,0
56952,-76.9230769230769,4,2,1,75,0,0
57268,-90.9090909090909,4,2,1,75,0,0
59163,-100,4,2,1,75,0,0
59479,-76.9230769230769,4,2,1,75,0,0
59794,-90.9090909090909,4,2,1,75,0,0
62005,-76.9230769230769,4,2,1,75,0,1
62321,-90.9090909090909,4,2,1,75,0,1
64531,-76.9230769230769,4,2,1,75,0,1
64847,-90.9090909090909,4,2,1,75,0,1
66742,-83.3333333333333,4,2,1,75,0,0
67057,-83.3333333333333,4,2,1,75,0,1
67373,-90.9090909090909,4,2,1,75,0,1
69584,-83.3333333333333,4,2,1,75,0,1
69900,-90.9090909090909,4,2,1,75,0,1
70847,-90.9090909090909,4,2,1,75,0,1
71163,-83.3333333333333,4,2,1,75,0,1
71479,-76.9230769230769,4,2,1,75,0,1
71794,-99.9999999999999,4,1,1,75,0,0
71952,315.789473684211,4,1,0,100,1,0
71952,-100,4,1,0,100,0,0
72267,-111.111111111111,4,1,1,75,0,0
73057,-99.9999999999999,4,1,1,75,0,0
73215,-111.111111111111,4,1,1,75,0,0
74478,-111.111111111111,4,1,1,75,0,0
74794,-111.111111111111,4,1,1,75,0,0
76688,-125,4,1,1,75,0,0
77004,-76.9230769230769,4,1,1,75,0,0
77320,-111.111111111111,4,1,1,75,0,0
79530,-100,4,1,1,75,0,0
81109,-90.9090909090909,4,1,1,75,0,0
82373,-90.9090909090909,4,1,1,75,0,0
84583,-90.9090909090909,4,1,1,75,0,0

[Colours]
Combo1 : 128,128,255
Combo2 : 255,174,215
Combo3 : 117,180,255

[HitObjects]
312,253,743,5,0,0:0:0:0:
115,129,900,1,0,0:0:0:0:
115,129,1216,6,0,B|155:121|200:152|200:152|240:184|288:168,1,176,4|0,0:0|0:0,0:0:0:0:
416,96,1689,2,0,P|400:128|392:176,1,79.1999975830079,8|0,0:0|0:0,0:0:0:0:
336,328,2005,2,0,P|329:289|312:253,1,79.1999975830079,8|0,0:0|0:0,0:0:0:0:
136,192,2321,1,0,0:0:0:0:
128,216,2400,1,0,0:0:0:0:
120,240,2479,2,0,B|216:232|216:232|192:264,1,132
144,312,2794,5,0,0:0:0:0:
288,176,2952,1,0,0:0:0:0:
224,336,3110,1,0,0:0:0:0:
120,240,3268,2,0,L|40:248,1,79.1999975830079
144,352,3584,5,0,0:0:0:0:
200,128,3742,2,0,B|264:144|264:144|296:176|296:176|360:192,1,176,4|0,0:0|0:0,0:0:0:0:
128,176,4216,2,0,P|112:136|120:96,1,79.1999975830079
224,224,4531,1,4,0:0:0:0:
336,104,4689,1,0,0:0:0:0:
200,128,4847,1,0,0:0:0:0:
352,240,5005,6,0,P|392:224|432:216,1,79.1999975830079,4|0,0:0|0:0,0:0:0:0:
240,336,5321,2,0,P|208:320|160:312,1,79.1999975830079,4|0,0:0|0:0,0:0:0:0:
64,352,5637,1,0,0:0:0:0:
224,224,5794,1,0,0:0:0:0:
32,144,5952,1,0,0:0:0:0:
24,160,6031,1,0,0:0:0:0:
16,176,6110,2,0,L|24:224,1,44
184,240,6268,6,0,B|136:232|96:272|96:272|56:312|8:304,1,193.600005908203
168,344,6742,1,4,0:0:0:0:
23,219,6900,1,4,0:0:0:0:
184,240,7058,1,4,0:0:0:0:
9,304,7216,1,4,0:0:0:0:
111,154,7373,1,0,0:0:0:0:
127,146,7452,1,0,0:0:0:0:
143,138,7531,6,0,B|191:162|191:162|183:242,1,132,4|0,0:0|0:0,0:0:0:0:
176,320,7847,1,0,0:0:0:0:
272,208,8005,1,0,0:0:0:0:
88,280,8163,2,0,P|48:296|8:304,1,79.1999975830079,4|0,0:0|0:0,0:0:0:0:
184,352,8479,2,0,P|222:360|259:375,1,79.1999975830079,4|0,0:0|0:0,0:0:0:0:
88,280,8794,1,0,0:0:0:0:
272,192,8952,6,0,P|266:231|254:268,1,79.1999975830079
48,160,9268,2,0,P|128:152|184:208,1,158.399995166016
96,240,9742,1,0,0:0:0:0:
136,64,9900,1,0,0:0:0:0:
181,202,10058,5,0,0:0:0:0:
181,202,10216,2,0,P|216:216|248:224,1,66.0000025177003
328,184,10531,1,0,0:0:0:0:
392,264,10689,2,0,P|357:278|325:286,1,66.0000025177003
232,128,11005,5,0,0:0:0:0:
240,112,11084,1,0,0:0:0:0:
248,96,11163,1,8,0:0:0:0:
248,96,11479,6,0,B|296:80|304:120|352:112,1,105.6
384,104,11794,2,0,P|371:136|363:176,1,70.4
376,256,12110,1,0,0:0:0:0:
512,184,12268,2,0,P|477:188|443:199,1,70.4
376,264,12584,1,0,0:0:0:0:
240,176,12742,2,0,B|272:160|272:160|344:176,1,105.6
364,175,13057,6,0,P|376:152|384:104,1,70.4
320,40,13373,1,0,0:0:0:0:
216,144,13531,2,0,P|248:128|288:120,1,70.4
152,72,13847,5,0,0:0:0:0:
120,184,14005,2,0,P|109:217|107:252,1,70.4
336,256,14321,2,0,L|232:240,1,105.6
200,232,14636,1,0,0:0:0:0:
400,304,14794,2,0,P|416:272|416:232,1,70.4
352,168,15110,1,0,0:0:0:0:
200,264,15268,6,0,B|224:240|256:232|256:232|296:248,1,105.6
328,256,15584,1,0,0:0:0:0:
432,144,15742,2,0,P|408:152|360:160,1,70.4
272,112,16057,1,0,0:0:0:0:
416,240,16215,1,0,0:0:0:0:
248,88,16373,6,0,B|200:80|168:112|168:112|136:144|72:136,1,158.399995166016,4|0,0:0|0:0,0:0:0:0:
64,144,16689,1,0,0:0:0:0:
232,184,16847,6,0,P|288:160|328:152,1,96.8000029541017,8|0,0:0|0:0,0:0:0:0:
104,48,17163,1,0,0:0:0:0:
152,232,17321,1,0,0:0:0:0:
248,88,17479,1,8,0:0:0:0:
64,144,17636,1,0,0:0:0:0:
168,256,17794,2,0,P|192:312|200:352,1,96.8000029541017,8|0,0:0|0:0,0:0:0:0:
232,184,18110,5,8,0:0:0:0:
104,336,18267,1,0,0:0:0:0:
272,272,18426,1,8,0:0:0:0:
96,192,18584,1,0,0:0:0:0:
224,376,18742,5,0,0:0:0:0:
256,168,18900,6,0,B|304:160|336:192|336:192|368:224|432:216,1,158.399995166016,12|0,0:0|0:0,0:0:0:0:
432,216,19215,1,0,0:0:0:0:
264,272,19373,6,0,P|216:283|173:303,1,96.8000029541017,8|0,0:0|0:0,0:0:0:0:
400,128,19689,1,8,0:0:0:0:
368,296,19847,1,0,0:0:0:0:
256,168,20005,1,0,0:0:0:0:
432,216,20163,1,0,0:0:0:0:
272,72,20321,6,0,P|224:83|181:103,1,96.8000029541017,8|0,0:0|0:0,0:0:0:0:
312,0,20636,1,0,0:0:0:0:
256,168,20794,1,0,0:0:0:0:
64,56,20952,1,0,0:0:0:0:
88,48,21031,1,0,0:0:0:0:
112,40,21110,1,0,0:0:0:0:
127,64,21188,1,0,0:0:0:0:
132,92,21267,1,0,0:0:0:0:
127,121,21346,1,0,0:0:0:0:
112,152,21426,6,0,P|105:175|105:199,1,48.4000014770508
176,240,21584,2,0,B|280:232|280:232|256:264,1,140.8
106,267,22057,2,0,P|98:227|106:195,1,70.4
232,152,34057,5,0,0:0:0:0:
232,152,34215,1,0,0:0:0:0:
272,160,34689,1,0,0:0:0:0:
272,160,34847,1,0,0:0:0:0:
296,152,35321,1,0,0:0:0:0:
296,152,35479,1,0,0:0:0:0:
296,152,35794,1,0,0:0:0:0:
320,168,36110,5,0,0:0:0:0:
320,168,36189,1,0,0:0:0:0:
320,168,36268,1,0,0:0:0:0:
320,168,36347,1,0,0:0:0:0:
320,168,36426,1,0,0:0:0:0:
320,168,36505,1,0,0:0:0:0:
320,168,36584,1,0,0:0:0:0:
320,168,36663,1,0,0:0:0:0:
320,168,36742,1,0,0:0:0:0:
400,192,37057,1,0,0:0:0:0:
208,144,40373,6,0,B|248:136|280:168|280:168|312:200|368:184,1,158.399995166016
400,168,40689,1,0,0:0:0:0:
216,232,40847,1,0,0:0:0:0:
336,104,41005,1,0,0:0:0:0:
344,88,41084,1,0,0:0:0:0:
336,64,41163,1,0,0:0:0:0:
208,152,41321,5,0,0:0:0:0:
456,136,41479,1,0,0:0:0:0:
272,280,41636,1,0,0:0:0:0:
304,128,41794,6,0,B|352:112|352:112|408:160|392:232,1,171.599992144776,4|0,0:0|0:0,0:0:0:0:
368,288,42110,1,0,0:0:0:0:
456,136,42268,1,0,0:0:0:0:
288,216,42426,2,0,P|240:232|200:240,1,88
304,128,42742,5,0,0:0:0:0:
368,288,42900,1,0,0:0:0:0:
216,152,43057,2,0,P|175:135|131:130,1,88
48,176,43373,5,0,0:0:0:0:
240,48,43531,2,0,P|280:31|324:26,1,88
152,216,43847,1,0,0:0:0:0:
296,112,44005,1,0,0:0:0:0:
136,48,44163,1,0,0:0:0:0:
264,200,44321,2,0,B|312:192|344:224|344:224|376:256|424:248,1,171.599992144776
456,240,44636,5,0,0:0:0:0:
280,288,44794,2,0,P|264:328|256:384,1,96.8000029541017
400,160,45110,1,0,0:0:0:0:
200,264,45268,2,0,P|155:282|107:289,1,96.8000029541017
264,200,45584,5,0,0:0:0:0:
336,360,45742,1,0,0:0:0:0:
464,232,45900,2,0,P|482:187|489:139,1,96.8000029541017,8|0,0:0|0:0,0:0:0:0:
416,64,46215,1,0,0:0:0:0:
264,200,46373,1,0,0:0:0:0:
400,160,46531,1,0,0:0:0:0:
216,48,46689,1,0,0:0:0:0:
208,40,46768,1,0,0:0:0:0:
200,32,46847,6,0,B|152:48|152:48|160:104,1,105.6
240,136,47163,6,0,P|168:128|96:192,1,171.599992144776,4|0,0:0|0:0,0:0:0:0:
72,256,47479,1,0,0:0:0:0:
80,88,47636,1,0,0:0:0:0:
192,232,47794,2,0,P|208:280|216:328,1,96.8000029541017
8,160,48110,6,0,P|53:176|100:186,1,96.8000029541017
200,88,48426,1,0,0:0:0:0:
304,240,48584,2,0,P|256:249|211:266,1,96.8000029541017
112,312,48900,1,0,0:0:0:0:
189,153,49057,5,0,0:0:0:0:
201,122,49136,1,0,0:0:0:0:
200,88,49215,1,0,0:0:0:0:
186,58,49294,1,0,0:0:0:0:
152,40,49373,6,0,P|88:56|32:56,1,105.599996777344
189,153,49689,1,0,0:0:0:0:
272,48,49847,1,0,0:0:0:0:
96,144,50005,2,0,P|79:189|69:236,1,96.8000029541017
88,336,50321,1,0,0:0:0:0:
0,168,50479,1,0,0:0:0:0:
152,272,50636,5,0,0:0:0:0:
184,272,50794,1,0,0:0:0:0:
216,256,50952,1,0,0:0:0:0:
88,336,51110,5,8,0:0:0:0:
160,184,51268,1,0,0:0:0:0:
296,336,51426,5,0,0:0:0:0:
264,320,51505,1,0,0:0:0:0:
232,320,51584,1,0,0:0:0:0:
96,368,51742,1,0,0:0:0:0:
104,72,51900,6,0,B|176:87|176:87|160:183,1,171.599992144776
144,256,52215,2,0,P|98:238|51:232,1,96.8000029541017
248,144,52531,1,0,0:0:0:0:
224,288,52689,1,0,0:0:0:0:
80,144,52847,1,0,0:0:0:0:
136,280,53005,1,0,0:0:0:0:
264,120,53163,6,0,P|309:102|356:96,1,96.8000029541017,2|0,0:0|0:0,0:0:0:0:
280,8,53479,1,0,0:0:0:0:
200,224,53636,2,0,P|154:206|107:200,1,96.8000029541017,2|0,0:0|0:0,0:0:0:0:
264,120,53952,1,0,0:0:0:0:
328,256,54110,2,0,P|346:300|353:348,1,96.8000029541017,2|0,0:0|0:0,0:0:0:0:
488,200,54426,2,0,B|424:184|424:184|392:152|392:152|328:136,1,171.599992144776
264,120,54742,5,0,0:0:0:0:
472,16,54900,2,0,B|488:64|488:64|472:112,1,96.8000029541017,2|0,0:0|0:0,0:0:0:0:
352,232,55215,1,0,0:0:0:0:
272,88,55373,2,0,L|368:72,1,96.8000029541017
240,272,55689,2,0,P|224:224|240:176,1,96.8000029541017
136,48,56005,2,0,P|152:96|136:144,1,96.8000029541017
48,288,56321,2,0,P|81:250|131:240,1,96.8000029541017
192,288,56557,1,0,0:0:0:0:
200,304,56636,6,0,L|192:360,1,52.7999983886719
304,224,56794,2,0,L|320:288,1,52.7999983886719
232,104,56952,2,0,B|184:96|184:96|128:152|160:224,1,171.599992144776
168,240,57268,5,0,0:0:0:0:
80,96,57426,1,0,0:0:0:0:
240,176,57584,1,0,0:0:0:0:
96,248,57742,2,0,P|72:288|56:336,1,96.8000029541017
240,176,58057,6,0,B|288:168|328:208|328:208|368:248|424:232,1,193.600005908203
256,272,58531,1,0,0:0:0:0:
392,144,58689,1,0,0:0:0:0:
240,176,58847,1,0,0:0:0:0:
415,234,59005,1,0,0:0:0:0:
256,96,59163,1,0,0:0:0:0:
224,104,59242,1,0,0:0:0:0:
200,112,59321,1,0,0:0:0:0:
168,120,59400,1,0,0:0:0:0:
120,136,59479,6,0,B|184:152|184:152|216:184|216:184|280:200,1,171.599992144776
344,216,59794,1,0,0:0:0:0:
272,96,59952,1,0,0:0:0:0:
134,226,60110,2,0,P|117:272|112:320,1,96.8000029541017
216,296,60426,1,0,0:0:0:0:
24,248,60584,1,0,0:0:0:0:
112,88,60742,5,0,0:0:0:0:
128,112,60900,1,0,0:0:0:0:
128,144,61057,1,0,0:0:0:0:
192,40,61215,5,0,0:0:0:0:
24,144,61373,1,0,0:0:0:0:
192,240,61531,5,0,0:0:0:0:
208,216,61610,1,0,0:0:0:0:
208,184,61689,1,0,0:0:0:0:
112,88,61847,1,0,0:0:0:0:
32,272,62005,6,0,B|8:240|8:240|80:224|136:256,1,171.599992144776,4|0,0:0|0:0,0:0:0:0:
208,320,62321,2,0,P|160:334|120:360,1,96.8000029541017
208,216,62636,1,0,0:0:0:0:
288,344,62794,1,0,0:0:0:0:
135,255,62952,1,0,0:0:0:0:
280,160,63110,2,0,P|320:168|376:192,1,96.8000029541017
280,264,63426,5,0,0:0:0:0:
216,88,63584,2,0,P|176:96|120:120,1,96.8000029541017
280,160,63900,1,0,0:0:0:0:
144,24,64057,1,0,0:0:0:0:
192,208,64215,2,0,P|218:238|267:275,1,96.8000029541017
424,96,64531,2,0,B|352:80|352:80|384:184,1,171.599992144776
