osu file format v14

[General]
AudioFilename: audio.mp3
AudioLeadIn: 0
PreviewTime: 28732
Countdown: 0
SampleSet: Soft
StackLeniency: 0.5
Mode: 0
LetterboxInBreaks: 0
WidescreenStoryboard: 1

[Editor]
Bookmarks: 1555,7202,12849,18496,24143,29791,41085,46732,52379,58026,63673,74967,77791,83438,86261,97555,106026,108849,112026
DistanceSpacing: 0.9
BeatDivisor: 4
GridSize: 32
TimelineZoom: 4.899997

[Metadata]
Title:Cybernetics
TitleUnicode:Cybernetics
Artist:Jun Kuroda
ArtistUnicode:Jun Kuroda
Creator:Altai
Version:Easy
Source:
Tags:electronic instrumental featured artist fa heatwave -_heatwave_- happycore dnb drum and n bass happy hardcore drumstep
BeatmapID:2879540
BeatmapSetID:1325579

[Difficulty]
HPDrainRate:2.5
CircleSize:2.8
OverallDifficulty:2
ApproachRate:3
SliderMultiplier:1
SliderTickRate:1

[Events]
//Background and Video events
0,0,"ash-edmonds-0aWZdK8nK2I-unsplash.jpg",0,0
//Break Periods
2,41285,45292
//Storyboard Layer 0 (Background)
//Storyboard Layer 1 (Fail)
//Storyboard Layer 2 (Pass)
//Storyboard Layer 3 (Foreground)
//Storyboard Layer 4 (Overlay)
//Storyboard Sound Samples

[TimingPoints]
144,352.941176470588,4,2,1,65,1,0
1202,-100,4,2,1,65,0,0
1555,-100,4,2,1,75,0,0
1820,-100,4,2,1,5,0,0
1908,-100,4,2,1,75,0,0
7202,-105.263157894737,4,2,1,70,0,0
9585,-105.263157894737,4,2,1,6,0,0
9673,-105.263157894737,4,2,1,70,0,0
9938,-105.263157894737,4,2,1,5,0,0
10026,-105.263157894737,4,2,1,70,0,0
12849,-100,4,2,1,80,0,0
14349,-100,4,2,1,5,0,0
14438,-100,4,2,1,80,0,0
15585,-100,4,2,1,5,0,0
15673,-100,4,2,1,85,0,0
17085,-100,4,2,1,80,0,0
18143,-100,4,2,1,75,0,0
18496,-100,4,2,1,85,0,0
18761,-100,4,2,1,5,0,0
18849,-100,4,2,1,85,0,0
21938,-100,4,2,1,5,0,0
22026,-100,4,2,1,85,0,0
22996,-100,4,2,1,5,0,0
23085,-100,4,2,1,85,0,0
23526,-100,4,2,1,5,0,0
23614,-100,4,2,1,85,0,0
24143,-100,4,2,1,80,0,0
28732,-100,4,2,1,60,0,0
29614,-100,4,2,1,75,0,0
29791,-100,4,2,1,90,0,0
31070,-100,4,2,1,5,0,0
31114,-100,4,2,1,90,0,0
31158,-100,4,2,1,5,0,0
31202,-100,4,2,1,85,0,0
31555,-100,4,2,1,90,0,0
33893,-100,4,2,1,5,0,0
33938,-100,4,2,1,90,0,0
33982,-100,4,2,1,5,0,0
34026,-100,4,2,1,90,0,0
34996,-100,4,2,1,5,0,0
35085,-100,4,2,1,90,0,0
36717,-100,4,2,1,5,0,0
36761,-100,4,2,1,90,0,0
36805,-100,4,2,1,5,0,0
36849,-100,4,2,1,90,0,0
40026,-100,4,2,1,60,0,0
40379,-100,4,2,1,70,0,0
40732,-100,4,2,1,80,0,0
41085,-100,4,2,1,85,0,0
46732,-105.263157894737,4,2,1,50,0,0
48143,-105.263157894737,4,2,1,60,0,0
49555,-105.263157894737,4,2,1,70,0,0
50967,-105.263157894737,4,2,1,75,0,0
52379,-105.263157894737,4,2,1,85,0,0
53879,-105.263157894737,4,2,1,5,0,0
53967,-105.263157894737,4,2,1,85,0,0
55114,-105.263157894737,4,2,1,5,0,0
55202,-105.263157894737,4,2,1,85,0,0
57938,-105.263157894737,4,2,1,5,0,0
58026,-105.263157894737,4,2,1,85,0,0
61908,-105.263157894737,4,2,1,75,0,0
63673,-100,4,2,1,90,0,0
63938,-100,4,2,1,5,0,0
64026,-100,4,2,1,90,0,0
65217,-100,4,2,1,5,0,0
65261,-100,4,2,1,90,0,0
66761,-100,4,2,1,5,0,0
66849,-100,4,2,1,90,0,0
68041,-100,4,2,1,5,0,0
68085,-100,4,2,1,90,0,0
69585,-100,4,2,1,5,0,0
69673,-100,4,2,1,90,0,0
70864,-100,4,2,1,5,0,0
70908,-100,4,2,1,90,0,0
72408,-100,4,2,1,5,0,0
72496,-100,4,2,1,90,0,0
73688,-100,4,2,1,5,0,0
73732,-100,4,2,1,90,0,0
74967,-105.263157894737,4,2,1,80,0,0
75232,-105.263157894737,4,2,1,5,0,0
75320,-105.263157894737,4,2,1,80,0,0
77791,-100,4,2,1,90,0,0
78055,-100,4,2,1,5,0,0
78143,-100,4,2,1,90,0,0
80879,-100,4,2,1,5,0,0
80967,-100,4,2,1,90,0,0
83438,-100,4,2,1,92,0,0
86261,-95.2380952380952,4,2,1,95,0,1
86393,-95.2380952380952,4,2,1,6,0,1
86438,-95.2380952380952,4,2,1,95,0,1
86746,-95.2380952380952,4,2,1,5,0,1
86791,-95.2380952380952,4,2,1,95,0,1
87805,-95.2380952380952,4,2,1,5,0,1
87849,-95.2380952380952,4,2,1,95,0,1
90629,-95.2380952380952,4,2,1,5,0,1
90673,-95.2380952380952,4,2,1,95,0,1
90982,-95.2380952380952,4,2,1,5,0,1
91026,-95.2380952380952,4,2,1,95,0,1
92041,-95.2380952380952,4,2,1,5,0,1
92085,-95.2380952380952,4,2,1,95,0,1
92393,-95.2380952380952,4,2,1,5,0,1
92438,-95.2380952380952,4,2,1,95,0,1
93452,-95.2380952380952,4,2,1,5,0,1
93496,-95.2380952380952,4,2,1,95,0,1
96276,-95.2380952380952,4,2,1,5,0,1
96320,-95.2380952380952,4,2,1,95,0,1
97555,-95.2380952380952,4,2,1,95,0,0
97908,-95.2380952380952,4,2,1,95,0,1
98041,-95.2380952380952,4,2,1,5,0,1
98085,-95.2380952380952,4,2,1,95,0,1
99099,-95.2380952380952,4,2,1,5,0,1
99143,-95.2380952380952,4,2,1,95,0,1
101923,-95.2380952380952,4,2,1,5,0,1
101967,-95.2380952380952,4,2,1,95,0,1
102276,-95.2380952380952,4,2,1,5,0,1
102320,-95.2380952380952,4,2,1,95,0,1
103335,-95.2380952380952,4,2,1,5,0,1
103379,-95.2380952380952,4,2,1,95,0,1
103688,-95.2380952380952,4,2,1,5,0,1
103732,-95.2380952380952,4,2,1,95,0,1
104746,-95.2380952380952,4,2,1,5,0,1
104791,-95.2380952380952,4,2,1,95,0,1
108849,-100,4,2,1,95,0,0

[Colours]
Combo1 : 248,217,41
Combo2 : 230,230,230
Combo3 : 148,148,148
Combo4 : 255,47,47
Combo5 : 255,123,26
Combo6 : 245,73,181

[HitObjects]
4,337,1202,5,2,0:0:0:0:
90,361,1555,2,2,P|128:318|117:274,1,100,6|2,1:2|0:0,0:1:0:0:
94,193,2261,2,2,B|165:168|165:168|178:96,1,150,6|6,1:2|1:2,0:1:0:0:
393,29,3673,1,10,3:2:0:0:
446,93,4026,2,0,P|437:141|424:208,1,100,2|2,1:2|3:2,0:0:0:0:
436,281,4732,54,2,B|364:265|364:265|309:317|309:317|255:305,1,200,6|6,1:2|1:2,0:1:0:0:
185,358,5791,2,2,P|163:240|114:61,1,300,6|8,1:2|3:2,0:1:0:0:
180,10,7202,21,6,1:2:0:0:
285,83,7732,2,0,P|324:49|376:53,1,94.9999974632264,2|2,3:2|3:2,0:0:0:0:
429,106,8438,2,0,P|416:165|404:259,1,142.49999619484,2|8,3:2|1:3,0:0:0:0:
320,231,9320,1,2,1:2:0:0:
290,311,9673,1,2,1:2:0:0:
206,290,10026,1,6,1:2:0:0:
98,359,10555,6,0,P|61:312|12:312,1,94.9999974632264,2|2,3:2|3:1,0:0:0:0:
0,180,11438,2,0,P|15:134|30:80,1,94.9999974632264,2|8,1:2|1:3,0:0:0:0:
102,47,12143,2,0,P|148:62|202:77,1,94.9999974632264,8|8,1:3|1:3,0:0:0:0:
259,135,12849,70,2,P|297:92|350:94,1,100,6|2,1:2|1:2,0:1:0:0:
394,158,13555,2,0,B|377:232|377:232|380:237|380:237|362:316,1,150,0|6,1:2|1:2,0:0:0:0:
297,362,14438,2,0,B|224:344|224:344|197:273|197:273|97:247,1,250,2|2,1:2|1:2,0:0:0:0:
40,181,15673,6,0,P|54:133|66:74,1,100,2|2,1:2|1:2,0:0:0:0:
134,27,16379,2,0,B|209:44|209:44|240:119,1,150,2|2,1:2|1:2,0:0:0:0:
311,161,17261,2,0,B|365:150|365:150|389:109|389:109|440:101,1,150,2|2,0:3|3:3,0:0:0:0:
501,269,18496,54,0,P|460:280|434:339,1,100,6|0,1:2|1:0,0:0:0:0:
356,374,19202,1,2,1:2:0:0:
303,301,19555,1,2,1:2:0:0:
214,317,19908,2,0,B|210:291|210:291|177:258|177:258|198:209|198:209|162:174|162:174|158:140,1,200,0|0,1:2|1:0,0:0:0:0:
93,88,20967,1,2,1:2:0:0:
152,19,21320,2,0,B|156:26|156:26|193:33|245:46,1,100,2|0,1:2|1:0,0:0:0:0:
315,103,22026,2,0,P|361:83|415:66,1,100,0|0,1:0|1:0,0:0:0:0:
493,98,22732,5,2,1:2:0:0:
471,231,23261,1,2,1:2:0:0:
450,364,23791,1,8,0:0:0:0:
366,332,24143,38,0,P|318:343|279:366,1,75,6|6,1:2|1:2,0:0:0:0:
200,293,24849,2,0,P|189:245|166:206,1,75,6|6,1:2|1:2,0:0:0:0:
239,127,25555,2,0,P|287:116|326:93,1,75,6|6,1:2|1:2,0:0:0:0:
402,168,26261,1,4,1:2:0:0:
331,223,26614,1,4,1:2:0:0:
361,307,26967,38,0,P|296:331|281:369,1,100,2|2,1:2|1:2,0:0:0:0:
193,359,27673,2,0,B|162:263|162:263|112:256,1,150,2|6,1:2|1:2,0:0:0:0:
3,178,28732,6,0,P|84:163|63:58,1,200,2|10,3:2|0:2,0:0:0:0:
140,3,29791,5,2,1:0:0:0:
204,65,30143,1,2,3:1:0:0:
282,20,30496,2,2,L|387:37,1,100,10|2,0:0|3:2,0:1:0:0:
437,106,31202,2,2,L|420:211,1,100,2|0,3:2|1:0,0:1:0:0:
348,259,31908,2,2,L|243:242,1,100,10|2,0:0|3:2,0:1:0:0:
218,158,32614,5,2,1:2:0:0:
55,234,33320,2,2,L|72:339,1,100,10|2,0:0|3:2,0:1:0:0:
147,379,34026,2,2,L|245:363,2,100,2|0|10,3:2|1:0|0:0,0:1:0:0:
231,220,35438,69,2,1:1:0:0:
293,284,35791,1,2,3:1:0:0:
370,239,36143,2,2,L|391:134,1,100,10|2,0:2|3:2,0:1:0:0:
340,65,36849,2,2,L|234:44,1,100,2|0,3:2|1:0,0:1:0:0:
166,96,37555,2,2,L|145:201,1,100,10|2,0:0|3:2,0:1:0:0:
82,258,38261,6,0,P|33:219|-6:222,2,100,4|4|4,1:3|1:3|1:3,0:0:0:0:
330,363,40026,38,0,P|381:348|444:342,2,100,2|2|2,0:0|0:0|0:0,0:0:0:0:
263,301,41085,1,6,1:2:0:0:
25,354,46732,5,0,1:0:0:0:
126,216,47438,1,0,1:0:0:0:
264,316,48143,2,0,P|344:332|362:339,1,94.9999974632264,0|0,1:0|1:0,0:0:0:0:
431,296,48849,2,0,P|447:216|454:198,1,94.9999974632264,0|0,1:0|1:0,0:0:0:0:
403,132,49555,69,4,1:3:0:0:
323,163,49908,1,8,1:2:0:0:
268,97,50261,2,0,P|224:84|166:72,1,94.9999974632264,0|8,1:0|1:2,0:0:0:0:
127,2,50967,1,8,3:0:0:0:
2,119,51673,1,2,1:2:0:0:
63,178,52026,1,2,1:2:0:0:
25,254,52379,6,0,B|74:266|74:266|90:302|90:302|144:316,2,142.49999619484,6|2|10,1:1|1:1|1:2,0:0:0:0:
82,139,53967,2,0,B|132:125|132:125|148:89|148:89|197:77,1,142.49999619484,2|2,1:1|1:1,0:0:0:0:
258,16,54849,1,10,0:0:0:0:
328,64,55202,70,0,B|377:76|377:76|393:112|393:112|447:126,2,142.49999619484,2|2|2,1:1|1:1|1:2,0:0:0:0:
235,153,56791,1,2,1:1:0:0:
278,226,57143,2,0,B|257:324|257:324|286:360,1,142.49999619484,2|6,1:1|1:2,0:0:0:0:
368,346,58026,6,0,B|417:334|417:334|433:298|433:298|488:286,2,142.49999619484,2|2|8,1:2|3:2|1:2,0:0:0:0:
268,264,59614,2,0,B|277:215|277:215|258:176|258:176|268:122,1,142.49999619484,2|2,0:3|1:2,0:0:0:0:
339,82,60496,1,2,1:1:0:0:
294,9,60849,69,2,1:2:0:0:
49,85,61908,2,0,P|74:146|86:227,1,142.49999619484,6|6,3:2|3:2,0:0:0:0:
128,342,62967,1,10,0:2:0:0:
197,292,63320,1,10,0:2:0:0:
266,349,63673,22,2,B|326:339|326:339|327:335|327:335|376:327,1,100,6|10,1:2|0:0,0:1:0:0:
441,370,64379,1,2,0:2:0:0:
384,199,65085,2,2,B|421:217|452:180|446:177|441:173|470:135|511:149,2,150,2|2|10,3:2|1:2|0:0,0:1:0:0:
324,131,66496,54,2,B|274:123|274:123|272:125|272:125|219:117,1,100,2|10,1:2|0:0,0:1:0:0:
159,178,67202,1,2,0:0:0:0:
104,106,67555,1,10,0:0:0:0:
33,162,67908,2,2,P|11:94|-24:19,2,150,2|2|10,3:2|3:1|0:0,0:1:0:0:
14,250,69320,22,2,B|59:260|59:260|62:263|62:263|124:278,1,100,2|10,1:2|0:0,0:1:0:0:
151,354,70026,1,2,0:0:0:0:
275,224,70732,2,2,B|293:187|256:156|253:161|249:166|211:138|225:96,2,150,2|2|10,3:2|1:2|0:0,0:1:0:0:
335,290,72143,54,2,B|385:281|385:281|391:283|391:283|441:272,1,100,2|10,1:2|0:0,0:1:0:0:
491,204,72849,1,2,0:0:0:0:
422,142,73202,1,10,0:0:0:0:
470,66,73555,2,2,P|432:12|344:9,2,150,2|2|10,3:2|3:1|0:0,0:1:0:0:
416,133,74967,6,2,P|367:140|314:158,2,94.9999974632264,6|8|2,1:2|0:0|0:3,0:1:0:0:
381,300,76379,1,10,0:2:0:0:
260,246,76908,1,2,3:2:0:0:
184,349,77438,1,10,0:0:0:0:
128,277,77791,6,2,B|86:271|86:271|81:274|81:274|22:267,1,100,6|10,1:2|0:0,0:1:0:0:
0,186,78496,1,2,0:0:0:0:
104,39,79202,1,10,0:0:0:0:
225,99,79732,2,0,B|262:117|293:80|287:77|282:73|311:35|352:49,1,150,2|10,0:1|0:0,0:0:0:0:
424,103,80614,54,2,B|415:148|415:148|417:155|417:155|405:216,1,100,2|10,1:2|0:0,0:1:0:0:
481,252,81320,1,2,0:0:0:0:
433,328,81673,1,10,0:0:0:0:
343,315,82026,2,0,P|277:314|208:373,2,150,10|2|8,0:2|1:2|0:0,0:0:0:0:
322,227,83438,22,0,B|312:178|312:178|315:175|315:175|305:120,1,100,6|8,1:1|0:0,0:0:0:0:
243,65,84143,2,0,B|194:75|194:75|191:72|191:72|136:82,1,100,2|8,1:1|0:0,0:0:0:0:
97,156,84849,1,6,1:1:0:0:
6,55,85379,1,2,1:1:0:0:
50,286,86261,22,0,P|108:294|126:342,1,104.999996795654,6|2,1:1|1:2,0:1:0:0:
218,311,86967,2,0,P|227:261|274:241,1,104.999996795654,2|0,1:1|1:0,0:0:0:0:
360,281,87673,1,2,1:1:0:0:
476,200,88202,2,0,P|399:157|419:97,1,157.499995193482,2|2,0:1|1:2,0:0:0:0:
360,23,89085,6,0,P|297:22|272:68,1,104.999996795654,2|0,1:1|1:0,0:0:0:0:
182,73,89791,2,0,P|181:136|227:161,1,104.999996795654,0|2,1:0|1:2,0:0:0:0:
150,231,90496,1,2,1:1:0:0:
215,299,90849,2,2,B|243:290|254:261|254:261|298:262|321:295|307:302|326:343|376:341,1,209.999993591309,2|2,1:2|1:2,0:1:0:0:
449,277,91908,70,0,P|452:230|503:201,1,104.999996795654,2|2,1:1|1:2,0:1:0:0:
477,108,92614,2,0,P|430:105|401:54,1,104.999996795654,2|0,1:1|1:0,0:0:0:0:
318,12,93320,1,2,1:1:0:0:
213,107,93849,6,0,P|178:39|103:48,1,157.499995193482,2|2,0:1|1:2,0:0:0:0:
28,99,94732,2,0,P|67:139|56:189,1,104.999996795654,2|0,1:1|1:0,0:0:0:0:
124,253,95438,2,0,P|85:293|96:343,1,104.999996795654,0|2,1:0|1:2,0:0:0:0:
182,366,96143,2,0,P|221:326|210:276,1,104.999996795654,2|2,1:2|1:1,0:0:0:0:
197,187,96849,1,2,1:1:0:0:
317,332,97555,70,0,B|389:316|389:316|409:286,1,104.999996795654,6|6,1:1|1:2,0:0:0:0:
452,207,98261,2,0,P|453:155|508:135,1,104.999996795654,2|0,1:1|1:0,0:0:0:0:
457,46,98967,1,2,1:1:0:0:
326,100,99496,6,0,P|310:37|235:61,1,157.499995193482,2|2,0:1|1:2,0:0:0:0:
168,122,100379,2,0,P|113:109|75:137,1,104.999996795654,2|0,1:1|1:0,0:0:0:0:
91,228,101085,2,0,P|146:241|184:213,1,104.999996795654,0|2,1:0|1:2,0:0:0:0:
273,186,101791,1,2,1:1:0:0:
309,273,102143,2,2,B|337:282|348:311|348:311|392:310|415:277|401:270|420:229|470:231,1,209.999993591309,2|2,1:2|1:2,0:1:0:0:
484,137,103202,70,0,P|429:135|404:92,1,104.999996795654,6|10,1:1|0:2,0:1:0:0:
309,95,103908,2,0,P|301:43|245:19,1,104.999996795654,2|8,1:1|0:0,0:0:0:0:
163,21,104614,1,2,1:2:0:0:
96,145,105143,2,0,P|15:159|16:224,1,157.499995193482,2|10,1:1|0:0,0:0:0:0:
50,308,106026,6,0,P|96:278|142:289,1,104.999996795654,2|8,1:1|0:0,0:0:0:0:
212,351,106732,2,0,P|271:303|294:309,1,104.999996795654,0|8,1:0|0:0,0:0:0:0:
376,307,107438,2,0,P|386:270|448:242,1,104.999996795654,2|10,1:1|0:0,0:0:0:0:
495,163,108143,1,0,1:0:0:0:
419,106,108496,1,8,0:0:0:0:
339,53,108849,54,0,P|286:62|248:66,1,75,6|6,1:2|1:2,1:2:0:0:
211,164,109555,2,0,P|220:216|224:254,1,75,6|6,1:2|1:2,0:0:0:0:
321,292,110261,2,0,P|373:282|411:278,1,75,6|6,1:2|1:2,0:0:0:0:
450,181,110967,2,0,P|440:128|436:90,1,75,6|6,1:2|1:2,0:0:0:0:
339,53,111673,37,2,1:2:0:0:
288,127,112026,1,6,0:0:0:0:
256,192,112202,12,2,114143,0:2:0:0:
