osu file format v14

[General]
AudioFilename: audio.mp3
AudioLeadIn: 0
PreviewTime: 28732
Countdown: 0
SampleSet: Soft
StackLeniency: 0.5
Mode: 0
LetterboxInBreaks: 0
WidescreenStoryboard: 1

[Editor]
Bookmarks: 1555,7202,12849,18496,24143,29791,41085,46732,52379,58026,63673,74967,77791,83438,86261,97555,106026,108849,112026
DistanceSpacing: 1
BeatDivisor: 4
GridSize: 16
TimelineZoom: 4.899997

[Metadata]
Title:Cybernetics
TitleUnicode:Cybernetics
Artist:Jun Kuroda
ArtistUnicode:Jun Kuroda
Creator:Altai
Version:Another
Source:
Tags:electronic instrumental featured artist fa heatwave -_heatwave_- happycore dnb drum and n bass happy hardcore drumstep
BeatmapID:2830561
BeatmapSetID:1325579

[Difficulty]
HPDrainRate:5.3
CircleSize:4
OverallDifficulty:8
ApproachRate:9
SliderMultiplier:1.8
SliderTickRate:1

[Events]
//Background and Video events
0,0,"ash-edmonds-0aWZdK8nK2I-unsplash.jpg",0,0
//Break Periods
2,41285,46132
//Storyboard Layer 0 (Background)
//Storyboard Layer 1 (Fail)
//Storyboard Layer 2 (Pass)
//Storyboard Layer 3 (Foreground)
//Storyboard Layer 4 (Overlay)
//Storyboard Sound Samples

[TimingPoints]
144,352.941176470588,4,2,1,65,1,0
1202,-133.333333333333,4,2,1,65,0,0
1555,-66.6666666666667,4,2,1,75,0,0
1820,-66.6666666666667,4,2,1,5,0,0
1908,-100,4,2,1,75,0,0
2261,-66.6666666666667,4,2,1,75,0,0
2791,-133.333333333333,4,2,1,75,0,0
3673,-80,4,2,1,75,0,0
4732,-66.6666666666667,4,2,1,75,0,0
5791,-71.4285714285714,4,2,1,75,0,0
7202,-71.4285714285714,4,2,1,70,0,0
9320,-200,4,2,1,70,0,0
9585,-200,4,2,1,6,0,0
9673,-200,4,2,1,70,0,0
9938,-200,4,2,1,5,0,0
10026,-200,4,2,1,70,0,0
10555,-71.4285714285714,4,2,1,70,0,0
12849,-66.6666666666667,4,2,1,80,0,0
14173,-133.333333333333,4,2,1,80,0,0
14349,-133.333333333333,4,2,1,5,0,0
14438,-66.6666666666667,4,2,1,80,0,0
15585,-66.6666666666667,4,2,1,5,0,0
15673,-66.6666666666667,4,2,1,85,0,0
17085,-66.6666666666667,4,2,1,80,0,0
17791,-50,4,2,1,80,0,0
18143,-100,4,2,1,75,0,0
18496,-66.6666666666667,4,2,1,85,0,0
18761,-66.6666666666667,4,2,1,5,0,0
18849,-66.6666666666667,4,2,1,85,0,0
21938,-66.6666666666667,4,2,1,5,0,0
22026,-66.6666666666667,4,2,1,85,0,0
22996,-66.6666666666667,4,2,1,5,0,0
23085,-66.6666666666667,4,2,1,85,0,0
23526,-66.6666666666667,4,2,1,5,0,0
23614,-66.6666666666667,4,2,1,85,0,0
24143,-62.5,4,2,1,80,0,0
26967,-66.6666666666667,4,2,1,80,0,0
28732,-66.6666666666667,4,2,1,60,0,0
29614,-66.6666666666667,4,2,1,75,0,0
29791,-80,4,2,1,90,0,0
30496,-38.4615384615385,4,2,1,90,0,0
31070,-33.3333333333333,4,2,1,5,0,0
31114,-33.3333333333333,4,2,1,90,0,0
31158,-33.3333333333333,4,2,1,5,0,0
31202,-44.4444444444445,4,2,1,85,0,0
31555,-57.1428571428571,4,2,1,90,0,0
31908,-40,4,2,1,90,0,0
32261,-57.1428571428571,4,2,1,90,0,0
32614,-66.6666666666667,4,2,1,90,0,0
33320,-33.3333333333333,4,2,1,90,0,0
33893,-33.3333333333333,4,2,1,5,0,0
33938,-33.3333333333333,4,2,1,90,0,0
33982,-33.3333333333333,4,2,1,5,0,0
34026,-44.4444444444445,4,2,1,90,0,0
34379,-57.1428571428571,4,2,1,90,0,0
34732,-50,4,2,1,90,0,0
34996,-50,4,2,1,5,0,0
35085,-50,4,2,1,90,0,0
35438,-80,4,2,1,90,0,0
36143,-33.3333333333333,4,2,1,90,0,0
36717,-33.3333333333333,4,2,1,5,0,0
36761,-33.3333333333333,4,2,1,90,0,0
36805,-33.3333333333333,4,2,1,5,0,0
36849,-44.4444444444445,4,2,1,90,0,0
37202,-57.1428571428571,4,2,1,90,0,0
37555,-40,4,2,1,90,0,0
37908,-57.1428571428571,4,2,1,90,0,0
40026,-133.333333333333,4,2,1,60,0,0
40379,-133.333333333333,4,2,1,70,0,0
40732,-133.333333333333,4,2,1,80,0,0
41085,-133.333333333333,4,2,1,85,0,0
46732,-133.333333333333,4,2,1,50,0,0
48143,-133.333333333333,4,2,1,60,0,0
48849,-80,4,2,1,60,0,0
49555,-80,4,2,1,70,0,0
50967,-80,4,2,1,75,0,0
52379,-80,4,2,1,85,0,0
53614,-200,4,2,1,85,0,0
53879,-200,4,2,1,5,0,0
53967,-200,4,2,1,85,0,0
54143,-80,4,2,1,85,0,0
54849,-200,4,2,1,85,0,0
55114,-200,4,2,1,5,0,0
55202,-80,4,2,1,85,0,0
57673,-200,4,2,1,85,0,0
57938,-200,4,2,1,5,0,0
58026,-200,4,2,1,85,0,0
60143,-80,4,2,1,85,0,0
61908,-80,4,2,1,75,0,0
63673,-44.4444444444445,4,2,1,90,0,0
63938,-44.4444444444445,4,2,1,5,0,0
64026,-44.4444444444445,4,2,1,90,0,0
64732,-100,4,2,1,90,0,0
65085,-50,4,2,1,90,0,0
65217,-50,4,2,1,5,0,0
65261,-50,4,2,1,90,0,0
65438,-66.6666666666667,4,2,1,90,0,0
65967,-100,4,2,1,90,0,0
66496,-44.4444444444445,4,2,1,90,0,0
66761,-44.4444444444445,4,2,1,5,0,0
66849,-44.4444444444445,4,2,1,90,0,0
67555,-100,4,2,1,90,0,0
67908,-50,4,2,1,90,0,0
68041,-50,4,2,1,5,0,0
68085,-50,4,2,1,90,0,0
68438,-66.6666666666667,4,2,1,90,0,0
68967,-100,4,2,1,90,0,0
69320,-44.4444444444445,4,2,1,90,0,0
69585,-44.4444444444445,4,2,1,5,0,0
69673,-44.4444444444445,4,2,1,90,0,0
70379,-100,4,2,1,90,0,0
70732,-50,4,2,1,90,0,0
70864,-50,4,2,1,5,0,0
70908,-50,4,2,1,90,0,0
71261,-66.6666666666667,4,2,1,90,0,0
71791,-100,4,2,1,90,0,0
72143,-44.4444444444445,4,2,1,90,0,0
72408,-44.4444444444445,4,2,1,5,0,0
72496,-44.4444444444445,4,2,1,90,0,0
73202,-100,4,2,1,90,0,0
73555,-44.4444444444445,4,2,1,90,0,0
73688,-44.4444444444445,4,2,1,5,0,0
73732,-44.4444444444445,4,2,1,90,0,0
74085,-57.1428571428571,4,2,1,90,0,0
74614,-80,4,2,1,90,0,0
74967,-66.6666666666667,4,2,1,80,0,0
75232,-66.6666666666667,4,2,1,5,0,0
75320,-66.6666666666667,4,2,1,80,0,0
77791,-44.4444444444445,4,2,1,90,0,0
78055,-44.4444444444445,4,2,1,5,0,0
78143,-44.4444444444445,4,2,1,90,0,0
78849,-66.6666666666667,4,2,1,90,0,0
80614,-44.4444444444445,4,2,1,90,0,0
80879,-44.4444444444445,4,2,1,5,0,0
80967,-44.4444444444445,4,2,1,90,0,0
81673,-66.6666666666667,4,2,1,90,0,0
82026,-50,4,2,1,90,0,0
82555,-66.6666666666667,4,2,1,90,0,0
83085,-100,4,2,1,90,0,0
83438,-100,4,2,1,92,0,0
84496,-66.6666666666667,4,2,1,92,0,0
86261,-50,4,2,1,95,0,1
86393,-50,4,2,1,6,0,1
86438,-50,4,2,1,95,0,1
86746,-50,4,2,1,5,0,1
86791,-50,4,2,1,95,0,1
87805,-50,4,2,1,5,0,1
87849,-50,4,2,1,95,0,1
88202,-44.4444444444445,4,2,1,95,0,1
88732,-50,4,2,1,95,0,1
90629,-50,4,2,1,5,0,1
90673,-50,4,2,1,95,0,1
90982,-50,4,2,1,5,0,1
91026,-50,4,2,1,95,0,1
92041,-50,4,2,1,5,0,1
92085,-50,4,2,1,95,0,1
92393,-50,4,2,1,5,0,1
92438,-50,4,2,1,95,0,1
93452,-50,4,2,1,5,0,1
93496,-50,4,2,1,95,0,1
93849,-44.4444444444445,4,2,1,95,0,1
94555,-50,4,2,1,95,0,1
96276,-50,4,2,1,5,0,1
96320,-50,4,2,1,95,0,1
97555,-66.6666666666667,4,2,1,95,0,0
97908,-50,4,2,1,95,0,1
98041,-50,4,2,1,5,0,1
98085,-50,4,2,1,95,0,1
99099,-50,4,2,1,5,0,1
99143,-50,4,2,1,95,0,1
99496,-44.4444444444445,4,2,1,95,0,1
100202,-50,4,2,1,95,0,1
101923,-50,4,2,1,5,0,1
101967,-50,4,2,1,95,0,1
102276,-50,4,2,1,5,0,1
102320,-50,4,2,1,95,0,1
103335,-50,4,2,1,5,0,1
103379,-50,4,2,1,95,0,1
103688,-50,4,2,1,5,0,1
103732,-50,4,2,1,95,0,1
104746,-50,4,2,1,5,0,1
104791,-50,4,2,1,95,0,1
105143,-44.4444444444445,4,2,1,95,0,1
106026,-66.6666666666667,4,2,1,95,0,1
108849,-66.6666666666667,4,2,1,95,0,0
109114,-50,4,2,1,95,0,0
109555,-66.6666666666667,4,2,1,95,0,0
109820,-50,4,2,1,95,0,0
110261,-66.6666666666667,4,2,1,95,0,0
110526,-50,4,2,1,95,0,0
110967,-66.6666666666667,4,2,1,95,0,0
111232,-50,4,2,1,95,0,0
111496,-66.6666666666667,4,2,1,95,0,0
112026,-133.333333333333,4,2,1,95,0,0
114143,-80,4,2,1,95,0,0
114496,-80,4,2,1,20,0,0

[Colours]
Combo1 : 248,217,41
Combo2 : 230,230,230
Combo3 : 148,148,148
Combo4 : 255,47,47
Combo5 : 255,123,26
Combo6 : 245,73,181

[HitObjects]
42,245,1202,6,0,L|14:252,2,22.5000008583069,2|2|2,0:0|0:0|0:0,0:0:0:0:
115,223,1379,2,0,L|143:216,2,22.5000008583069,2|2|2,0:0|0:0|0:0,0:0:0:0:
123,351,1555,54,2,P|208:347|203:249,1,202.500007724762,6|0,1:2|0:0,0:1:0:0:
199,151,1908,22,0,L|204:121,2,30,2|2|2,0:0|0:0|0:0,0:0:0:0:
126,138,2085,2,0,L|131:108,2,30,2|2|2,0:0|0:0|0:0,0:0:0:0:
217,250,2261,54,2,P|272:211|341:196,1,135.000005149842,6|0,1:2|0:0,0:1:0:0:
480,158,2526,2,2,P|391:127|355:94,1,135.000005149842,2|0,1:2|0:0,0:1:0:0:
306,20,2791,22,2,P|364:200|380:282,1,270.000010299683,6|0,1:2|3:0,0:1:0:0:
501,361,3585,53,0,3:0:0:0:
501,361,3673,2,0,P|468:337|421:343,2,75,10|2|2,3:2|0:0|0:0,0:0:0:0:
379,279,4026,2,0,P|341:295|323:339,2,75,2|2|2,1:2|0:0|0:0,0:0:0:0:
480,158,4379,21,2,3:2:0:0:
364,83,4555,53,2,0:0:0:0:
364,83,4643,1,2,0:0:0:0:
364,83,4732,2,2,B|398:141|398:141|339:190,1,135.000005149842,6|0,1:2|0:0,0:1:0:0:
223,160,4996,2,2,B|189:102|189:102|248:53,1,135.000005149842,6|0,1:2|0:0,0:1:0:0:
292,122,5261,1,6,1:2:0:0:
125,33,5438,21,6,1:2:0:0:
125,33,5614,1,2,0:0:0:0:
221,244,5791,54,2,B|148:269|98:205|142:178|90:113|23:134,1,251.999992309571,6|0,1:2|1:0,0:1:0:0:
36,216,6320,1,2,0:3:0:0:
202,165,6496,21,8,3:0:0:0:
213,163,6585,1,8,3:0:0:0:
223,160,6673,2,0,P|261:152|304:144,1,62.9999980773926,6|4,3:0|3:0,0:0:0:0:
376,251,6849,53,8,3:2:0:0:
341,210,6938,1,0,3:0:0:0:
297,236,7026,2,0,P|257:245|216:256,1,62.9999980773926,0|0,3:0|3:0,0:0:0:0:
177,364,7202,22,0,P|147:352|118:341,1,62.9999980773926,6|0,1:2|0:0,0:0:0:0:
39,362,7379,1,2,3:2:0:0:
39,362,7467,2,0,P|11:321|14:299,2,62.9999980773926,2|2|0,3:2|1:2|0:0,0:0:0:0:
133,192,7732,5,2,3:2:0:0:
122,194,7820,2,0,P|67:206|32:214,2,62.9999980773926,2|0|0,3:2|1:0|3:0,0:0:0:0:
33,74,8085,69,2,3:2:0:0:
71,109,8173,1,2,3:2:0:0:
126,103,8261,2,0,P|156:77|165:44,1,62.9999980773926,2|0,1:2|0:0,0:0:0:0:
273,28,8438,6,0,P|251:133|235:226,1,188.999994232178,2|0,3:2|0:0,0:0:0:0:
310,251,8791,37,8,3:0:0:0:
347,223,8879,1,4,3:0:0:0:
395,236,8967,1,8,1:3:0:0:
430,269,9055,1,4,3:0:0:0:
432,321,9143,1,8,3:0:0:0:
409,359,9232,1,4,3:0:0:0:
356,371,9320,22,0,P|324:362|276:352,1,67.5,2|0,1:2|0:0,0:0:0:0:
232,304,9673,2,0,P|199:313|166:320,1,67.5,2|0,1:2|0:0,0:0:0:0:
283,362,10026,5,6,1:2:0:0:
154,229,10202,1,2,3:2:0:0:
154,229,10291,1,2,3:2:0:0:
154,229,10379,1,2,1:2:0:0:
275,144,10555,69,2,3:2:0:0:
280,133,10643,2,0,P|289:97|292:62,2,62.9999980773926,2|0|0,3:2|1:0|3:0,0:0:0:0:
399,40,10908,5,2,3:1:0:0:
406,49,10996,2,0,P|432:74|461:94,2,62.9999980773926,2|0|0,3:2|1:0|3:0,0:0:0:0:
427,199,11261,69,2,3:1:0:0:
415,200,11349,2,0,P|379:210|347:225,1,62.9999980773926,2|2,3:2|1:2,0:0:0:0:
472,333,11614,5,8,3:0:0:0:
472,333,11702,1,4,3:0:0:0:
472,333,11791,2,0,P|485:290|493:270,1,62.9999980773926,8|4,1:3|3:0,0:0:0:0:
377,307,11967,2,0,P|368:337|357:366,1,62.9999980773926,8|4,3:0|3:0,0:0:0:0:
263,261,12143,69,8,1:3:0:0:
248,224,12232,1,4,3:0:0:0:
215,208,12320,1,8,3:0:0:0:
179,210,12408,1,4,3:0:0:0:
154,229,12496,5,8,1:3:0:0:
148,183,12585,1,4,3:0:0:0:
117,147,12673,1,8,3:0:0:0:
72,137,12761,1,4,3:0:0:0:
31,153,12849,5,6,1:2:0:0:
288,89,13026,53,2,1:2:0:0:
288,89,13114,1,2,1:2:0:0:
288,89,13202,2,0,P|283:47|260:19,1,67.5000025749208,2|0,1:2|1:0,0:0:0:0:
188,51,13379,2,0,P|193:93|216:121,1,67.5000025749208,2|0,1:2|1:0,0:0:0:0:
353,155,13555,6,0,P|401:144|433:138,2,67.5000025749208,0|0|0,1:2|1:0|1:0,0:0:0:0:
420,219,13820,2,0,P|468:208|500:202,2,67.5000025749208,0|0|0,1:2|1:0|1:0,0:0:0:0:
222,312,14085,5,6,1:2:0:0:
212,309,14173,2,2,P|166:298|130:292,1,67.5000025749208,2|0,0:0|0:0,0:1:0:0:
275,382,14438,54,0,P|294:351|322:339,2,67.5000025749208,2|0|0,1:2|1:0|1:0,0:0:0:0:
386,293,14702,2,0,P|418:314|428:352,2,67.5000025749208,2|0|0,1:2|1:0|1:0,0:0:0:0:
252,225,14967,5,0,1:0:0:0:
261,191,15055,1,0,1:0:0:0:
270,157,15143,1,0,1:0:0:0:
279,123,15232,1,0,1:0:0:0:
288,89,15320,6,2,B|208:104|208:104|194:124|194:124|91:143,1,202.500007724762,2|0,1:2|0:0,0:1:0:0:
22,115,15673,54,0,P|11:152|0:187,1,67.5000025749208,2|0,1:2|3:0,0:0:0:0:
94,152,15849,2,0,P|83:189|72:224,1,67.5000025749208,0|0,1:0|3:0,0:0:0:0:
182,261,16026,6,0,P|193:298|204:333,1,67.5000025749208,2|0,1:2|3:0,0:0:0:0:
110,298,16202,2,0,P|121:335|132:370,1,67.5000025749208,0|0,1:0|3:0,0:0:0:0:
285,361,16379,69,2,1:2:0:0:
302,332,16467,1,0,1:0:0:0:
337,321,16555,1,2,1:2:0:0:
374,327,16643,1,2,1:2:0:0:
396,355,16732,5,2,1:2:0:0:
392,306,16820,1,0,1:0:0:0:
415,259,16908,1,2,1:2:0:0:
458,237,16996,1,2,1:2:0:0:
507,248,17085,22,0,L|499:282,6,33.7500012874604,2|2|2|2|2|2|2,3:3|0:3|0:3|0:3|0:3|0:3|0:3,0:0:0:0:
443,173,17438,2,0,L|435:207,6,33.7500012874604,2|2|2|2|2|2|2,3:3|0:3|0:3|0:3|0:3|0:3|0:3,0:0:0:0:
512,82,17791,70,0,L|502:128,6,45,2|2|2|2|2|2|2,3:3|0:3|0:3|0:3|0:3|0:3|0:3,0:0:0:0:
438,49,18143,54,0,L|379:59,1,45,2|2,3:2|3:2,0:0:0:0:
381,58,18320,2,0,L|322:68,1,45,2|2,3:2|3:2,0:0:0:0:
334,161,18496,70,0,P|298:85|186:101,1,202.500007724762,6|0,1:2|0:0,0:0:0:0:
192,93,18849,1,0,1:0:0:0:
77,57,19026,5,2,0:0:0:0:
77,57,19114,1,2,0:0:0:0:
77,57,19202,2,0,P|91:113|103:199,1,135.000005149842,2|2,1:2|0:0,0:0:0:0:
42,242,19467,5,2,0:0:0:0:
42,242,19555,2,0,P|17:277|20:305,1,67.5000025749208,2|2,1:2|0:0,0:0:0:0:
95,326,19732,2,0,P|119:290|116:262,1,67.5000025749208,2|2,0:0|0:0,0:0:0:0:
410,358,19996,53,2,0:2:0:0:
395,277,20173,1,2,0:2:0:0:
314,292,20349,1,2,0:2:0:0:
329,373,20526,1,2,0:2:0:0:
491,208,20702,5,2,0:0:0:0:
470,174,20791,1,2,0:0:0:0:
433,159,20879,1,2,0:0:0:0:
394,158,20967,5,2,1:2:0:0:
424,140,21055,1,2,0:2:0:0:
449,108,21143,1,2,0:2:0:0:
450,65,21232,1,2,0:2:0:0:
425,25,21320,69,2,1:2:0:0:
250,107,21496,21,2,0:0:0:0:
250,107,21585,1,2,0:0:0:0:
250,107,21673,2,2,P|180:93|44:72,1,202.500007724762,0|0,1:0|0:0,0:1:0:0:
50,72,22026,1,0,1:0:0:0:
133,34,22379,1,0,1:0:0:0:
14,272,22732,38,0,B|79:289|102:351|102:351|96:286|146:243,1,202.500007724762,2|0,1:2|0:0,0:0:0:0:
75,213,23085,1,8,0:0:0:0:
262,378,23261,6,0,P|274:297|372:320,1,202.500007724762,2|0,1:2|0:0,0:0:0:0:
370,316,23614,2,0,P|355:280|368:243,1,67.5000025749208,0|0,1:0|0:0,0:0:0:0:
439,277,23791,1,8,0:0:0:0:
439,277,24143,38,0,P|462:169|472:120,1,144,6|0,1:2|0:0,0:0:0:0:
512,67,24408,1,6,1:2:0:0:
375,154,24673,37,8,0:0:0:0:
512,67,24849,38,0,P|404:44|355:34,1,144,6|0,1:2|0:0,0:0:0:0:
299,1,25114,1,6,1:2:0:0:
375,154,25379,37,8,0:0:0:0:
299,1,25555,38,0,P|276:109|266:158,1,144,6|0,1:2|0:0,0:0:0:0:
217,197,25820,1,6,1:2:0:0:
375,154,26085,37,8,0:0:0:0:
345,318,26261,37,4,1:2:0:0:
345,318,26438,1,0,1:0:0:0:
217,197,26614,37,4,1:2:0:0:
217,197,26791,1,0,1:0:0:0:
216,357,26967,38,0,P|166:342|142:338,1,67.5000025749208,2|2,1:2|0:2,0:0:0:0:
137,328,27143,2,0,P|87:313|63:309,1,67.5000025749208,2|2,0:2|0:2,0:0:0:0:
24,226,27320,38,0,P|31:193|41:161,1,67.5000025749208,2|2,1:2|0:2,0:0:0:0:
53,147,27496,2,0,P|60:114|70:82,1,67.5000025749208,2|2,0:2|0:2,0:0:0:0:
161,56,27673,38,0,P|152:27|146:3,4,45.0000017166138,2|2|2|2|2,1:2|0:2|0:2|0:2|0:2,0:0:0:0:
143,134,28026,37,2,1:2:0:0:
361,44,28202,1,6,1:2:0:0:
361,44,28732,5,2,3:2:0:0:
326,151,28908,1,2,3:0:0:0:
341,169,28996,1,2,3:0:0:0:
364,182,29085,1,2,3:2:0:0:
389,183,29173,1,2,3:0:0:0:
413,176,29261,69,0,1:0:0:0:
497,245,29438,1,10,0:2:0:0:
452,348,29614,5,4,3:0:0:0:
452,348,29702,1,4,3:0:0:0:
452,348,29791,2,0,P|403:337|389:335,1,56.25,2|0,1:0|0:0,0:0:0:0:
392,326,30143,2,0,P|343:315|329:313,1,56.25,2|0,3:1|0:0,0:0:0:0:
258,357,30496,6,2,B|239:246|239:246|233:241|233:241|214:129,2,233.999989288331,10|2|2,0:0|3:3|3:2,0:1:0:0:
123,330,31026,1,2,3:0:0:0:
123,330,31114,1,0,3:0:0:0:
123,330,31202,2,2,B|47:266|47:266|101:174,1,202.500007724762,2|2,3:2|0:3,0:1:0:0:
99,177,31555,6,0,P|89:127|79:84,1,78.7500007510185,0|0,1:0|0:0,0:0:0:0:
190,199,31732,1,0,3:0:0:0:
237,26,31908,70,2,B|315:39|315:39|341:100|341:100|420:115,1,225,10|2,0:0|3:0,0:1:0:0:
420,116,32261,6,0,P|430:66|440:23,1,78.7500007510185,2|0,3:2|0:0,0:0:0:0:
512,54,32438,2,0,P|503:92|495:131,1,78.7500007510185,2|0,3:2|0:0,0:0:0:0:
469,269,32614,38,2,B|496:280|485:299|504:326|504:326|483:292|457:282,1,135.000005149842,2|2,1:2|0:0,0:1:0:0:
329,287,32967,6,0,B|349:260|349:260|382:270,1,67.5000025749208,2|0,3:1|0:0,0:0:0:0:
405,340,33143,2,0,B|384:366|384:366|351:356,1,67.5000025749208,2|0,3:2|0:0,0:0:0:0:
173,374,33320,6,2,B|215:148|215:148|188:117,2,270.000010299683,10|2|2,0:0|3:0|3:2,0:1:0:0:
31,261,33849,1,2,3:0:0:0:
31,261,33938,1,0,3:0:0:0:
31,261,34026,2,2,B|90:251|90:251|149:295|149:295|217:284,1,202.500007724762,2|2,3:2|0:3,0:1:0:0:
217,283,34379,6,0,P|226:237|234:199,1,78.7500007510185,0|0,1:0|0:0,0:0:0:0:
277,369,34555,1,0,3:0:0:0:
469,298,34732,70,0,B|454:214|454:214|479:170|479:170|440:134|440:134|426:54,1,270,10|0,0:0|0:0,0:0:0:0:
348,66,35085,2,0,B|362:149|362:149|337:193|337:193|376:229|376:229|390:309,1,270,2|0,3:2|0:0,0:0:0:0:
341,372,35438,54,0,P|292:361|278:359,1,56.25,2|0,1:1|0:0,0:0:0:0:
277,369,35791,2,0,P|228:358|214:356,1,56.25,2|0,3:1|0:0,0:0:0:0:
159,264,36143,22,2,B|297:243|297:243|302:247|302:247|433:228,2,270.000010299683,10|2|2,0:2|3:3|3:2,0:1:0:0:
67,71,36673,1,2,3:0:0:0:
67,71,36761,1,0,3:0:0:0:
67,71,36849,2,2,B|155:22|155:22|222:98,1,202.500007724762,2|2,3:2|0:3,0:1:0:0:
222,98,37202,6,0,P|211:146|199:192,1,78.7500007510185,0|0,1:0|0:0,0:0:0:0:
283,286,37379,69,0,3:0:0:0:
283,286,37467,1,0,3:0:0:0:
283,286,37555,2,2,B|306:181|306:181|310:177|310:177|335:55,1,225,10|2,0:0|3:0,0:1:0:0:
332,67,37908,6,0,P|380:78|426:90,1,78.7500007510185,2|0,3:2|0:0,0:0:0:0:
485,207,38085,1,2,0:0:0:0:
485,207,38173,1,0,0:0:0:0:
485,207,38261,69,4,1:3:0:0:
290,158,38438,1,0,1:0:0:0:
476,121,38614,5,4,1:3:0:0:
419,318,38791,1,0,1:0:0:0:
290,158,38967,69,4,1:3:0:0:
256,163,39055,1,0,1:0:0:0:
222,168,39143,1,0,1:0:0:0:
188,173,39232,1,0,1:0:0:0:
154,178,39320,5,4,1:3:0:0:
160,221,39408,1,0,1:0:0:0:
166,264,39496,1,0,1:0:0:0:
172,308,39585,1,0,1:0:0:0:
172,308,40026,38,0,P|134:262|62:277,2,135.000005149842,2|2|2,0:0|0:0|0:0,0:0:0:0:
338,97,41085,5,6,1:2:0:0:
28,371,46732,69,0,1:0:0:0:
14,294,47085,2,0,L|7:251,3,33.7500012874604,2|2|2|2,1:2|0:0|0:0|0:0,0:0:0:0:
90,281,47438,1,2,1:2:0:0:
104,357,47791,1,0,1:0:0:0:
225,216,48143,5,0,1:0:0:0:
308,294,48496,1,0,1:0:0:0:
378,212,48673,1,2,3:2:0:0:
378,212,48761,1,2,3:2:0:0:
378,212,48849,2,0,P|411:206|438:202,3,56.25,2|2|2|2,1:2|3:2|3:2|0:2,0:0:0:0:
486,271,49202,2,0,P|402:285|308:306,1,168.75,2|2,1:2|0:2,0:0:0:0:
320,302,49555,69,4,1:3:0:0:
364,118,49908,1,8,1:2:0:0:
168,84,50261,1,0,1:0:0:0:
168,84,50349,1,0,3:0:0:0:
168,84,50438,1,0,3:0:0:0:
137,188,50614,1,8,1:2:0:0:
137,188,50967,5,8,3:0:0:0:
179,204,51055,1,8,3:0:0:0:
202,241,51143,2,0,P|208:269|211:311,1,56.25,4|4,3:0|3:0,0:0:0:0:
87,366,51320,69,8,3:0:0:0:
58,335,51408,1,8,3:0:0:0:
76,293,51496,2,0,P|70:253|66:226,1,56.25,4|4,3:0|3:0,0:0:0:0:
0,114,51673,6,0,P|10:71|16:52,3,56.25,2|0|0|0,1:2|3:0|3:0|3:0,0:0:0:0:
73,132,52026,2,0,P|83:89|89:70,3,56.25,2|0|0|0,1:2|3:0|3:0|3:0,0:0:0:0:
179,204,52379,69,6,1:1:0:0:
172,177,52467,1,2,1:2:0:0:
183,153,52555,1,2,1:2:0:0:
208,144,52644,1,2,1:2:0:0:
231,150,52732,2,0,P|264:154|301:161,1,56.25,10|0,1:2|1:0,0:0:0:0:
367,92,52908,5,2,1:1:0:0:
360,120,52996,1,2,1:2:0:0:
371,146,53085,1,2,1:2:0:0:
400,160,53173,1,2,1:2:0:0:
418,187,53261,2,0,P|408:214|402:246,1,56.25,2|0,1:2|1:0,0:0:0:0:
352,338,53438,2,0,P|340:299|329:272,1,56.25,10|0,1:2|1:0,0:0:0:0:
255,268,53614,6,2,B|234:271|234:271|228:278|228:278|184:287,1,67.5,2|0,1:2|0:0,0:1:0:0:
129,325,53967,53,2,1:1:0:0:
110,297,54055,1,2,1:2:0:0:
81,283,54143,2,0,P|55:288|24:300,1,56.25,2|2,1:2|1:2,0:0:0:0:
86,199,54320,2,0,P|111:193|146:186,1,56.25,2|0,1:2|1:2,0:0:0:0:
34,130,54496,5,2,1:1:0:0:
15,95,54585,1,2,1:2:0:0:
27,59,54673,1,2,1:2:0:0:
66,42,54761,1,2,1:2:0:0:
106,60,54849,6,2,B|140:54|140:54|141:57|141:57|180:50,1,67.5,10|0,0:0|0:0,0:1:0:0:
235,11,55202,53,2,1:1:0:0:
250,33,55291,1,2,1:2:0:0:
276,46,55379,1,2,1:2:0:0:
307,43,55467,1,2,1:2:0:0:
330,23,55555,2,0,P|352:18|397:12,1,56.25,10|0,1:2|0:0,0:0:0:0:
462,63,55732,5,2,1:1:0:0:
434,83,55820,1,2,1:2:0:0:
417,111,55908,1,2,1:2:0:0:
412,143,55996,1,2,1:2:0:0:
427,170,56085,2,0,P|437:194|447:230,1,56.25,2|0,1:2|1:0,0:0:0:0:
505,275,56261,5,2,1:2:0:0:
410,350,56438,2,2,L|359:341,3,37.5,2|0|0|0,1:2|1:0|1:0|1:0,0:1:0:0:
200,358,56791,54,0,P|190:296|179:234,1,112.5,2|2,1:1|1:2,0:0:0:0:
76,376,57143,2,0,P|66:314|55:252,1,112.5,2|0,1:1|1:0,0:0:0:0:
210,364,57496,1,2,1:1:0:0:
13,203,57673,22,2,P|32:179|68:170,1,67.5,6|0,1:2|0:0,0:1:0:0:
44,98,58026,53,2,1:2:0:0:
166,163,58202,1,2,0:3:0:0:
229,57,58379,1,8,1:2:0:0:
319,127,58555,5,2,3:2:0:0:
345,133,58643,1,2,3:2:0:0:
371,139,58732,1,2,1:2:0:0:
397,145,58819,1,2,3:2:0:0:
423,151,58908,1,2,3:2:0:0:
344,227,59085,1,8,1:2:0:0:
488,348,59261,5,2,0:1:0:0:
488,348,59438,53,0,1:2:0:0:
424,235,59614,1,2,0:3:0:0:
303,303,59791,1,10,1:2:0:0:
272,293,59879,1,2,3:2:0:0:
242,283,59967,1,2,3:2:0:0:
212,273,60055,1,2,3:2:0:0:
182,264,60143,6,0,L|189:304,4,37.5,2|2|2|2|2,1:2|0:0|0:0|1:2|0:0,0:0:0:0:
113,219,60496,2,0,L|107:182,4,37.5,2|2|2|2|2,1:1|1:2|1:2|1:2|1:2,0:0:0:0:
57,275,60849,1,2,1:2:0:0:
57,275,61908,69,6,3:2:0:0:
106,181,62173,1,0,3:0:0:0:
12,132,62349,1,0,3:0:0:0:
12,132,62438,1,6,3:2:0:0:
129,23,62702,5,0,3:0:0:0:
131,35,62791,1,2,3:2:0:0:
133,48,62879,1,0,3:0:0:0:
135,61,62967,1,10,0:2:0:0:
267,89,63232,1,0,3:0:0:0:
267,89,63320,1,10,0:2:0:0:
5,339,63673,6,2,B|25:362|25:362|265:323|265:323|284:346,1,303.750011587143,6|0,1:2|0:0,0:1:0:0:
292,349,64026,1,10,0:0:0:0:
185,298,64202,53,0,3:0:0:0:
185,298,64291,1,0,3:0:0:0:
185,298,64379,1,2,0:2:0:0:
372,269,64555,1,0,1:0:0:0:
256,83,64732,22,0,P|249:56|242:28,1,45,10|0,0:0|3:0,0:0:0:0:
267,89,64908,2,0,P|260:62|253:34,1,45,10|0,0:0|3:0,0:0:0:0:
272,163,65085,54,2,P|332:86|404:102,1,180,2|0,3:2|1:0,0:1:0:0:
402,101,65349,1,0,0:0:0:0:
402,101,65438,1,8,0:0:0:0:
272,258,65614,22,2,P|233:196|173:189,1,135.000005149842,2|2,1:2|3:0,0:1:0:0:
176,188,65879,1,2,3:0:0:0:
176,188,65967,1,0,1:0:0:0:
404,318,66143,54,2,P|419:258|431:223,1,90,10|2,0:0|3:0,0:1:0:0:
427,231,66408,1,2,3:0:0:0:
427,231,66496,22,2,B|345:206|345:206|316:85|316:85|218:58,1,303.750011587143,2|0,1:2|0:0,0:1:0:0:
224,53,66849,1,10,0:0:0:0:
102,125,67026,53,0,3:0:0:0:
102,125,67114,1,0,3:0:0:0:
102,125,67202,1,2,0:0:0:0:
29,19,67379,1,0,1:0:0:0:
23,228,67555,22,0,P|29:206|36:185,1,45,10|0,0:0|3:0,0:0:0:0:
27,238,67732,2,0,P|33:216|40:195,1,45,10|0,0:0|3:0,0:0:0:0:
111,253,67908,54,2,P|192:255|192:340,1,180,2|0,3:2|1:0,0:1:0:0:
194,337,68173,1,0,0:0:0:0:
194,337,68261,1,8,0:0:0:0:
311,383,68438,21,2,3:1:0:0:
307,376,68526,2,0,P|324:323|395:331,1,135.000005149842,2|2,1:2|3:0,0:0:0:0:
392,328,68791,1,0,1:0:0:0:
443,257,68967,54,2,P|457:196|470:152,1,90,10|2,0:0|3:0,0:1:0:0:
464,169,69232,1,2,3:0:0:0:
464,169,69320,22,2,B|447:136|447:136|227:81|227:81|190:103,1,303.750011587143,2|0,1:2|0:0,0:1:0:0:
194,108,69673,1,10,0:0:0:0:
293,228,69849,53,0,3:0:0:0:
293,228,69938,1,0,3:0:0:0:
293,228,70026,1,2,0:0:0:0:
145,285,70202,1,0,1:0:0:0:
43,98,70379,22,0,P|12:90|-4:86,1,45,10|0,0:0|3:0,0:0:0:0:
50,109,70555,2,0,P|19:101|3:97,1,45,10|0,0:0|3:0,0:0:0:0:
70,187,70732,54,2,P|149:122|111:70,1,180,2|0,3:2|3:0,0:1:0:0:
117,73,70996,1,0,0:0:0:0:
117,73,71085,1,8,0:0:0:0:
265,30,71261,22,2,P|293:104|345:99,1,135.000005149842,2|2,1:2|3:0,0:1:0:0:
338,102,71526,1,2,3:0:0:0:
338,102,71614,1,0,1:0:0:0:
231,307,71791,54,2,P|213:245|198:205,1,90,10|2,0:0|3:0,0:1:0:0:
204,221,72055,1,2,3:0:0:0:
204,221,72143,22,2,B|413:272|413:272|344:325,1,303.750011587143,2|0,1:2|0:0,0:1:0:0:
349,331,72496,1,10,0:0:0:0:
493,362,72673,53,0,3:0:0:0:
493,362,72761,1,0,3:0:0:0:
493,362,72849,1,2,0:0:0:0:
454,184,73026,1,0,1:0:0:0:
269,290,73202,22,0,P|233:297|220:302,1,45,10|0,0:0|3:0,0:0:0:0:
273,279,73379,2,0,P|237:286|224:291,1,45,10|0,0:0|3:0,0:0:0:0:
163,241,73555,54,2,P|77:236|51:336,1,202.500007724762,2|0,3:2|1:0,0:1:0:0:
49,333,73820,1,0,0:0:0:0:
49,333,73908,1,8,0:0:0:0:
230,192,74085,21,2,3:1:0:0:
232,181,74173,2,0,P|217:125|120:134,1,157.500001502037,2|0,1:2|0:0,0:0:0:0:
129,122,74438,1,0,1:0:0:0:
9,128,74614,54,0,P|23:67|39:13,1,112.5,10|2,0:0|0:2,0:0:0:0:
37,19,74879,1,0,0:0:0:0:
37,19,74967,6,2,B|75:45|75:45|242:15,1,202.500007724762,6|0,1:2|0:0,0:1:0:0:
236,23,75320,1,8,0:0:0:0:
306,124,75496,69,0,3:0:0:0:
306,124,75585,1,0,3:0:0:0:
306,124,75673,1,2,0:3:0:0:
414,72,75849,5,2,1:2:0:0:
427,226,76026,2,0,B|456:214|465:195|465:195|487:210|521:205,2,101.250003862381,10|2|2,0:0|0:0|0:0,0:0:0:0:
380,157,76379,69,10,0:2:0:0:
328,256,76555,2,0,P|294:232|252:236,2,67.5000025749208,2|2|10,0:0|0:0|0:0,0:0:0:0:
387,151,76908,5,2,3:2:0:0:
339,45,77085,1,2,0:2:0:0:
339,45,77174,1,2,0:2:0:0:
339,45,77262,1,2,1:2:0:0:
226,40,77438,70,0,P|134:56|82:67,1,135.000005149842,10|8,0:0|3:0,0:0:0:0:
93,64,77702,1,8,3:0:0:0:
93,64,77791,22,2,B|130:83|130:83|177:355,1,303.750011587143,6|0,1:2|0:0,0:1:0:0:
182,347,78143,1,10,0:0:0:0:
76,259,78320,53,0,3:0:0:0:
76,259,78408,1,0,3:0:0:0:
76,259,78496,1,2,0:0:0:0:
170,159,78673,1,0,1:0:0:0:
256,261,78849,38,0,B|283:267|303:255|303:255|312:275|342:290,2,101.250003862381,10|2|2,0:0|0:0|0:0,0:0:0:0:
240,190,79202,69,10,0:0:0:0:
273,73,79379,1,0,1:0:0:0:
273,73,79467,1,2,0:0:0:0:
273,73,79555,1,8,0:0:0:0:
384,129,79732,53,2,0:1:0:0:
392,117,79820,2,0,P|424:111|464:107,1,67.5000025749208,2|2,1:2|0:3,0:0:0:0:
487,220,79996,1,2,0:0:0:0:
477,212,80084,2,0,P|445:218|405:222,1,67.5000025749208,2|0,1:2|0:0,0:0:0:0:
319,189,80261,1,10,0:0:0:0:
386,354,80438,21,4,3:0:0:0:
386,354,80526,1,4,3:0:0:0:
386,354,80614,2,2,B|364:317|364:317|148:280|148:280|109:316,1,303.750011587143,2|0,1:2|0:0,0:1:0:0:
122,316,80967,1,10,0:0:0:0:
22,202,81143,53,0,3:0:0:0:
22,202,81232,1,0,3:0:0:0:
22,202,81320,1,2,0:0:0:0:
142,176,81496,1,2,1:2:0:0:
121,56,81673,38,0,B|92:47|80:27|80:27|63:42|30:36,2,101.250003862381,10|2|2,0:0|0:0|0:0,0:0:0:0:
195,106,82026,70,0,P|246:27|332:54,1,180,10|2,0:2|1:2,0:0:0:0:
319,41,82291,1,2,0:0:0:0:
319,41,82379,1,8,0:0:0:0:
269,216,82555,53,2,1:2:0:0:
269,216,82643,1,2,0:2:0:0:
269,216,82732,2,0,P|309:223|337:234,2,67.5000025749208,2|2|2,0:3|0:0|1:2,0:0:0:0:
168,283,83085,22,2,P|204:321|224:366,1,90,8|0,0:0|3:0,0:1:0:0:
220,354,83349,1,0,3:0:0:0:
220,354,83438,53,6,1:1:0:0:
348,332,83614,1,2,1:2:0:0:
476,310,83791,1,8,0:0:0:0:
269,216,83967,21,2,1:2:0:0:
269,216,84055,1,0,3:0:0:0:
269,216,84143,1,2,1:1:0:0:
294,83,84320,1,2,1:2:0:0:
156,24,84496,53,8,0:0:0:0:
156,24,84585,1,0,0:0:0:0:
156,24,84673,2,0,P|143:66|136:96,1,67.5000025749208,2|0,1:2|3:0,0:0:0:0:
7,108,84849,22,0,P|20:150|27:180,3,67.5000025749208,6|0|2|2,1:1|1:0|1:2|1:2,0:0:0:0:
116,203,85202,2,0,P|129:245|136:275,3,67.5000025749208,0|0|2|2,1:0|1:0|1:1|1:2,0:0:0:0:
243,299,85555,1,2,1:2:0:0:
243,299,85643,1,2,1:2:0:0:
243,299,85732,2,0,P|256:341|263:371,1,67.5000025749208,2|2,1:2|1:2,0:0:0:0:
344,159,85908,53,10,0:0:0:0:
396,143,85996,1,2,0:0:0:0:
445,172,86085,1,2,3:2:0:0:
450,233,86173,1,2,0:0:0:0:
412,277,86261,54,0,P|381:244|326:260,1,90,6|0,1:1|0:0,0:0:0:0:
251,304,86438,1,2,0:0:0:0:
325,83,86614,6,0,P|280:93|267:148,1,90,2|0,1:1|0:0,0:1:0:0:
251,304,86791,1,2,0:0:0:0:
56,193,86967,70,0,P|102:205|111:258,1,90,2|0,1:1|0:0,0:0:0:0:
62,304,87143,1,2,0:0:0:0:
62,304,87232,2,0,P|16:292|7:239,1,90,2|0,0:2|1:0,0:0:0:0:
0,52,87496,5,2,0:0:0:0:
0,52,87585,1,2,0:0:0:0:
0,52,87673,2,0,P|44:38|59:0,1,90,2|0,1:1|0:0,0:1:0:0:
138,51,87849,2,0,P|213:81|198:177,1,180,2|2,0:0|1:2,0:0:0:0:
487,286,88202,70,0,P|387:278|435:342,2,202.500007724762,2|0|0,0:1|1:0|0:0,0:0:0:0:
482,363,88643,1,2,0:0:0:0:
482,363,88732,1,2,1:2:0:0:
237,260,88908,5,2,0:0:0:0:
237,260,88996,1,2,0:0:0:0:
237,260,89085,2,0,P|190:264|170:314,1,90,2|0,1:1|0:0,0:0:0:0:
46,324,89261,1,2,0:0:0:0:
46,324,89349,2,0,P|93:328|113:378,1,90,2|0,0:2|1:0,0:0:0:0:
266,167,89614,69,2,0:1:0:0:
266,167,89702,2,0,P|219:163|199:113,1,90,2|0,0:2|1:0,0:0:0:0:
431,31,89967,5,2,0:1:0:0:
431,31,90055,2,0,P|478:35|498:85,1,90,2|2,0:0|1:2,0:0:0:0:
435,115,90232,1,0,0:0:0:0:
435,115,90320,1,2,0:2:0:0:
479,315,90496,70,0,P|512:281|496:242,1,90,2|0,1:1|0:0,0:1:0:0:
423,224,90673,2,0,P|390:258|406:297,1,90,2|0,0:0|0:0,0:0:0:0:
340,368,90849,6,0,P|316:323|267:322,1,90,2|0,1:1|0:0,0:0:0:0:
180,257,91026,2,2,P|170:356|93:353,1,180,2|2,0:2|1:2,0:1:0:0:
48,104,91379,69,2,0:2:0:0:
48,104,91467,1,2,0:2:0:0:
48,104,91555,2,0,P|16:146|29:180,1,90,2|2,1:2|0:2,0:0:0:0:
112,193,91732,2,0,P|144:151|131:117,1,90,2|2,0:2|0:2,0:0:0:0:
193,17,91908,6,0,P|227:69|264:65,1,90,2|0,1:1|0:0,0:0:0:0:
365,42,92085,1,2,0:0:0:0:
260,231,92261,70,0,P|322:227|337:193,1,90,2|0,1:1|0:0,0:1:0:0:
365,42,92438,1,2,0:0:0:0:
482,175,92614,6,0,P|436:187|427:240,1,90,2|0,1:1|0:0,0:0:0:0:
387,303,92790,1,2,0:0:0:0:
387,303,92879,2,0,P|433:315|442:368,1,90,2|0,0:2|1:0,0:0:0:0:
169,360,93143,69,2,0:0:0:0:
169,360,93232,1,2,0:0:0:0:
169,360,93320,2,0,P|158:317|184:282,1,90,2|0,1:1|0:0,0:1:0:0:
82,192,93496,2,0,P|90:275|12:309,1,180,2|2,0:0|1:2,0:0:0:0:
219,92,93849,6,0,P|313:125|283:51,2,202.500007724762,2|0|0,0:1|1:0|0:0,0:0:0:0:
244,18,94290,1,2,0:0:0:0:
244,18,94379,1,2,1:2:0:0:
512,107,94555,69,2,0:0:0:0:
512,107,94643,1,2,0:0:0:0:
512,107,94732,2,0,P|465:111|445:161,1,90,2|0,1:1|0:0,0:0:0:0:
390,206,94908,1,2,0:0:0:0:
390,206,94996,2,0,P|343:202|323:152,1,90,2|0,0:2|1:0,0:0:0:0:
16,183,95261,5,2,0:1:0:0:
16,183,95349,2,0,P|63:187|83:237,1,90,2|0,0:2|1:0,0:0:0:0:
339,369,95614,69,2,0:1:0:0:
339,369,95702,2,0,P|314:333|271:331,1,90,2|2,0:0|1:2,0:0:0:0:
194,368,95879,1,0,0:0:0:0:
194,368,95967,1,2,0:2:0:0:
218,83,96143,6,0,P|249:111|238:153,1,90,2|0,1:1|0:0,0:1:0:0:
161,173,96320,2,0,P|129:144|140:102,1,90,2|0,0:0|0:0,0:0:0:0:
238,0,96496,2,0,P|268:90|358:90,1,180,2|2,1:1|0:2,0:0:0:0:
475,344,96849,69,2,1:2:0:0:
475,344,96938,1,2,0:2:0:0:
475,344,97026,2,0,P|510:304|479:256,1,90,2|2,0:2|0:2,0:0:0:0:
333,193,97202,1,2,1:2:0:0:
333,193,97291,1,2,0:2:0:0:
333,193,97379,2,0,P|298:233|329:281,1,90,2|2,0:2|0:2,0:0:0:0:
395,286,97555,54,0,B|425:271|425:271|411:240|411:240|380:255|380:255|395:286,1,135.000005149842,6|0,1:1|0:0,0:0:0:0:
213,367,97908,38,0,P|186:318|145:317,1,90,6|0,1:1|0:0,0:1:0:0:
43,234,98085,1,2,0:0:0:0:
118,37,98261,70,0,P|72:49|63:102,1,90,2|0,1:1|0:0,0:0:0:0:
112,148,98437,1,2,0:0:0:0:
112,148,98526,2,0,P|158:136|167:83,1,90,2|0,0:2|1:0,0:0:0:0:
315,30,98791,5,2,0:0:0:0:
315,30,98880,1,2,0:0:0:0:
315,30,98968,2,0,P|359:44|374:82,1,90,2|0,1:1|0:0,0:1:0:0:
486,94,99144,2,0,P|399:98|382:183,1,180,2|2,0:0|1:2,0:0:0:0:
72,284,99496,70,0,P|163:250|136:325,2,202.500007724762,2|0|2,0:1|1:0|0:0,0:0:0:0:
96,360,99937,1,2,0:0:0:0:
96,360,100026,1,2,1:2:0:0:
25,89,100202,5,2,0:0:0:0:
25,89,100291,1,2,0:0:0:0:
25,89,100379,2,0,P|72:93|92:143,1,90,2|0,1:1|0:0,0:0:0:0:
175,114,100555,1,2,0:0:0:0:
175,114,100643,2,0,P|179:67|229:47,1,90,2|0,0:2|1:0,0:0:0:0:
385,218,100908,69,2,0:1:0:0:
385,218,100996,2,0,P|420:193|422:150,1,90,2|0,0:2|1:0,0:0:0:0:
182,294,101261,5,2,0:1:0:0:
182,294,101349,2,0,P|146:269|144:226,1,90,2|2,0:0|1:2,0:0:0:0:
213,187,101526,1,0,0:0:0:0:
213,187,101614,1,2,0:2:0:0:
449,371,101790,70,0,P|482:337|468:295,1,90,2|0,1:1|0:0,0:1:0:0:
385,218,101967,2,0,P|352:252|366:294,1,90,2|0,0:0|0:0,0:0:0:0:
250,330,102143,6,0,P|218:292|174:298,1,90,2|0,1:1|0:0,0:1:0:0:
0,351,102320,2,2,P|93:320|56:251,1,180,2|2,0:2|1:2,0:1:0:0:
29,27,102673,69,2,0:2:0:0:
29,27,102761,1,2,0:2:0:0:
29,27,102849,2,0,P|-3:69|10:103,1,90,2|2,1:2|0:2,0:0:0:0:
93,116,103026,2,0,P|125:74|112:40,1,90,2|2,0:2|0:2,0:0:0:0:
306,32,103202,6,0,P|274:74|287:108,1,90,6|0,1:1|0:0,0:1:0:0:
382,182,103379,1,2,1:2:0:0:
181,294,103555,70,0,P|234:268|278:262,1,90,10|0,0:2|0:0,0:1:0:0:
382,182,103732,1,2,1:2:0:0:
510,377,103908,6,0,P|464:365|455:312,1,90,2|0,1:1|0:0,0:0:0:0:
393,261,104084,1,2,0:0:0:0:
393,261,104173,2,0,P|439:249|448:196,1,90,2|8,0:2|0:0,0:0:0:0:
344,56,104438,69,2,0:0:0:0:
344,56,104526,1,2,0:0:0:0:
344,56,104614,2,0,P|298:68|289:121,1,90,2|0,1:1|0:0,0:1:0:0:
175,25,104791,2,0,P|183:108|105:142,1,180,2|10,0:0|0:0,0:0:0:0:
336,326,105143,6,0,P|242:359|272:285,2,202.500007724762,2|0|2,1:1|1:0|1:2,0:0:0:0:
311,252,105584,1,2,0:0:0:0:
311,252,105673,1,10,0:0:0:0:
59,357,105849,69,2,1:2:0:0:
59,357,105938,1,2,0:2:0:0:
59,357,106026,2,0,P|45:310|35:283,3,67.5000025749208,2|0|2|2,1:1|3:0|3:2|3:2,0:0:0:0:
145,330,106379,2,0,P|131:283|121:256,3,67.5000025749208,8|0|2|2,0:0|3:0|3:1|3:2,0:0:0:0:
224,222,106732,5,0,1:0:0:0:
224,222,106820,1,2,3:2:0:0:
224,222,106908,2,0,P|241:163|247:144,1,67.5000025749208,2|2,3:1|3:2,0:0:0:0:
311,252,107085,1,8,0:0:0:0:
311,252,107173,1,2,3:2:0:0:
311,252,107261,2,0,P|328:193|334:174,1,67.5000025749208,2|0,3:2|3:0,0:0:0:0:
103,115,107438,70,0,P|89:68|79:41,3,67.5000025749208,2|0|2|0,1:1|3:0|3:2|3:0,0:0:0:0:
178,91,107791,2,0,P|164:44|154:17,3,67.5000025749208,10|0|2|0,0:0|3:0|3:1|3:0,0:0:0:0:
299,29,108143,5,0,1:0:0:0:
322,73,108232,1,2,3:2:0:0:
373,94,108320,1,2,3:1:0:0:
420,71,108408,2,0,P|451:50|490:53,1,67.5000025749208,2|8,3:2|0:0,0:0:0:0:
485,167,108585,69,2,0:0:0:0:
440,161,108673,1,2,3:2:0:0:
412,195,108761,1,2,3:2:0:0:
422,239,108849,70,0,P|404:307|389:376,1,135.000005149842,6|0,1:2|0:2,1:2:0:0:
398,379,109114,2,0,P|408:329|418:287,1,90,6|0,1:2|0:0,0:0:0:0:
257,201,109379,37,8,0:0:0:0:
90,239,109555,38,0,P|108:307|123:376,1,135.000005149842,6|0,1:2|0:0,0:0:0:0:
114,379,109820,2,0,P|104:329|94:287,1,90,6|0,1:2|0:0,0:0:0:0:
257,201,110085,37,10,0:0:0:0:
373,94,110261,38,0,P|417:111|462:47,1,135.000005149842,6|0,1:2|0:0,0:0:0:0:
469,38,110526,2,0,P|470:78|437:115,1,90,6|0,1:2|0:0,0:0:0:0:
257,201,110791,37,8,3:2:0:0:
139,94,110967,38,0,P|95:111|50:47,1,135.000005149842,6|0,1:2|0:0,0:0:0:0:
43,38,111232,2,0,P|42:78|75:115,1,90,6|0,1:2|0:0,0:0:0:0:
257,201,111496,37,8,0:0:0:0:
229,235,111585,1,0,1:0:0:0:
243,275,111673,38,0,L|233:330,4,45.0000017166138,2|2|2|2|2,1:2|1:2|1:2|1:2|1:2,0:0:0:0:
371,208,112026,38,0,B|276:191|276:191|273:187|273:187|191:173|191:173|155:166|143:127|167:94|203:101|203:101|313:120|313:120|318:117|318:117|402:132|402:132|439:138|462:102|449:65|416:59|416:59|256:30,1,776.250029611589,6|0,0:0|0:0,0:0:0:0:
266,32,114143,6,0,P|371:137|446:132,1,225,2|0,0:2|0:0,1:0:0:0:
