osu file format v14

[General]
AudioFilename: audio.mp3
AudioLeadIn: 0
PreviewTime: 54595
Countdown: 0
SampleSet: Normal
StackLeniency: 0.7
Mode: 1
LetterboxInBreaks: 0
WidescreenStoryboard: 0

[Editor]
DistanceSpacing: 0.1
BeatDivisor: 4
GridSize: 32
TimelineZoom: 3.199999

[Metadata]
Title:Coquette
TitleUnicode:Coquette
Artist:Jun Kuroda
ArtistUnicode:Jun Kuroda
Creator:taiko_maniac1811
Version:Ura Oni
Source:太鼓の達人 ブルーver.
Tags:Taiko no Tatsujin Namco Original AC0 Blue Version Video Game Instrumental
BeatmapID:1846610
BeatmapSetID:883369

[Difficulty]
HPDrainRate:7
CircleSize:5
OverallDifficulty:6
ApproachRate:10
SliderMultiplier:1.4
SliderTickRate:1

[Events]
//Background and Video events
0,0,"bg.jpg",0,60
//Break Periods
//Storyboard Layer 0 (Background)
//Storyboard Layer 1 (Fail)
//Storyboard Layer 2 (Pass)
//Storyboard Layer 3 (Foreground)
//Storyboard Layer 4 (Overlay)
//Storyboard Sound Samples

[TimingPoints]
820,300,4,1,0,90,1,0
29620,-100,4,1,0,90,0,1
31720,300,4,1,0,90,1,1
33820,300,4,1,0,90,1,1
35920,300,4,1,0,90,1,1
37795,-102.040816326531,4,1,0,90,0,1
37870,-104.166666666667,4,1,0,90,0,1
37945,-106.382978723404,4,1,0,90,0,1
38020,-108.695652173913,4,1,0,90,0,1
38095,-111.111111111111,4,1,0,90,0,1
38170,-113.636363636364,4,1,0,90,0,1
38245,-116.279069767442,4,1,0,90,0,1
38320,300,3,1,0,90,1,0
38320,-119.047619047619,3,1,0,90,0,0
39070,-120.481927710843,3,1,0,90,0,0
39220,-121.951219512195,3,1,0,90,0,0
39970,-123.456790123457,3,1,0,90,0,0
40120,-125,3,1,0,90,0,0
40870,-126.582278481013,3,1,0,90,0,0
41020,-128.205128205128,3,1,0,90,0,0
41920,-131.578947368421,3,1,0,90,0,0
42670,-133.333333333333,3,1,0,90,0,0
42820,-135.135135135135,3,1,0,90,0,0
43720,-138.888888888889,3,1,0,90,0,0
44470,-140.845070422535,3,1,0,90,0,0
44620,-142.857142857143,3,1,0,90,0,0
45370,-144.927536231884,3,1,0,90,0,0
45520,-147.058823529412,3,1,0,90,0,0
46270,-149.253731343284,3,1,0,90,0,0
46420,-151.515151515152,3,1,0,90,0,0
47170,-153.846153846154,3,1,0,90,0,0
47320,-156.25,3,1,0,90,0,0
48070,-158.730158730159,3,1,0,90,0,0
48220,-161.290322580645,3,1,0,90,0,0
49120,-166.666666666667,3,1,0,90,0,0
49870,-169.491525423729,3,1,0,90,0,0
50020,-172.413793103448,3,1,0,90,0,0
50770,-175.438596491228,3,1,0,90,0,0
50920,-178.571428571429,3,1,0,90,0,0
51670,-181.818181818182,3,1,0,90,0,0
51820,-185.185185185185,3,1,0,90,0,0
52720,-188.679245283019,3,1,0,90,0,0
54520,300,4,1,0,90,1,0
54520,-188.679245283019,4,1,0,90,0,0
55720,-100,4,1,0,90,0,0
77320,-100,4,1,0,90,0,1
96520,-100,4,1,0,90,0,0

[HitObjects]
256,192,520,5,0,0:0:0:0:
256,192,595,5,0,0:0:0:0:
256,192,670,5,0,0:0:0:0:
256,192,720,5,0,0:0:0:0:
256,192,770,5,0,0:0:0:0:
256,192,820,5,0,0:0:0:0:
256,192,1120,5,8,0:0:0:0:
256,192,1420,5,0,0:0:0:0:
256,192,1570,5,8,0:0:0:0:
256,192,1870,5,0,0:0:0:0:
256,192,2095,5,8,0:0:0:0:
256,192,2170,5,0,0:0:0:0:
256,192,2320,5,8,0:0:0:0:
256,192,2470,5,8,0:0:0:0:
256,192,2620,5,0,0:0:0:0:
256,192,2695,5,0,0:0:0:0:
256,192,2770,5,0,0:0:0:0:
256,192,2920,5,8,0:0:0:0:
256,192,3070,5,0,0:0:0:0:
256,192,3370,5,0,0:0:0:0:
256,192,3445,5,0,0:0:0:0:
256,192,3520,5,8,0:0:0:0:
256,192,3670,5,0,0:0:0:0:
256,192,3745,5,0,0:0:0:0:
256,192,3820,5,8,0:0:0:0:
256,192,3970,5,0,0:0:0:0:
256,192,4045,5,0,0:0:0:0:
256,192,4120,5,8,0:0:0:0:
256,192,4270,5,0,0:0:0:0:
256,192,4345,5,0,0:0:0:0:
256,192,4420,5,8,0:0:0:0:
256,192,4495,5,0,0:0:0:0:
256,192,4570,5,8,0:0:0:0:
256,192,4645,5,0,0:0:0:0:
256,192,4720,5,8,0:0:0:0:
256,192,4795,5,0,0:0:0:0:
256,192,4870,5,0,0:0:0:0:
256,192,4945,5,8,0:0:0:0:
256,192,5020,5,0,0:0:0:0:
256,192,5070,5,0,0:0:0:0:
256,192,5120,5,8,0:0:0:0:
256,192,5170,5,0,0:0:0:0:
256,192,5245,5,0,0:0:0:0:
256,192,5320,5,8,0:0:0:0:
256,192,5370,5,0,0:0:0:0:
256,192,5420,5,0,0:0:0:0:
256,192,5470,5,8,0:0:0:0:
256,192,5620,5,4,0:0:0:0:
256,192,5845,5,4,0:0:0:0:
256,192,6070,5,12,0:0:0:0:
256,192,6295,5,4,0:0:0:0:
256,192,6595,5,4,0:0:0:0:
256,192,6745,5,4,0:0:0:0:
256,192,6895,5,12,0:0:0:0:
256,192,7045,5,0,0:0:0:0:
256,192,7120,5,0,0:0:0:0:
256,192,7270,5,12,0:0:0:0:
256,192,7495,5,0,0:0:0:0:
256,192,7570,5,8,0:0:0:0:
256,192,7720,5,0,0:0:0:0:
256,192,7870,5,12,0:0:0:0:
256,192,8020,5,0,0:0:0:0:
256,192,8095,5,0,0:0:0:0:
256,192,8170,5,0,0:0:0:0:
256,192,8245,5,8,0:0:0:0:
256,192,8320,5,8,0:0:0:0:
256,192,8395,5,8,0:0:0:0:
256,192,8470,5,0,0:0:0:0:
256,192,8545,5,0,0:0:0:0:
256,192,8620,5,8,0:0:0:0:
256,192,8695,5,8,0:0:0:0:
256,192,8770,5,0,0:0:0:0:
256,192,8845,5,8,0:0:0:0:
256,192,8920,5,0,0:0:0:0:
256,192,8995,5,8,0:0:0:0:
256,192,9070,5,0,0:0:0:0:
256,192,9145,5,8,0:0:0:0:
256,192,9220,5,0,0:0:0:0:
256,192,9370,5,8,0:0:0:0:
256,192,9420,5,8,0:0:0:0:
256,192,9470,5,0,0:0:0:0:
256,192,9520,5,8,0:0:0:0:
256,192,9595,5,0,0:0:0:0:
256,192,9670,5,8,0:0:0:0:
256,192,9720,5,8,0:0:0:0:
256,192,9770,5,0,0:0:0:0:
256,192,9820,5,8,0:0:0:0:
256,192,9895,5,0,0:0:0:0:
256,192,10045,5,8,0:0:0:0:
256,192,10120,5,0,0:0:0:0:
256,192,10195,5,8,0:0:0:0:
256,192,10345,5,8,0:0:0:0:
256,192,10420,5,0,0:0:0:0:
256,192,10720,5,8,0:0:0:0:
256,192,10870,5,0,0:0:0:0:
256,192,10945,5,0,0:0:0:0:
256,192,11020,5,0,0:0:0:0:
256,192,11170,5,0,0:0:0:0:
256,192,11320,5,8,0:0:0:0:
256,192,11470,5,0,0:0:0:0:
256,192,11545,5,0,0:0:0:0:
256,192,11620,5,8,0:0:0:0:
256,192,11770,5,0,0:0:0:0:
256,192,11845,1,0,0:0:0:0:
256,192,11920,5,8,0:0:0:0:
256,192,12070,5,8,0:0:0:0:
256,192,12220,5,0,0:0:0:0:
256,192,12370,5,8,0:0:0:0:
256,192,12445,5,8,0:0:0:0:
256,192,12520,5,0,0:0:0:0:
256,192,12595,5,0,0:0:0:0:
256,192,12670,5,8,0:0:0:0:
256,192,12820,5,0,0:0:0:0:
256,192,12970,5,8,0:0:0:0:
256,192,13120,5,0,0:0:0:0:
256,192,13270,5,8,0:0:0:0:
256,192,13345,5,0,0:0:0:0:
256,192,13420,5,8,0:0:0:0:
256,192,13570,5,8,0:0:0:0:
256,192,13720,5,0,0:0:0:0:
256,192,13870,5,8,0:0:0:0:
256,192,13945,5,8,0:0:0:0:
256,192,14020,5,0,0:0:0:0:
256,192,14170,5,8,0:0:0:0:
256,192,14245,5,8,0:0:0:0:
256,192,14320,5,0,0:0:0:0:
256,192,14470,5,8,0:0:0:0:
256,192,14545,5,8,0:0:0:0:
256,192,14620,5,0,0:0:0:0:
256,192,14770,5,8,0:0:0:0:
256,192,14920,5,0,0:0:0:0:
256,192,14995,5,8,0:0:0:0:
256,192,15070,5,0,0:0:0:0:
256,192,15145,5,8,0:0:0:0:
256,192,15220,5,0,0:0:0:0:
256,192,15520,5,8,0:0:0:0:
256,192,15670,5,0,0:0:0:0:
256,192,15745,5,0,0:0:0:0:
256,192,15820,5,0,0:0:0:0:
256,192,15970,5,0,0:0:0:0:
256,192,16120,5,8,0:0:0:0:
256,192,16270,5,0,0:0:0:0:
256,192,16345,5,0,0:0:0:0:
256,192,16420,5,8,0:0:0:0:
256,192,16570,5,0,0:0:0:0:
256,192,16645,1,0,0:0:0:0:
256,192,16720,5,8,0:0:0:0:
256,192,16870,5,8,0:0:0:0:
256,192,17020,5,0,0:0:0:0:
256,192,17170,5,8,0:0:0:0:
256,192,17245,5,8,0:0:0:0:
256,192,17320,5,0,0:0:0:0:
256,192,17395,5,0,0:0:0:0:
256,192,17470,5,8,0:0:0:0:
256,192,17620,5,0,0:0:0:0:
256,192,17770,5,8,0:0:0:0:
256,192,17920,5,8,0:0:0:0:
256,192,18070,5,8,0:0:0:0:
256,192,18220,5,0,0:0:0:0:
256,192,18295,5,8,0:0:0:0:
256,192,18370,5,0,0:0:0:0:
256,192,18520,5,8,0:0:0:0:
256,192,18670,5,0,0:0:0:0:
256,192,18745,5,8,0:0:0:0:
256,192,18820,5,8,0:0:0:0:
256,192,18970,5,0,0:0:0:0:
256,192,19045,5,0,0:0:0:0:
256,192,19120,5,8,0:0:0:0:
256,192,19270,5,0,0:0:0:0:
256,192,19345,5,8,0:0:0:0:
256,192,19420,5,8,0:0:0:0:
256,192,19495,5,8,0:0:0:0:
256,192,19570,5,0,0:0:0:0:
256,192,19720,5,8,0:0:0:0:
256,192,19795,5,0,0:0:0:0:
256,192,19870,5,8,0:0:0:0:
256,192,20020,5,4,0:0:0:0:
256,192,20170,5,8,0:0:0:0:
256,192,20320,5,8,0:0:0:0:
256,192,20470,5,0,0:0:0:0:
256,192,20620,5,8,0:0:0:0:
256,192,20695,5,8,0:0:0:0:
256,192,20770,5,0,0:0:0:0:
256,192,20920,5,0,0:0:0:0:
256,192,21070,5,8,0:0:0:0:
256,192,21370,5,8,0:0:0:0:
256,192,21445,5,8,0:0:0:0:
256,192,21520,5,0,0:0:0:0:
256,192,21670,5,0,0:0:0:0:
256,192,21820,5,8,0:0:0:0:
256,192,21970,5,0,0:0:0:0:
256,192,22045,5,0,0:0:0:0:
256,192,22120,5,8,0:0:0:0:
256,192,22270,5,0,0:0:0:0:
256,192,22420,5,8,0:0:0:0:
256,192,22570,5,8,0:0:0:0:
256,192,22720,5,0,0:0:0:0:
256,192,22870,5,8,0:0:0:0:
256,192,22945,5,0,0:0:0:0:
256,192,23020,5,8,0:0:0:0:
256,192,23170,5,8,0:0:0:0:
256,192,23320,5,0,0:0:0:0:
256,192,23470,5,8,0:0:0:0:
256,192,23545,5,8,0:0:0:0:
256,192,23620,5,0,0:0:0:0:
256,192,23770,5,8,0:0:0:0:
256,192,23845,5,8,0:0:0:0:
256,192,23920,5,0,0:0:0:0:
256,192,24070,5,8,0:0:0:0:
256,192,24145,5,8,0:0:0:0:
256,192,24220,5,0,0:0:0:0:
256,192,24295,5,0,0:0:0:0:
256,192,24370,5,8,0:0:0:0:
256,192,24520,5,0,0:0:0:0:
256,192,24595,5,8,0:0:0:0:
256,192,24670,5,0,0:0:0:0:
256,192,24745,5,8,0:0:0:0:
256,192,24820,5,0,0:0:0:0:
256,192,24970,5,8,0:0:0:0:
256,192,25120,5,8,0:0:0:0:
256,192,25270,5,0,0:0:0:0:
256,192,25420,5,8,0:0:0:0:
256,192,25495,5,0,0:0:0:0:
256,192,25570,5,8,0:0:0:0:
256,192,25720,5,0,0:0:0:0:
256,192,25870,5,8,0:0:0:0:
256,192,26170,5,0,0:0:0:0:
256,192,26245,5,0,0:0:0:0:
256,192,26320,5,8,0:0:0:0:
256,192,26470,5,0,0:0:0:0:
256,192,26620,5,8,0:0:0:0:
256,192,26770,5,8,0:0:0:0:
256,192,26920,5,0,0:0:0:0:
256,192,27070,5,0,0:0:0:0:
256,192,27370,5,8,0:0:0:0:
256,192,27520,5,8,0:0:0:0:
256,192,27670,5,8,0:0:0:0:
256,192,27820,5,0,0:0:0:0:
256,192,27895,5,8,0:0:0:0:
256,192,27970,5,0,0:0:0:0:
256,192,28120,5,8,0:0:0:0:
256,192,28270,5,0,0:0:0:0:
256,192,28345,5,8,0:0:0:0:
256,192,28420,5,8,0:0:0:0:
256,192,28570,5,0,0:0:0:0:
256,192,28645,5,0,0:0:0:0:
256,192,28720,5,8,0:0:0:0:
256,192,28870,5,0,0:0:0:0:
256,192,28945,5,8,0:0:0:0:
256,192,29020,5,8,0:0:0:0:
256,192,29095,5,8,0:0:0:0:
256,192,29170,5,0,0:0:0:0:
256,192,29245,5,0,0:0:0:0:
256,192,29320,5,8,0:0:0:0:
256,192,29395,5,0,0:0:0:0:
256,192,29470,5,8,0:0:0:0:
256,192,29620,5,4,0:0:0:0:
256,192,29770,5,4,0:0:0:0:
256,192,29920,5,0,0:0:0:0:
256,192,30070,5,8,0:0:0:0:
256,192,30145,5,0,0:0:0:0:
256,192,30295,5,0,0:0:0:0:
256,192,30370,5,8,0:0:0:0:
256,192,30520,5,0,0:0:0:0:
256,192,30595,5,0,0:0:0:0:
256,192,30670,5,8,0:0:0:0:
256,192,30745,5,8,0:0:0:0:
256,192,30820,5,0,0:0:0:0:
256,192,30970,5,8,0:0:0:0:
256,192,31120,5,4,0:0:0:0:
256,192,31270,5,8,0:0:0:0:
256,192,31420,5,4,0:0:0:0:
256,192,31570,5,8,0:0:0:0:
256,192,31720,5,4,0:0:0:0:
256,192,31870,5,4,0:0:0:0:
256,192,32020,5,0,0:0:0:0:
256,192,32170,5,8,0:0:0:0:
256,192,32245,5,0,0:0:0:0:
256,192,32395,5,0,0:0:0:0:
256,192,32470,5,8,0:0:0:0:
256,192,32620,5,0,0:0:0:0:
256,192,32695,5,8,0:0:0:0:
256,192,32770,5,8,0:0:0:0:
256,192,32845,5,8,0:0:0:0:
256,192,32920,5,0,0:0:0:0:
256,192,33070,5,8,0:0:0:0:
256,192,33145,5,0,0:0:0:0:
256,192,33220,5,8,0:0:0:0:
256,192,33295,5,8,0:0:0:0:
256,192,33370,5,0,0:0:0:0:
256,192,33445,5,8,0:0:0:0:
256,192,33520,5,8,0:0:0:0:
256,192,33595,5,8,0:0:0:0:
256,192,33670,5,0,0:0:0:0:
256,192,33820,5,4,0:0:0:0:
256,192,33970,5,4,0:0:0:0:
256,192,34120,5,0,0:0:0:0:
256,192,34270,5,8,0:0:0:0:
256,192,34345,5,0,0:0:0:0:
256,192,34495,5,0,0:0:0:0:
256,192,34570,5,8,0:0:0:0:
256,192,34720,5,0,0:0:0:0:
256,192,34795,5,0,0:0:0:0:
256,192,34870,5,8,0:0:0:0:
256,192,34945,5,8,0:0:0:0:
256,192,35020,5,0,0:0:0:0:
256,192,35170,5,8,0:0:0:0:
256,192,35320,5,4,0:0:0:0:
256,192,35470,5,8,0:0:0:0:
256,192,35620,5,4,0:0:0:0:
256,192,35770,5,8,0:0:0:0:
256,192,35920,5,0,0:0:0:0:
256,192,35970,5,8,0:0:0:0:
256,192,36020,5,8,0:0:0:0:
256,192,36070,5,8,0:0:0:0:
256,192,36145,5,0,0:0:0:0:
256,192,36220,5,8,0:0:0:0:
256,192,36295,5,8,0:0:0:0:
256,192,36370,5,8,0:0:0:0:
256,192,36445,5,0,0:0:0:0:
256,192,36520,5,8,0:0:0:0:
256,192,36570,5,8,0:0:0:0:
256,192,36620,5,8,0:0:0:0:
256,192,36670,5,0,0:0:0:0:
256,192,36745,5,0,0:0:0:0:
256,192,36820,5,8,0:0:0:0:
256,192,36895,5,0,0:0:0:0:
256,192,36970,5,8,0:0:0:0:
256,192,37045,5,0,0:0:0:0:
256,192,37120,5,8,0:0:0:0:
256,192,37170,5,0,0:0:0:0:
256,192,37220,5,8,0:0:0:0:
256,192,37270,5,0,0:0:0:0:
256,192,37320,5,8,0:0:0:0:
256,192,37370,5,0,0:0:0:0:
256,192,37420,5,8,0:0:0:0:
256,192,37470,5,0,0:0:0:0:
256,192,37520,5,8,0:0:0:0:
256,192,37570,5,0,0:0:0:0:
256,192,37620,5,8,0:0:0:0:
256,192,37670,5,0,0:0:0:0:
256,192,37720,5,8,0:0:0:0:
256,192,37795,5,0,0:0:0:0:
256,192,37870,5,0,0:0:0:0:
256,192,37945,5,0,0:0:0:0:
256,192,38020,5,0,0:0:0:0:
256,192,38095,5,0,0:0:0:0:
256,192,38170,5,0,0:0:0:0:
256,192,38245,5,0,0:0:0:0:
256,192,38320,5,8,0:0:0:0:
256,192,38395,5,8,0:0:0:0:
256,192,38770,5,0,0:0:0:0:
256,192,38920,5,8,0:0:0:0:
256,192,39070,5,8,0:0:0:0:
256,192,39220,5,0,0:0:0:0:
256,192,39520,5,8,0:0:0:0:
256,192,39670,5,8,0:0:0:0:
256,192,39970,5,0,0:0:0:0:
256,192,40120,5,8,0:0:0:0:
256,192,40420,5,8,0:0:0:0:
256,192,40570,5,8,0:0:0:0:
256,192,40870,5,0,0:0:0:0:
256,192,41020,5,8,0:0:0:0:
256,192,41620,5,8,0:0:0:0:
256,192,41920,5,8,0:0:0:0:
256,192,42220,5,8,0:0:0:0:
256,192,42370,5,8,0:0:0:0:
256,192,42670,5,0,0:0:0:0:
256,192,42820,5,8,0:0:0:0:
256,192,43120,5,8,0:0:0:0:
256,192,43420,5,8,0:0:0:0:
256,192,43720,5,8,0:0:0:0:
256,192,44020,5,0,0:0:0:0:
256,192,44170,5,8,0:0:0:0:
256,192,44470,5,8,0:0:0:0:
256,192,44620,5,8,0:0:0:0:
256,192,45220,5,8,0:0:0:0:
256,192,45370,5,8,0:0:0:0:
256,192,45520,5,8,0:0:0:0:
256,192,45595,5,8,0:0:0:0:
256,192,45970,5,8,0:0:0:0:
256,192,46120,5,8,0:0:0:0:
256,192,46270,5,8,0:0:0:0:
256,192,46420,5,0,0:0:0:0:
256,192,46720,5,8,0:0:0:0:
256,192,46870,5,8,0:0:0:0:
256,192,47170,5,0,0:0:0:0:
256,192,47320,5,8,0:0:0:0:
256,192,47470,5,0,0:0:0:0:
256,192,47620,5,8,0:0:0:0:
256,192,47770,5,8,0:0:0:0:
256,192,47920,5,0,0:0:0:0:
256,192,48070,5,8,0:0:0:0:
256,192,48220,5,8,0:0:0:0:
256,192,48520,5,8,0:0:0:0:
256,192,48670,5,0,0:0:0:0:
256,192,48820,5,8,0:0:0:0:
256,192,49120,5,8,0:0:0:0:
256,192,49270,5,0,0:0:0:0:
256,192,49420,5,0,0:0:0:0:
256,192,49570,5,8,0:0:0:0:
256,192,49720,5,0,0:0:0:0:
256,192,49870,5,0,0:0:0:0:
256,192,50020,5,8,0:0:0:0:
256,192,50170,5,0,0:0:0:0:
256,192,50320,5,8,0:0:0:0:
256,192,50470,5,0,0:0:0:0:
256,192,50620,5,8,0:0:0:0:
256,192,50770,5,0,0:0:0:0:
256,192,50920,5,8,0:0:0:0:
256,192,51070,5,0,0:0:0:0:
256,192,51220,5,0,0:0:0:0:
256,192,51370,5,8,0:0:0:0:
256,192,51520,5,0,0:0:0:0:
256,192,51670,5,0,0:0:0:0:
256,192,51820,5,8,0:0:0:0:
256,192,52120,5,0,0:0:0:0:
256,192,52270,5,8,0:0:0:0:
256,192,52420,5,0,0:0:0:0:
256,192,52720,5,0,0:0:0:0:
256,192,52795,5,0,0:0:0:0:
256,192,52870,5,0,0:0:0:0:
256,192,52945,5,0,0:0:0:0:
256,192,53020,5,0,0:0:0:0:
256,192,53170,5,0,0:0:0:0:
256,192,53245,5,0,0:0:0:0:
256,192,53320,5,0,0:0:0:0:
256,192,53370,5,0,0:0:0:0:
256,192,53420,5,0,0:0:0:0:
256,192,53470,5,0,0:0:0:0:
256,192,53520,5,0,0:0:0:0:
256,192,53570,5,0,0:0:0:0:
256,192,53620,5,0,0:0:0:0:
256,192,53695,5,0,0:0:0:0:
256,192,53770,5,0,0:0:0:0:
256,192,53845,5,0,0:0:0:0:
256,192,53920,5,0,0:0:0:0:
256,192,54070,5,0,0:0:0:0:
256,192,54145,5,0,0:0:0:0:
256,192,54220,5,0,0:0:0:0:
256,192,54270,5,0,0:0:0:0:
256,192,54320,5,0,0:0:0:0:
256,192,54370,5,0,0:0:0:0:
256,192,54420,5,0,0:0:0:0:
256,192,54470,5,0,0:0:0:0:
256,192,55720,5,4,0:0:0:0:
256,192,56020,5,8,0:0:0:0:
256,192,56170,5,0,0:0:0:0:
256,192,56245,5,8,0:0:0:0:
256,192,56320,5,8,0:0:0:0:
256,192,56395,5,8,0:0:0:0:
256,192,56470,5,0,0:0:0:0:
256,192,56545,5,0,0:0:0:0:
256,192,56620,5,0,0:0:0:0:
256,192,56695,5,0,0:0:0:0:
256,192,56770,5,8,0:0:0:0:
256,192,56845,5,8,0:0:0:0:
256,192,56920,5,0,0:0:0:0:
256,192,56995,5,0,0:0:0:0:
256,192,57070,5,8,0:0:0:0:
256,192,57145,5,8,0:0:0:0:
256,192,57220,5,0,0:0:0:0:
256,192,57295,5,0,0:0:0:0:
256,192,57370,5,8,0:0:0:0:
256,192,57445,5,8,0:0:0:0:
256,192,57520,5,0,0:0:0:0:
256,192,57595,5,8,0:0:0:0:
256,192,57670,5,0,0:0:0:0:
256,192,57745,5,8,0:0:0:0:
256,192,57820,5,8,0:0:0:0:
256,192,57895,5,0,0:0:0:0:
256,192,57970,5,8,0:0:0:0:
256,192,58045,5,0,0:0:0:0:
256,192,58120,5,0,0:0:0:0:
256,192,58195,5,8,0:0:0:0:
256,192,58270,5,8,0:0:0:0:
256,192,58345,5,8,0:0:0:0:
256,192,58420,5,0,0:0:0:0:
256,192,58495,5,8,0:0:0:0:
256,192,58570,5,8,0:0:0:0:
256,192,58645,5,8,0:0:0:0:
256,192,58720,5,0,0:0:0:0:
256,192,58795,5,8,0:0:0:0:
256,192,58870,5,0,0:0:0:0:
256,192,58945,5,8,0:0:0:0:
256,192,59020,5,8,0:0:0:0:
256,192,59095,5,0,0:0:0:0:
256,192,59170,5,8,0:0:0:0:
256,192,59245,5,0,0:0:0:0:
256,192,59320,5,0,0:0:0:0:
256,192,59395,5,8,0:0:0:0:
256,192,59470,5,8,0:0:0:0:
256,192,59545,5,8,0:0:0:0:
256,192,59620,5,8,0:0:0:0:
256,192,59695,5,8,0:0:0:0:
256,192,59770,5,0,0:0:0:0:
256,192,59845,5,8,0:0:0:0:
256,192,59920,5,0,0:0:0:0:
256,192,59995,5,8,0:0:0:0:
256,192,60145,5,8,0:0:0:0:
256,192,60220,5,0,0:0:0:0:
256,192,60370,5,8,0:0:0:0:
256,192,60520,5,4,0:0:0:0:
256,192,60820,5,8,0:0:0:0:
256,192,60970,5,0,0:0:0:0:
256,192,61045,5,8,0:0:0:0:
256,192,61120,5,8,0:0:0:0:
256,192,61195,5,8,0:0:0:0:
256,192,61270,5,0,0:0:0:0:
256,192,61345,5,0,0:0:0:0:
256,192,61420,5,0,0:0:0:0:
256,192,61495,5,0,0:0:0:0:
256,192,61570,5,8,0:0:0:0:
256,192,61645,5,8,0:0:0:0:
256,192,61720,5,0,0:0:0:0:
256,192,61795,5,0,0:0:0:0:
256,192,61870,5,8,0:0:0:0:
256,192,61945,5,8,0:0:0:0:
256,192,62020,5,0,0:0:0:0:
256,192,62095,5,0,0:0:0:0:
256,192,62170,5,8,0:0:0:0:
256,192,62245,5,8,0:0:0:0:
256,192,62320,5,0,0:0:0:0:
256,192,62395,5,8,0:0:0:0:
256,192,62470,5,0,0:0:0:0:
256,192,62545,5,8,0:0:0:0:
256,192,62620,5,8,0:0:0:0:
256,192,62695,5,0,0:0:0:0:
256,192,62770,5,8,0:0:0:0:
256,192,62845,5,0,0:0:0:0:
256,192,62920,5,0,0:0:0:0:
256,192,62995,5,8,0:0:0:0:
256,192,63070,5,8,0:0:0:0:
256,192,63145,5,8,0:0:0:0:
256,192,63220,5,0,0:0:0:0:
256,192,63295,5,8,0:0:0:0:
256,192,63370,5,8,0:0:0:0:
256,192,63445,5,8,0:0:0:0:
256,192,63520,5,0,0:0:0:0:
256,192,63595,5,8,0:0:0:0:
256,192,63670,5,0,0:0:0:0:
256,192,63745,5,8,0:0:0:0:
256,192,63820,5,8,0:0:0:0:
256,192,63895,5,0,0:0:0:0:
256,192,63970,5,8,0:0:0:0:
256,192,64045,5,0,0:0:0:0:
256,192,64120,5,0,0:0:0:0:
256,192,64195,5,8,0:0:0:0:
256,192,64270,5,8,0:0:0:0:
256,192,64345,5,8,0:0:0:0:
256,192,64420,5,8,0:0:0:0:
256,192,64495,5,8,0:0:0:0:
256,192,64570,5,0,0:0:0:0:
256,192,64645,5,8,0:0:0:0:
256,192,64720,5,0,0:0:0:0:
256,192,64795,5,8,0:0:0:0:
256,192,64945,5,8,0:0:0:0:
256,192,65020,5,0,0:0:0:0:
256,192,65170,5,8,0:0:0:0:
256,192,65320,5,0,0:0:0:0:
256,192,65395,5,0,0:0:0:0:
256,192,65470,5,0,0:0:0:0:
256,192,65545,5,0,0:0:0:0:
256,192,65620,5,8,0:0:0:0:
256,192,65770,5,0,0:0:0:0:
256,192,65845,5,0,0:0:0:0:
256,192,65920,5,0,0:0:0:0:
256,192,65995,5,8,0:0:0:0:
256,192,66070,5,0,0:0:0:0:
256,192,66220,5,8,0:0:0:0:
256,192,66295,5,8,0:0:0:0:
256,192,66370,5,8,0:0:0:0:
256,192,66445,5,8,0:0:0:0:
256,192,66520,5,0,0:0:0:0:
256,192,66670,5,0,0:0:0:0:
256,192,66820,5,8,0:0:0:0:
256,192,66970,5,0,0:0:0:0:
256,192,67045,5,0,0:0:0:0:
256,192,67120,5,8,0:0:0:0:
256,192,67195,5,0,0:0:0:0:
256,192,67345,5,0,0:0:0:0:
256,192,67420,5,8,0:0:0:0:
256,192,67570,5,8,0:0:0:0:
256,192,67720,5,8,0:0:0:0:
256,192,67795,5,8,0:0:0:0:
256,192,67870,5,8,0:0:0:0:
256,192,67945,5,8,0:0:0:0:
256,192,68020,5,0,0:0:0:0:
256,192,68170,5,8,0:0:0:0:
256,192,68245,5,8,0:0:0:0:
256,192,68320,5,8,0:0:0:0:
256,192,68395,5,0,0:0:0:0:
256,192,68470,5,8,0:0:0:0:
256,192,68620,5,0,0:0:0:0:
256,192,68695,5,0,0:0:0:0:
256,192,68770,5,0,0:0:0:0:
256,192,68845,5,0,0:0:0:0:
256,192,68920,5,8,0:0:0:0:
256,192,68995,5,8,0:0:0:0:
256,192,69070,5,0,0:0:0:0:
256,192,69220,5,8,0:0:0:0:
256,192,69370,5,0,0:0:0:0:
256,192,69445,5,0,0:0:0:0:
256,192,69520,5,8,0:0:0:0:
256,192,69595,5,0,0:0:0:0:
256,192,69670,5,0,0:0:0:0:
256,192,69820,5,8,0:0:0:0:
256,192,69895,5,0,0:0:0:0:
256,192,69970,5,8,0:0:0:0:
256,192,70120,5,0,0:0:0:0:
256,192,70195,5,0,0:0:0:0:
256,192,70270,5,0,0:0:0:0:
256,192,70345,5,0,0:0:0:0:
256,192,70420,5,8,0:0:0:0:
256,192,70570,5,8,0:0:0:0:
256,192,70645,5,8,0:0:0:0:
256,192,70720,5,8,0:0:0:0:
256,192,70795,5,8,0:0:0:0:
256,192,70870,5,0,0:0:0:0:
256,192,71020,5,8,0:0:0:0:
256,192,71095,5,8,0:0:0:0:
256,192,71170,5,8,0:0:0:0:
256,192,71245,5,8,0:0:0:0:
256,192,71320,5,8,0:0:0:0:
256,192,71470,5,0,0:0:0:0:
256,192,71620,5,8,0:0:0:0:
256,192,71770,5,0,0:0:0:0:
256,192,71845,5,0,0:0:0:0:
256,192,71920,5,8,0:0:0:0:
256,192,71995,5,0,0:0:0:0:
256,192,72145,5,0,0:0:0:0:
256,192,72220,5,8,0:0:0:0:
256,192,72370,5,8,0:0:0:0:
256,192,72520,5,0,0:0:0:0:
256,192,72595,5,0,0:0:0:0:
256,192,72670,5,0,0:0:0:0:
256,192,72745,5,0,0:0:0:0:
256,192,72820,5,8,0:0:0:0:
256,192,72970,5,0,0:0:0:0:
256,192,73045,5,0,0:0:0:0:
256,192,73120,5,0,0:0:0:0:
256,192,73195,5,8,0:0:0:0:
256,192,73270,5,8,0:0:0:0:
256,192,73420,5,0,0:0:0:0:
256,192,73495,5,0,0:0:0:0:
256,192,73570,5,8,0:0:0:0:
256,192,73645,5,8,0:0:0:0:
256,192,73720,5,8,0:0:0:0:
256,192,73870,5,0,0:0:0:0:
256,192,74020,5,8,0:0:0:0:
256,192,74170,5,0,0:0:0:0:
256,192,74245,5,0,0:0:0:0:
256,192,74320,5,8,0:0:0:0:
256,192,74470,5,0,0:0:0:0:
256,192,74620,5,8,0:0:0:0:
256,192,74695,5,0,0:0:0:0:
256,192,74770,5,8,0:0:0:0:
256,192,74920,5,4,0:0:0:0:
256,192,75220,5,12,0:0:0:0:
256,192,75520,5,12,0:0:0:0:
256,192,75820,5,4,0:0:0:0:
256,192,75970,5,12,0:0:0:0:
256,192,76120,5,0,0:0:0:0:
256,192,76270,5,0,0:0:0:0:
256,192,76420,5,8,0:0:0:0:
256,192,76570,5,8,0:0:0:0:
256,192,76720,5,0,0:0:0:0:
256,192,76770,5,0,0:0:0:0:
256,192,76870,5,8,0:0:0:0:
256,192,76920,5,8,0:0:0:0:
256,192,77020,5,0,0:0:0:0:
256,192,77070,5,0,0:0:0:0:
256,192,77170,5,8,0:0:0:0:
256,192,77220,5,8,0:0:0:0:
256,192,77320,5,4,0:0:0:0:
256,192,77620,5,0,0:0:0:0:
256,192,77695,5,0,0:0:0:0:
256,192,77770,5,8,0:0:0:0:
256,192,77845,5,8,0:0:0:0:
256,192,77920,5,0,0:0:0:0:
256,192,78070,5,8,0:0:0:0:
256,192,78145,5,0,0:0:0:0:
256,192,78295,5,0,0:0:0:0:
256,192,78370,5,8,0:0:0:0:
256,192,78520,5,0,0:0:0:0:
256,192,78595,5,0,0:0:0:0:
256,192,78670,5,8,0:0:0:0:
256,192,78745,5,0,0:0:0:0:
256,192,78820,5,0,0:0:0:0:
256,192,78895,5,8,0:0:0:0:
256,192,78970,5,0,0:0:0:0:
256,192,79045,5,0,0:0:0:0:
256,192,79120,5,8,0:0:0:0:
256,192,79270,5,0,0:0:0:0:
256,192,79420,5,8,0:0:0:0:
256,192,79495,5,8,0:0:0:0:
256,192,79570,5,8,0:0:0:0:
256,192,79645,5,8,0:0:0:0:
256,192,79720,5,0,0:0:0:0:
256,192,79870,5,8,0:0:0:0:
256,192,80020,5,0,0:0:0:0:
256,192,80095,5,8,0:0:0:0:
256,192,80170,5,8,0:0:0:0:
256,192,80245,5,8,0:0:0:0:
256,192,80320,5,0,0:0:0:0:
256,192,80470,5,0,0:0:0:0:
256,192,80545,5,8,0:0:0:0:
256,192,80695,5,8,0:0:0:0:
256,192,80770,5,0,0:0:0:0:
256,192,80845,5,0,0:0:0:0:
256,192,80920,5,8,0:0:0:0:
256,192,81070,5,0,0:0:0:0:
256,192,81145,5,8,0:0:0:0:
256,192,81220,5,8,0:0:0:0:
256,192,81295,5,0,0:0:0:0:
256,192,81370,5,8,0:0:0:0:
256,192,81445,5,8,0:0:0:0:
256,192,81520,5,0,0:0:0:0:
256,192,81670,5,8,0:0:0:0:
256,192,81745,5,0,0:0:0:0:
256,192,81820,5,0,0:0:0:0:
256,192,81895,5,8,0:0:0:0:
256,192,81970,5,0,0:0:0:0:
256,192,82045,5,0,0:0:0:0:
256,192,82120,5,8,0:0:0:0:
256,192,82195,5,8,0:0:0:0:
256,192,82270,5,8,0:0:0:0:
256,192,82345,5,0,0:0:0:0:
256,192,82420,5,8,0:0:0:0:
256,192,82495,5,8,0:0:0:0:
256,192,82570,5,8,0:0:0:0:
256,192,82645,5,0,0:0:0:0:
256,192,82720,5,0,0:0:0:0:
256,192,82795,5,8,0:0:0:0:
256,192,82870,5,0,0:0:0:0:
256,192,82945,5,0,0:0:0:0:
256,192,83020,5,8,0:0:0:0:
256,192,83095,5,0,0:0:0:0:
256,192,83170,5,0,0:0:0:0:
256,192,83245,5,8,0:0:0:0:
256,192,83320,5,8,0:0:0:0:
256,192,83395,5,0,0:0:0:0:
256,192,83470,5,0,0:0:0:0:
256,192,83545,5,8,0:0:0:0:
256,192,83620,5,8,0:0:0:0:
256,192,83695,5,0,0:0:0:0:
256,192,83770,5,0,0:0:0:0:
256,192,83845,5,8,0:0:0:0:
256,192,83920,5,8,0:0:0:0:
256,192,83995,5,8,0:0:0:0:
256,192,84070,5,0,0:0:0:0:
256,192,84145,5,8,0:0:0:0:
256,192,84220,5,8,0:0:0:0:
256,192,84295,5,8,0:0:0:0:
256,192,84370,5,0,0:0:0:0:
256,192,84445,5,0,0:0:0:0:
256,192,84520,5,8,0:0:0:0:
256,192,84595,5,8,0:0:0:0:
256,192,84670,5,0,0:0:0:0:
256,192,84745,5,0,0:0:0:0:
256,192,84820,5,8,0:0:0:0:
256,192,84895,5,0,0:0:0:0:
256,192,84970,5,8,0:0:0:0:
256,192,85045,5,0,0:0:0:0:
256,192,85120,5,8,0:0:0:0:
256,192,85195,5,0,0:0:0:0:
256,192,85270,5,0,0:0:0:0:
256,192,85345,5,8,0:0:0:0:
256,192,85420,5,0,0:0:0:0:
256,192,85495,5,0,0:0:0:0:
256,192,85570,5,8,0:0:0:0:
256,192,85645,5,8,0:0:0:0:
256,192,85720,5,8,0:0:0:0:
256,192,85795,5,0,0:0:0:0:
256,192,85945,5,0,0:0:0:0:
256,192,86020,5,0,0:0:0:0:
256,192,86170,5,8,0:0:0:0:
256,192,86245,5,0,0:0:0:0:
256,192,86395,5,0,0:0:0:0:
256,192,86470,5,0,0:0:0:0:
256,192,86620,5,12,0:0:0:0:
256,192,86770,5,4,0:0:0:0:
256,192,86920,5,4,0:0:0:0:
256,192,87220,5,0,0:0:0:0:
256,192,87370,5,8,0:0:0:0:
256,192,87445,5,8,0:0:0:0:
256,192,87520,5,0,0:0:0:0:
256,192,87670,5,8,0:0:0:0:
256,192,87745,5,0,0:0:0:0:
256,192,87895,5,0,0:0:0:0:
256,192,87970,5,8,0:0:0:0:
256,192,88120,5,8,0:0:0:0:
256,192,88195,5,0,0:0:0:0:
256,192,88270,5,0,0:0:0:0:
256,192,88345,5,8,0:0:0:0:
256,192,88420,5,0,0:0:0:0:
256,192,88495,5,0,0:0:0:0:
256,192,88570,5,8,0:0:0:0:
256,192,88720,5,8,0:0:0:0:
256,192,88795,5,0,0:0:0:0:
256,192,88945,5,8,0:0:0:0:
256,192,89020,5,8,0:0:0:0:
256,192,89170,5,8,0:0:0:0:
256,192,89320,5,0,0:0:0:0:
256,192,89395,5,0,0:0:0:0:
256,192,89470,5,0,0:0:0:0:
256,192,89545,5,0,0:0:0:0:
256,192,89620,5,8,0:0:0:0:
256,192,89695,5,0,0:0:0:0:
256,192,89770,5,8,0:0:0:0:
256,192,89845,5,8,0:0:0:0:
256,192,89920,5,0,0:0:0:0:
256,192,89995,5,0,0:0:0:0:
256,192,90070,5,0,0:0:0:0:
256,192,90145,5,8,0:0:0:0:
256,192,90220,5,0,0:0:0:0:
256,192,90295,5,8,0:0:0:0:
256,192,90370,5,8,0:0:0:0:
256,192,90445,5,8,0:0:0:0:
256,192,90595,5,0,0:0:0:0:
256,192,90670,5,8,0:0:0:0:
256,192,90745,5,0,0:0:0:0:
256,192,90820,5,8,0:0:0:0:
256,192,90895,5,8,0:0:0:0:
256,192,90970,5,0,0:0:0:0:
256,192,91045,5,0,0:0:0:0:
256,192,91120,5,8,0:0:0:0:
256,192,91195,5,0,0:0:0:0:
256,192,91270,5,8,0:0:0:0:
256,192,91345,5,8,0:0:0:0:
256,192,91420,5,0,0:0:0:0:
256,192,91495,5,8,0:0:0:0:
256,192,91570,5,8,0:0:0:0:
256,192,91645,5,8,0:0:0:0:
256,192,91720,5,0,0:0:0:0:
256,192,91870,5,8,0:0:0:0:
256,192,91945,5,8,0:0:0:0:
256,192,92020,5,0,0:0:0:0:
256,192,92170,5,8,0:0:0:0:
256,192,92245,5,0,0:0:0:0:
256,192,92320,5,8,0:0:0:0:
256,192,92395,5,8,0:0:0:0:
256,192,92470,5,0,0:0:0:0:
256,192,92620,5,8,0:0:0:0:
256,192,92770,5,8,0:0:0:0:
256,192,92845,5,8,0:0:0:0:
256,192,92920,5,0,0:0:0:0:
256,192,93070,5,8,0:0:0:0:
256,192,93145,5,0,0:0:0:0:
256,192,93220,5,8,0:0:0:0:
256,192,93370,5,8,0:0:0:0:
256,192,93445,5,8,0:0:0:0:
256,192,93520,5,0,0:0:0:0:
256,192,93670,5,8,0:0:0:0:
256,192,93745,5,0,0:0:0:0:
256,192,93820,5,8,0:0:0:0:
256,192,93895,5,0,0:0:0:0:
256,192,93970,5,8,0:0:0:0:
256,192,94045,5,8,0:0:0:0:
256,192,94120,5,0,0:0:0:0:
256,192,94195,5,0,0:0:0:0:
256,192,94270,5,0,0:0:0:0:
256,192,94345,5,0,0:0:0:0:
256,192,94420,5,8,0:0:0:0:
256,192,94495,5,0,0:0:0:0:
256,192,94570,5,0,0:0:0:0:
256,192,94645,5,0,0:0:0:0:
256,192,94720,5,0,0:0:0:0:
256,192,94795,5,0,0:0:0:0:
256,192,94870,5,0,0:0:0:0:
256,192,94945,5,0,0:0:0:0:
256,192,95020,5,8,0:0:0:0:
256,192,95095,5,0,0:0:0:0:
256,192,95170,5,0,0:0:0:0:
256,192,95245,5,0,0:0:0:0:
256,192,95320,5,8,0:0:0:0:
256,192,95370,5,8,0:0:0:0:
256,192,95420,5,8,0:0:0:0:
256,192,95470,5,0,0:0:0:0:
256,192,95545,5,0,0:0:0:0:
256,192,95620,5,8,0:0:0:0:
256,192,95695,5,0,0:0:0:0:
256,192,95770,5,0,0:0:0:0:
256,192,95845,5,0,0:0:0:0:
256,192,95920,5,8,0:0:0:0:
256,192,95970,5,8,0:0:0:0:
256,192,96020,5,8,0:0:0:0:
256,192,96070,5,0,0:0:0:0:
256,192,96145,5,0,0:0:0:0:
256,192,96220,5,8,0:0:0:0:
256,192,96370,5,0,0:0:0:0:
256,192,96520,5,4,0:0:0:0:
256,192,96820,5,8,0:0:0:0:
256,192,96970,5,0,0:0:0:0:
256,192,97045,5,8,0:0:0:0:
256,192,97120,5,0,0:0:0:0:
256,192,97270,5,0,0:0:0:0:
256,192,97420,5,8,0:0:0:0:
256,192,97570,5,0,0:0:0:0:
256,192,97645,5,0,0:0:0:0:
256,192,97720,5,8,0:0:0:0:
256,192,97870,5,0,0:0:0:0:
256,192,97945,1,0,0:0:0:0:
256,192,98020,5,8,0:0:0:0:
256,192,98170,5,8,0:0:0:0:
256,192,98320,5,0,0:0:0:0:
256,192,98470,5,8,0:0:0:0:
256,192,98545,5,8,0:0:0:0:
256,192,98620,5,0,0:0:0:0:
256,192,98695,5,0,0:0:0:0:
256,192,98770,5,8,0:0:0:0:
256,192,98920,5,0,0:0:0:0:
256,192,99070,5,8,0:0:0:0:
256,192,99220,5,0,0:0:0:0:
256,192,99370,5,8,0:0:0:0:
256,192,99445,5,0,0:0:0:0:
256,192,99520,5,8,0:0:0:0:
256,192,99670,5,8,0:0:0:0:
256,192,99820,5,0,0:0:0:0:
256,192,99970,5,8,0:0:0:0:
256,192,100045,5,8,0:0:0:0:
256,192,100120,5,0,0:0:0:0:
256,192,100270,5,8,0:0:0:0:
256,192,100345,5,8,0:0:0:0:
256,192,100420,5,0,0:0:0:0:
256,192,100570,5,8,0:0:0:0:
256,192,100645,5,8,0:0:0:0:
256,192,100720,5,0,0:0:0:0:
256,192,100795,5,0,0:0:0:0:
256,192,100870,5,8,0:0:0:0:
256,192,101020,5,0,0:0:0:0:
256,192,101095,5,8,0:0:0:0:
256,192,101170,5,0,0:0:0:0:
256,192,101245,5,8,0:0:0:0:
256,192,101320,5,0,0:0:0:0:
256,192,101620,5,8,0:0:0:0:
256,192,101770,5,0,0:0:0:0:
256,192,101845,5,8,0:0:0:0:
256,192,101920,5,0,0:0:0:0:
256,192,102070,5,0,0:0:0:0:
256,192,102220,5,8,0:0:0:0:
256,192,102370,5,0,0:0:0:0:
256,192,102445,5,0,0:0:0:0:
256,192,102520,5,8,0:0:0:0:
256,192,102670,5,0,0:0:0:0:
256,192,102745,1,0,0:0:0:0:
256,192,102820,5,8,0:0:0:0:
256,192,102970,5,8,0:0:0:0:
256,192,103120,5,0,0:0:0:0:
256,192,103270,5,8,0:0:0:0:
256,192,103345,5,8,0:0:0:0:
256,192,103420,5,0,0:0:0:0:
256,192,103495,5,0,0:0:0:0:
256,192,103570,5,8,0:0:0:0:
256,192,103720,5,0,0:0:0:0:
256,192,103870,5,8,0:0:0:0:
256,192,104020,5,8,0:0:0:0:
256,192,104170,5,8,0:0:0:0:
256,192,104320,5,0,0:0:0:0:
256,192,104395,5,8,0:0:0:0:
256,192,104470,5,0,0:0:0:0:
256,192,104620,5,8,0:0:0:0:
256,192,104770,5,0,0:0:0:0:
256,192,104845,5,8,0:0:0:0:
256,192,104920,5,8,0:0:0:0:
256,192,105070,5,0,0:0:0:0:
256,192,105145,5,0,0:0:0:0:
256,192,105220,5,8,0:0:0:0:
256,192,105370,5,0,0:0:0:0:
256,192,105445,5,8,0:0:0:0:
256,192,105520,5,8,0:0:0:0:
256,192,105595,5,8,0:0:0:0:
256,192,105670,5,0,0:0:0:0:
256,192,105820,5,8,0:0:0:0:
256,192,105895,5,0,0:0:0:0:
256,192,105970,5,8,0:0:0:0:
256,192,106120,5,4,0:0:0:0:
256,192,106270,5,8,0:0:0:0:
256,192,106420,5,8,0:0:0:0:
256,192,106570,5,0,0:0:0:0:
256,192,106720,5,8,0:0:0:0:
256,192,106795,5,8,0:0:0:0:
256,192,106870,5,0,0:0:0:0:
256,192,107020,5,0,0:0:0:0:
256,192,107170,5,8,0:0:0:0:
256,192,107470,5,8,0:0:0:0:
256,192,107545,5,8,0:0:0:0:
256,192,107620,5,0,0:0:0:0:
256,192,107770,5,0,0:0:0:0:
256,192,107920,5,8,0:0:0:0:
256,192,108070,5,0,0:0:0:0:
256,192,108145,5,0,0:0:0:0:
256,192,108220,5,8,0:0:0:0:
256,192,108370,5,0,0:0:0:0:
256,192,108520,5,8,0:0:0:0:
256,192,108670,5,8,0:0:0:0:
256,192,108820,5,0,0:0:0:0:
256,192,108970,5,8,0:0:0:0:
256,192,109045,5,0,0:0:0:0:
256,192,109120,5,8,0:0:0:0:
256,192,109270,5,8,0:0:0:0:
256,192,109420,5,0,0:0:0:0:
256,192,109570,5,8,0:0:0:0:
256,192,109645,5,8,0:0:0:0:
256,192,109720,5,0,0:0:0:0:
256,192,109870,5,8,0:0:0:0:
256,192,109945,1,8,0:0:0:0:
256,192,110020,5,0,0:0:0:0:
256,192,110170,5,8,0:0:0:0:
256,192,110245,5,8,0:0:0:0:
256,192,110320,5,0,0:0:0:0:
256,192,110395,5,0,0:0:0:0:
256,192,110470,5,8,0:0:0:0:
256,192,110545,5,8,0:0:0:0:
256,192,110620,5,0,0:0:0:0:
256,192,110695,5,8,0:0:0:0:
256,192,110770,5,0,0:0:0:0:
256,192,110845,5,8,0:0:0:0:
256,192,110920,5,0,0:0:0:0:
256,192,111070,5,8,0:0:0:0:
256,192,111220,5,8,0:0:0:0:
256,192,111370,5,0,0:0:0:0:
256,192,111520,5,8,0:0:0:0:
256,192,111595,5,0,0:0:0:0:
256,192,111670,5,8,0:0:0:0:
256,192,111820,5,0,0:0:0:0:
256,192,111970,5,8,0:0:0:0:
256,192,112270,5,0,0:0:0:0:
256,192,112345,5,0,0:0:0:0:
256,192,112420,5,8,0:0:0:0:
256,192,112570,5,0,0:0:0:0:
256,192,112720,5,8,0:0:0:0:
256,192,112870,5,8,0:0:0:0:
256,192,113020,5,0,0:0:0:0:
256,192,113170,5,0,0:0:0:0:
256,192,113470,5,8,0:0:0:0:
256,192,113620,5,8,0:0:0:0:
256,192,113770,5,8,0:0:0:0:
256,192,113920,5,0,0:0:0:0:
256,192,113995,5,8,0:0:0:0:
256,192,114070,5,0,0:0:0:0:
256,192,114220,5,8,0:0:0:0:
256,192,114370,5,0,0:0:0:0:
256,192,114445,5,8,0:0:0:0:
256,192,114520,5,8,0:0:0:0:
256,192,114595,5,8,0:0:0:0:
256,192,114670,5,0,0:0:0:0:
256,192,114745,5,0,0:0:0:0:
256,192,114820,5,8,0:0:0:0:
256,192,114895,5,8,0:0:0:0:
256,192,114970,5,0,0:0:0:0:
256,192,115045,5,8,0:0:0:0:
256,192,115120,5,8,0:0:0:0:
256,192,115195,5,8,0:0:0:0:
256,192,115270,5,0,0:0:0:0:
256,192,115345,5,0,0:0:0:0:
256,192,115420,5,8,0:0:0:0:
256,192,115495,5,0,0:0:0:0:
256,192,115570,5,8,0:0:0:0:
256,192,115720,5,4,0:0:0:0:
