osu file format v14

[General]
AudioFilename: audio.mp3
AudioLeadIn: 0
PreviewTime: 77230
Countdown: 0
SampleSet: Normal
StackLeniency: 1
Mode: 1
LetterboxInBreaks: 0
WidescreenStoryboard: 1

[Editor]
DistanceSpacing: 1.6
BeatDivisor: 4
GridSize: 32
TimelineZoom: 2.5

[Metadata]
Title:Coquette
TitleUnicode:Coquette
Artist:Jun Kuroda
ArtistUnicode:Jun Kuroda
Creator:Axer
Version:Inner Oni
Source:太鼓の達人 ブルーVer.
Tags:taiko no tatsujin blue version コケット ウサコ usako _w6 argentine dream zethz161 [zeth] _w6 _wwwwww_wwwwww_ instrumental electronic rhythm game video usagi production
BeatmapID:2208493
BeatmapSetID:1056581

[Difficulty]
HPDrainRate:5.5
CircleSize:2
OverallDifficulty:6
ApproachRate:10
SliderMultiplier:1.4
SliderTickRate:1

[Events]
//Background and Video events
0,0,"celestia2.jpg",0,100
//Break Periods
2,38641,52391
//Storyboard Layer 0 (Background)
//Storyboard Layer 1 (Fail)
//Storyboard Layer 2 (Pass)
//Storyboard Layer 3 (Foreground)
//Storyboard Layer 4 (Overlay)
//Storyboard Sound Samples

[TimingPoints]
-259,300,4,1,0,80,1,8
-89,-133.333333333333,4,1,0,80,0,0
3341,-133.333333333333,4,1,0,80,0,0
3491,-130.61923969153,4,1,0,80,0,0
3566,-129.303043664345,4,1,0,80,0,0
3641,-128.013272416084,4,1,0,80,0,0
3791,-125.509411323208,4,1,0,80,0,0
3866,-124.293855533252,4,1,0,80,0,0
3941,-123.101467615697,4,1,0,80,0,0
4091,-120.784325093427,4,1,0,80,0,0
4166,-119.658160566893,4,1,0,80,0,0
4241,-118.552802232586,4,1,0,80,0,0
4391,-116.402104084433,4,1,0,80,0,0
4466,-115.35582079704,4,1,0,80,0,0
4541,-114.328179037928,4,1,0,80,0,0
4616,-113.318556593554,4,1,0,80,0,0
4691,-112.326736009705,4,1,0,80,0,0
4766,-111.352126602914,4,1,0,80,0,0
4841,-110.39428422554,4,1,0,80,0,0
4991,-108.527081305233,4,1,0,80,0,0
5066,-107.617025443893,4,1,0,80,0,0
5141,-106.722105242937,4,1,0,80,0,0
5191,-106.133677489472,4,1,0,80,0,0
5241,-105.551702918399,4,1,0,80,0,0
5291,-104.976186152171,4,1,0,80,0,0
5366,-104.124366142921,4,1,0,80,0,0
5441,-103.286365580025,4,1,0,80,0,0
5591,-101.650189171002,4,1,0,80,0,0
5741,-90.9090909090909,4,1,0,80,0,0
5966,-93.7231717420888,4,1,0,80,0,0
6191,-96.7169433577221,4,1,0,80,0,0
6416,-99.9083840118611,4,1,0,80,0,0
6716,-90.9090909090909,4,1,0,80,0,0
7166,-95.2380952380952,4,1,0,80,0,0
7391,-90.9090909090909,4,1,0,80,0,0
9341,-83.3333333333333,4,1,0,80,0,0
9416,-83.7673880155673,4,1,0,80,0,0
9491,-84.2059171497981,4,1,0,80,0,0
9541,-84.5008534586199,4,1,0,80,0,0
9591,-84.79786309385,4,1,0,80,0,0
9641,-85.0969679950303,4,1,0,80,0,0
9716,-85.5496393227206,4,1,0,80,0,0
9791,-86.0071523547898,4,1,0,80,0,0
9841,-86.3148645417673,4,1,0,80,0,0
9891,-86.6247864699014,4,1,0,80,0,0
9941,-86.936942027839,4,1,0,80,0,0
10016,-87.4094547310804,4,1,0,80,0,0
10166,-88.3699803641904,4,1,0,80,0,0
10316,-89.3518506108539,4,1,0,80,0,0
10466,-90.3557849387749,4,1,0,80,0,0
10541,-90.8663011418259,4,1,0,80,0,0
29741,300,7,1,0,80,1,0
29741,-83.2973766324203,4,1,0,80,0,1
36041,300,4,1,0,80,1,0
36041,-83.3333333333333,4,1,0,80,0,0
36191,-85.0969679950303,4,1,0,80,0,0
36266,-86.0071523547898,4,1,0,80,0,0
36341,-86.936942027839,4,1,0,80,0,0
36416,-87.8870545884074,4,1,0,80,0,0
36491,-88.8581637105037,4,1,0,80,0,0
36566,-89.8510539079368,4,1,0,80,0,0
36641,-90.8663011418259,4,1,0,80,0,0
36716,-91.9047535895699,4,1,0,80,0,0
36791,-92.9672160409353,4,1,0,80,0,0
36866,-94.0546193985771,4,1,0,80,0,0
36941,-95.1676711614358,4,1,0,80,0,0
37016,-96.3073823460863,4,1,0,80,0,0
37091,-97.474722367622,4,1,0,80,0,0
37166,-98.6707082188753,4,1,0,80,0,0
37241,-100,4,1,0,80,0,0
37316,-98.7717730027113,4,1,0,80,0,0
37391,-97.5733507664387,4,1,0,80,0,0
37466,-96.4035684744906,4,1,0,80,0,0
37541,-95.261593097726,4,1,0,80,0,0
37616,-94.1463561594312,4,1,0,80,0,0
37691,-93.0569294377221,4,1,0,80,0,0
37766,-91.9923425574055,4,1,0,80,0,0
37841,-90.9519209955233,4,1,0,80,0,0
37916,-89.9347703110934,4,1,0,80,0,0
37991,-88.9401183970856,4,1,0,80,0,0
38066,-87.9671495476729,4,1,0,80,0,0
38141,-87.0153138250801,4,1,0,80,0,0
38216,-86.0838560058124,4,1,0,80,0,0
38291,-85.1721286133211,4,1,0,80,0,0
38366,-84.2795113136816,4,1,0,80,0,0
38441,300,3,1,0,80,1,0
38441,-83.4053399434845,4,1,0,80,0,0
38516,-133.333333333333,4,1,0,30,0,0
52841,-100,4,1,0,80,0,0
54641,300,4,1,0,80,1,0
54791,-25,6,1,0,5,0,0
54866,-25,6,1,0,10,0,0
54941,-25,6,1,0,15,0,0
55016,-25,6,1,0,20,0,0
55091,-25,6,1,0,25,0,0
55166,-25,6,1,0,30,0,0
55241,-25,6,1,0,35,0,0
55316,-25,6,1,0,40,0,0
55391,-25,6,1,0,45,0,0
55466,-25,6,1,0,50,0,0
55541,-25,6,1,0,55,0,0
55616,-25,6,1,0,60,0,0
55691,-25,6,1,0,65,0,0
55841,-90.9090909090909,4,1,0,80,0,1
65441,-86.9565217391304,4,1,0,80,0,1
75041,-86.9565217391304,4,1,0,80,0,0
75341,-90.9090909090909,4,1,0,80,0,0
75641,-95.2380952380952,4,1,0,80,0,0
75941,-100,4,1,0,80,0,0
76091,-98.5281859581571,4,1,0,80,0,0
76241,-97.0990682373412,4,1,0,80,0,0
76391,-95.7109071192644,4,1,0,80,0,0
76541,-94.3617887598124,4,1,0,80,0,0
76691,-93.0501754461058,4,1,0,80,0,0
76841,-91.7745246767931,4,1,0,80,0,0
76991,-90.5334593559087,4,1,0,80,0,0
77041,-90.1271152833957,4,1,0,80,0,0
77091,-89.7244830299599,4,1,0,80,0,0
77141,-89.3254322011037,4,1,0,80,0,0
77291,-88.1492189979197,4,1,0,80,0,0
77366,-87.5726524617986,4,1,0,80,0,0
77441,-87.0035793272535,4,1,0,80,0,1
85841,-86.9565217391304,4,1,0,80,0,1
86066,-90.8711728469666,4,1,0,80,0,1
86291,-95.1549932106912,4,1,0,80,0,1
86516,-100,4,1,0,80,0,1
86741,-94.0265850766646,4,1,0,80,0,1
86891,-90.4255607741151,4,1,0,80,0,1
87041,-87.0901862423633,4,1,0,80,0,1
91841,-86.9565217391304,4,1,0,80,0,1
91991,-86.7214688535509,4,1,0,80,0,1
92141,-86.4876832890228,4,1,0,80,0,1
92291,-86.2551548236901,4,1,0,80,0,1
92366,-86.139395938872,4,1,0,80,0,1
92441,-86.0238733453308,4,1,0,80,0,1
92591,-85.7939024557647,4,1,0,80,0,1
92741,-85.5650846538165,4,1,0,80,0,1
92891,-85.3374841485623,4,1,0,80,0,1
93041,-85.1110912518565,4,1,0,80,0,1
93191,-84.8858963780886,4,1,0,80,0,1
93341,-84.6618900428305,4,1,0,80,0,1
93491,-84.4390628615047,4,1,0,80,0,1
93641,-84.2174055480742,4,1,0,80,0,1
93791,-83.9969794686183,4,1,0,80,0,1
93941,-83.7776340525922,4,1,0,80,0,1
94091,-83.5594312276635,4,1,0,80,0,1
94241,-83.3423620892263,4,1,0,80,0,1
95441,-83.3333333333333,4,1,0,80,0,1
95516,-83.7673880155673,4,1,0,80,0,1
95591,-84.2059171497981,4,1,0,80,0,1
95666,-84.6491335737933,4,1,0,80,0,1
95741,-85.0969679950303,4,1,0,80,0,1
95816,-85.5496393227206,4,1,0,80,0,1
95891,-86.0071523547898,4,1,0,80,0,1
95966,-86.469510418279,4,1,0,80,0,1
96041,-86.936942027839,4,1,0,80,0,1
96116,-87.4094547310804,4,1,0,80,0,1
96191,-87.8870545884074,4,1,0,80,0,1
96266,-88.3699803641904,4,1,0,80,0,1
96341,-88.8581637105037,4,1,0,80,0,1
96378,-89.0221451488272,4,1,0,80,0,1
96491,-89.8510539079368,4,1,0,80,0,1
96641,-90.8663011418259,4,1,0,80,0,0

[HitObjects]
160,96,641,5,0,0:0:0:0:
160,96,716,1,0,0:0:0:0:
160,96,791,1,0,0:0:0:0:
160,96,841,1,0,0:0:0:0:
160,96,891,1,0,0:0:0:0:
160,96,941,1,0,0:0:0:0:
352,96,1241,1,8,0:0:0:0:
160,96,1541,1,0,0:0:0:0:
352,96,1691,1,8,0:0:0:0:
160,96,1991,1,0,0:0:0:0:
352,96,2216,1,8,0:0:0:0:
160,96,2291,1,0,0:0:0:0:
352,96,2441,1,8,0:0:0:0:
352,96,2591,1,8,0:0:0:0:
160,96,2741,1,0,0:0:0:0:
160,96,2816,1,0,0:0:0:0:
160,96,2891,1,0,0:0:0:0:
352,96,3041,1,8,0:0:0:0:
160,96,3191,1,0,0:0:0:0:
160,96,3341,1,0,0:0:0:0:
160,96,3491,1,0,0:0:0:0:
160,96,3566,1,0,0:0:0:0:
352,96,3641,1,8,0:0:0:0:
160,96,3791,1,0,0:0:0:0:
160,96,3866,1,0,0:0:0:0:
352,96,3941,1,8,0:0:0:0:
160,96,4091,1,0,0:0:0:0:
160,96,4166,1,0,0:0:0:0:
352,96,4241,1,8,0:0:0:0:
160,96,4391,1,0,0:0:0:0:
160,96,4466,1,0,0:0:0:0:
352,96,4541,1,8,0:0:0:0:
352,96,4616,1,8,0:0:0:0:
160,96,4691,1,0,0:0:0:0:
160,96,4766,1,0,0:0:0:0:
352,96,4841,1,8,0:0:0:0:
160,96,4991,1,0,0:0:0:0:
160,96,5066,1,0,0:0:0:0:
352,96,5141,1,8,0:0:0:0:
352,96,5191,1,8,0:0:0:0:
352,96,5241,1,8,0:0:0:0:
160,96,5291,1,0,0:0:0:0:
160,96,5366,1,0,0:0:0:0:
352,96,5441,1,8,0:0:0:0:
352,96,5591,1,8,0:0:0:0:
160,288,5741,1,4,0:0:0:0:
160,288,5966,1,4,0:0:0:0:
352,288,6191,1,12,0:0:0:0:
160,288,6416,1,4,0:0:0:0:
352,288,6716,1,12,0:0:0:0:
352,288,6866,1,12,0:0:0:0:
352,288,7016,1,12,0:0:0:0:
160,96,7166,1,0,0:0:0:0:
160,96,7241,1,0,0:0:0:0:
352,288,7391,1,12,0:0:0:0:
352,96,7616,1,8,0:0:0:0:
160,96,7691,1,0,0:0:0:0:
352,288,7841,1,12,0:0:0:0:
160,288,7991,1,4,0:0:0:0:
352,288,8141,1,12,0:0:0:0:
256,192,8291,12,0,9191,0:0:0:0:
160,96,9341,5,0,0:0:0:0:
160,96,9416,1,0,0:0:0:0:
352,96,9491,1,8,0:0:0:0:
352,96,9541,1,8,0:0:0:0:
352,96,9591,1,8,0:0:0:0:
160,96,9641,1,0,0:0:0:0:
160,96,9716,1,0,0:0:0:0:
352,96,9791,1,8,0:0:0:0:
352,96,9841,1,8,0:0:0:0:
160,96,9891,1,0,0:0:0:0:
160,96,9941,1,0,0:0:0:0:
160,96,10016,1,0,0:0:0:0:
160,96,10166,1,0,0:0:0:0:
160,96,10316,1,0,0:0:0:0:
352,96,10466,1,8,0:0:0:0:
160,288,10541,1,4,0:0:0:0:
352,96,10841,1,8,0:0:0:0:
160,96,10991,1,0,0:0:0:0:
352,96,11141,1,8,0:0:0:0:
160,96,11216,1,0,0:0:0:0:
352,96,11291,1,8,0:0:0:0:
352,96,11366,1,8,0:0:0:0:
160,96,11441,1,0,0:0:0:0:
352,96,11591,1,8,0:0:0:0:
160,96,11741,1,0,0:0:0:0:
352,96,11891,1,8,0:0:0:0:
352,96,11966,1,8,0:0:0:0:
352,96,12041,1,8,0:0:0:0:
352,96,12191,1,8,0:0:0:0:
160,96,12341,1,0,0:0:0:0:
160,96,12416,1,0,0:0:0:0:
352,96,12491,1,8,0:0:0:0:
160,96,12566,1,0,0:0:0:0:
352,96,12641,1,8,0:0:0:0:
352,96,12791,1,8,0:0:0:0:
160,96,12941,1,0,0:0:0:0:
352,96,13091,1,8,0:0:0:0:
352,96,13128,1,8,0:0:0:0:
352,96,13316,1,8,0:0:0:0:
160,96,13391,1,0,0:0:0:0:
160,96,13466,1,0,0:0:0:0:
352,96,13541,1,8,0:0:0:0:
160,96,13691,1,0,0:0:0:0:
352,96,13841,1,8,0:0:0:0:
352,96,13991,1,8,0:0:0:0:
352,96,14028,1,8,0:0:0:0:
160,96,14141,1,0,0:0:0:0:
352,96,14291,1,8,0:0:0:0:
160,96,14441,1,0,0:0:0:0:
352,96,14591,1,8,0:0:0:0:
160,96,14816,1,0,0:0:0:0:
352,96,14891,1,8,0:0:0:0:
352,96,15041,1,8,0:0:0:0:
352,96,15191,1,8,0:0:0:0:
160,288,15341,1,4,0:0:0:0:
352,96,15641,1,8,0:0:0:0:
160,96,15791,1,0,0:0:0:0:
352,96,15941,1,8,0:0:0:0:
352,96,16016,1,8,0:0:0:0:
160,96,16091,1,0,0:0:0:0:
352,96,16166,1,8,0:0:0:0:
160,96,16241,1,0,0:0:0:0:
352,96,16391,1,8,0:0:0:0:
160,96,16541,1,0,0:0:0:0:
352,96,16691,1,8,0:0:0:0:
160,96,16766,1,0,0:0:0:0:
352,96,16841,1,8,0:0:0:0:
160,96,16991,1,0,0:0:0:0:
160,96,17141,1,0,0:0:0:0:
352,96,17216,1,8,0:0:0:0:
160,96,17291,1,0,0:0:0:0:
160,96,17366,1,0,0:0:0:0:
352,96,17441,1,8,0:0:0:0:
160,96,17591,1,0,0:0:0:0:
160,96,17741,1,0,0:0:0:0:
352,96,17891,1,8,0:0:0:0:
352,96,17928,1,8,0:0:0:0:
352,96,18041,1,8,0:0:0:0:
160,96,18191,1,0,0:0:0:0:
160,96,18266,1,0,0:0:0:0:
352,96,18341,1,8,0:0:0:0:
160,96,18491,1,0,0:0:0:0:
352,96,18641,1,8,0:0:0:0:
352,96,18791,1,8,0:0:0:0:
160,96,18941,1,0,0:0:0:0:
352,96,19091,1,8,0:0:0:0:
160,96,19241,1,0,0:0:0:0:
352,96,19391,1,8,0:0:0:0:
352,96,19466,1,8,0:0:0:0:
160,96,19541,1,0,0:0:0:0:
352,96,19616,1,8,0:0:0:0:
160,96,19691,1,0,0:0:0:0:
160,96,19766,1,0,0:0:0:0:
352,96,19841,1,8,0:0:0:0:
352,96,19991,1,8,0:0:0:0:
160,288,20141,1,4,0:0:0:0:
352,96,20441,1,8,0:0:0:0:
160,96,20591,1,0,0:0:0:0:
352,96,20741,1,8,0:0:0:0:
160,96,20816,1,0,0:0:0:0:
352,96,20891,1,8,0:0:0:0:
352,96,20966,1,8,0:0:0:0:
160,96,21041,1,0,0:0:0:0:
352,96,21191,1,8,0:0:0:0:
160,96,21341,1,0,0:0:0:0:
352,96,21491,1,8,0:0:0:0:
352,96,21566,1,8,0:0:0:0:
160,96,21641,1,0,0:0:0:0:
160,96,21791,1,0,0:0:0:0:
352,96,21941,1,8,0:0:0:0:
352,96,22016,1,8,0:0:0:0:
160,96,22091,1,0,0:0:0:0:
160,96,22166,1,0,0:0:0:0:
352,96,22241,1,8,0:0:0:0:
352,96,22391,1,8,0:0:0:0:
160,96,22541,1,0,0:0:0:0:
352,96,22691,1,8,0:0:0:0:
352,96,22728,1,8,0:0:0:0:
352,96,22916,1,8,0:0:0:0:
160,96,22991,1,0,0:0:0:0:
160,96,23066,1,0,0:0:0:0:
352,96,23141,1,8,0:0:0:0:
160,96,23291,1,0,0:0:0:0:
352,96,23441,1,8,0:0:0:0:
352,96,23591,1,8,0:0:0:0:
352,96,23628,1,8,0:0:0:0:
160,96,23741,1,0,0:0:0:0:
352,96,23891,1,8,0:0:0:0:
160,96,24041,1,0,0:0:0:0:
352,96,24191,1,8,0:0:0:0:
160,96,24416,1,0,0:0:0:0:
352,96,24491,1,8,0:0:0:0:
352,96,24641,1,8,0:0:0:0:
352,96,24791,1,8,0:0:0:0:
160,288,24941,1,4,0:0:0:0:
352,96,25091,1,8,0:0:0:0:
160,96,25241,1,0,0:0:0:0:
160,96,25391,1,0,0:0:0:0:
352,96,25541,1,8,0:0:0:0:
352,96,25616,1,8,0:0:0:0:
160,96,25691,1,0,0:0:0:0:
160,96,25766,1,0,0:0:0:0:
352,96,25841,1,8,0:0:0:0:
352,96,25991,1,8,0:0:0:0:
160,96,26141,1,0,0:0:0:0:
352,96,26291,1,8,0:0:0:0:
160,96,26366,1,0,0:0:0:0:
352,96,26441,1,8,0:0:0:0:
160,96,26591,1,0,0:0:0:0:
352,96,26741,1,8,0:0:0:0:
160,96,26816,1,0,0:0:0:0:
352,96,26891,1,8,0:0:0:0:
160,96,26966,1,0,0:0:0:0:
352,96,27041,1,8,0:0:0:0:
160,96,27191,1,0,0:0:0:0:
160,96,27341,1,0,0:0:0:0:
352,96,27491,1,8,0:0:0:0:
352,96,27528,1,8,0:0:0:0:
352,96,27641,1,8,0:0:0:0:
160,96,27791,1,0,0:0:0:0:
160,96,27866,1,0,0:0:0:0:
352,96,27941,1,8,0:0:0:0:
160,96,28091,1,0,0:0:0:0:
352,96,28241,1,8,0:0:0:0:
352,96,28391,1,8,0:0:0:0:
160,96,28541,1,0,0:0:0:0:
352,96,28691,1,8,0:0:0:0:
160,96,28841,1,0,0:0:0:0:
352,96,28991,1,8,0:0:0:0:
352,96,29066,1,8,0:0:0:0:
160,96,29141,1,0,0:0:0:0:
352,96,29216,1,8,0:0:0:0:
160,96,29291,1,0,0:0:0:0:
160,96,29366,1,0,0:0:0:0:
352,96,29441,1,8,0:0:0:0:
160,96,29591,1,0,0:0:0:0:
352,288,29741,1,12,0:0:0:0:
352,288,29891,1,12,0:0:0:0:
160,96,30041,1,0,0:0:0:0:
352,288,30191,1,12,0:0:0:0:
160,96,30341,1,0,0:0:0:0:
352,288,30491,1,12,0:0:0:0:
160,96,30641,1,0,0:0:0:0:
160,96,30716,1,0,0:0:0:0:
352,288,30791,1,12,0:0:0:0:
160,288,30941,1,4,0:0:0:0:
160,96,31091,1,0,0:0:0:0:
352,288,31241,1,12,0:0:0:0:
160,96,31391,1,0,0:0:0:0:
160,288,31541,1,4,0:0:0:0:
160,96,31691,1,0,0:0:0:0:
160,96,31766,1,0,0:0:0:0:
352,288,31841,1,12,0:0:0:0:
352,288,31991,1,12,0:0:0:0:
160,96,32141,1,0,0:0:0:0:
352,288,32291,1,12,0:0:0:0:
160,96,32441,1,0,0:0:0:0:
352,288,32591,1,12,0:0:0:0:
160,96,32741,1,0,0:0:0:0:
160,96,32816,1,0,0:0:0:0:
352,288,32891,1,12,0:0:0:0:
160,288,33041,1,4,0:0:0:0:
352,288,33191,1,12,0:0:0:0:
160,288,33341,1,4,0:0:0:0:
352,288,33491,1,12,0:0:0:0:
160,96,33641,1,0,0:0:0:0:
160,96,33791,1,0,0:0:0:0:
160,96,33866,1,0,0:0:0:0:
352,288,33941,1,12,0:0:0:0:
352,288,34091,1,12,0:0:0:0:
160,96,34241,1,0,0:0:0:0:
352,288,34391,1,12,0:0:0:0:
160,96,34541,1,0,0:0:0:0:
352,288,34691,1,12,0:0:0:0:
160,96,34841,1,0,0:0:0:0:
160,96,34916,1,0,0:0:0:0:
352,288,34991,1,12,0:0:0:0:
160,288,35141,1,4,0:0:0:0:
160,96,35291,1,0,0:0:0:0:
352,288,35441,1,12,0:0:0:0:
160,96,35591,1,0,0:0:0:0:
160,288,35741,1,4,0:0:0:0:
160,96,35891,1,0,0:0:0:0:
160,96,35966,1,0,0:0:0:0:
352,288,36041,1,12,0:0:0:0:
160,96,36191,1,0,0:0:0:0:
160,96,36266,1,0,0:0:0:0:
352,96,36341,1,8,0:0:0:0:
352,96,36416,1,8,0:0:0:0:
352,96,36491,1,8,0:0:0:0:
160,96,36566,1,0,0:0:0:0:
352,96,36641,1,8,0:0:0:0:
160,96,36716,1,0,0:0:0:0:
352,96,36791,1,8,0:0:0:0:
160,96,36866,1,0,0:0:0:0:
352,96,36941,1,8,0:0:0:0:
352,96,37016,1,8,0:0:0:0:
160,96,37091,1,0,0:0:0:0:
160,96,37166,1,0,0:0:0:0:
352,96,37241,1,8,0:0:0:0:
160,96,37316,1,0,0:0:0:0:
352,96,37391,1,8,0:0:0:0:
160,96,37466,1,0,0:0:0:0:
352,96,37541,1,8,0:0:0:0:
160,96,37616,1,0,0:0:0:0:
352,96,37691,1,8,0:0:0:0:
160,96,37766,1,0,0:0:0:0:
352,96,37841,1,8,0:0:0:0:
160,96,37916,1,0,0:0:0:0:
352,96,37991,1,8,0:0:0:0:
352,96,38066,1,8,0:0:0:0:
160,96,38141,1,0,0:0:0:0:
352,96,38216,1,8,0:0:0:0:
160,96,38291,1,0,0:0:0:0:
160,96,38366,1,0,0:0:0:0:
352,96,38441,1,8,0:0:0:0:
160,96,52841,5,0,0:0:0:0:
160,96,52916,1,0,0:0:0:0:
160,96,52991,1,0,0:0:0:0:
160,96,53066,1,0,0:0:0:0:
160,96,53141,1,0,0:0:0:0:
160,96,53291,1,0,0:0:0:0:
160,96,53366,1,0,0:0:0:0:
352,96,53441,1,8,0:0:0:0:
160,96,53491,1,0,0:0:0:0:
160,96,53541,1,0,0:0:0:0:
352,96,53591,1,8,0:0:0:0:
352,96,53641,1,8,0:0:0:0:
352,96,53691,1,8,0:0:0:0:
160,96,53741,1,0,0:0:0:0:
160,96,53816,1,0,0:0:0:0:
160,96,53891,1,0,0:0:0:0:
160,96,53966,1,0,0:0:0:0:
160,96,54041,1,0,0:0:0:0:
160,96,54191,1,0,0:0:0:0:
160,96,54266,1,0,0:0:0:0:
352,96,54341,1,8,0:0:0:0:
160,96,54391,1,0,0:0:0:0:
160,96,54441,1,0,0:0:0:0:
352,96,54491,1,8,0:0:0:0:
352,96,54541,1,8,0:0:0:0:
160,96,54591,1,0,0:0:0:0:
256,192,54791,12,0,55691,0:0:0:0:
160,288,55841,5,4,0:0:0:0:
160,96,55991,1,0,0:0:0:0:
160,96,56066,1,0,0:0:0:0:
352,96,56141,1,8,0:0:0:0:
352,96,56291,1,8,0:0:0:0:
352,96,56366,1,8,0:0:0:0:
160,96,56441,1,0,0:0:0:0:
352,96,56516,1,8,0:0:0:0:
160,96,56591,1,0,0:0:0:0:
160,96,56666,1,0,0:0:0:0:
352,96,56741,1,8,0:0:0:0:
352,96,56891,1,8,0:0:0:0:
160,96,57041,1,0,0:0:0:0:
160,96,57191,1,0,0:0:0:0:
160,96,57266,1,0,0:0:0:0:
352,96,57341,1,8,0:0:0:0:
352,96,57491,1,8,0:0:0:0:
160,96,57566,1,0,0:0:0:0:
352,96,57641,1,8,0:0:0:0:
160,96,57716,1,0,0:0:0:0:
352,96,57791,1,8,0:0:0:0:
352,96,57866,1,8,0:0:0:0:
160,96,57941,1,0,0:0:0:0:
352,96,58091,1,8,0:0:0:0:
352,96,58166,1,8,0:0:0:0:
160,96,58241,1,0,0:0:0:0:
160,96,58391,1,0,0:0:0:0:
160,96,58466,1,0,0:0:0:0:
352,96,58541,1,8,0:0:0:0:
352,96,58691,1,8,0:0:0:0:
352,96,58766,1,8,0:0:0:0:
160,96,58841,1,0,0:0:0:0:
160,96,58916,1,0,0:0:0:0:
352,96,58991,1,8,0:0:0:0:
160,96,59066,1,0,0:0:0:0:
352,96,59141,1,8,0:0:0:0:
352,96,59291,1,8,0:0:0:0:
160,96,59441,1,0,0:0:0:0:
352,96,59516,1,8,0:0:0:0:
160,96,59591,1,0,0:0:0:0:
160,96,59666,1,0,0:0:0:0:
352,96,59741,1,8,0:0:0:0:
352,96,59816,1,8,0:0:0:0:
160,96,59891,1,0,0:0:0:0:
352,96,59966,1,8,0:0:0:0:
160,96,60041,1,0,0:0:0:0:
160,96,60116,1,0,0:0:0:0:
352,96,60191,1,8,0:0:0:0:
160,96,60266,1,0,0:0:0:0:
352,96,60341,1,8,0:0:0:0:
352,96,60491,1,8,0:0:0:0:
160,288,60641,1,4,0:0:0:0:
160,96,60791,1,0,0:0:0:0:
160,96,60866,1,0,0:0:0:0:
352,96,60941,1,8,0:0:0:0:
352,96,61091,1,8,0:0:0:0:
352,96,61166,1,8,0:0:0:0:
160,96,61241,1,0,0:0:0:0:
352,96,61316,1,8,0:0:0:0:
160,96,61391,1,0,0:0:0:0:
160,96,61466,1,0,0:0:0:0:
352,96,61541,1,8,0:0:0:0:
352,96,61691,1,8,0:0:0:0:
160,96,61841,1,0,0:0:0:0:
160,96,61991,1,0,0:0:0:0:
160,96,62066,1,0,0:0:0:0:
352,96,62141,1,8,0:0:0:0:
352,96,62291,1,8,0:0:0:0:
160,96,62366,1,0,0:0:0:0:
352,96,62441,1,8,0:0:0:0:
160,96,62516,1,0,0:0:0:0:
352,96,62591,1,8,0:0:0:0:
352,96,62666,1,8,0:0:0:0:
160,96,62741,1,0,0:0:0:0:
352,96,62891,1,8,0:0:0:0:
352,96,62966,1,8,0:0:0:0:
160,96,63041,1,0,0:0:0:0:
160,96,63191,1,0,0:0:0:0:
160,96,63266,1,0,0:0:0:0:
352,96,63341,1,8,0:0:0:0:
352,96,63491,1,8,0:0:0:0:
352,96,63566,1,8,0:0:0:0:
160,96,63641,1,0,0:0:0:0:
352,96,63716,1,8,0:0:0:0:
160,96,63791,1,0,0:0:0:0:
160,96,63866,1,0,0:0:0:0:
352,96,63941,1,8,0:0:0:0:
352,96,64091,1,8,0:0:0:0:
160,96,64241,1,0,0:0:0:0:
352,96,64316,1,8,0:0:0:0:
160,96,64391,1,0,0:0:0:0:
160,96,64466,1,0,0:0:0:0:
352,96,64541,1,8,0:0:0:0:
352,96,64616,1,8,0:0:0:0:
160,96,64691,1,0,0:0:0:0:
352,96,64766,1,8,0:0:0:0:
160,96,64841,1,0,0:0:0:0:
160,96,64916,1,0,0:0:0:0:
352,96,64991,1,8,0:0:0:0:
160,96,65066,1,0,0:0:0:0:
352,96,65141,1,8,0:0:0:0:
352,96,65291,1,8,0:0:0:0:
160,288,65441,1,4,0:0:0:0:
160,96,65591,1,0,0:0:0:0:
160,96,65666,1,0,0:0:0:0:
352,96,65741,1,8,0:0:0:0:
352,96,65891,1,8,0:0:0:0:
352,96,65966,1,8,0:0:0:0:
160,96,66041,1,0,0:0:0:0:
352,96,66116,1,8,0:0:0:0:
160,96,66191,1,0,0:0:0:0:
160,96,66266,1,0,0:0:0:0:
352,96,66341,1,8,0:0:0:0:
352,96,66491,1,8,0:0:0:0:
160,96,66641,1,0,0:0:0:0:
160,96,66791,1,0,0:0:0:0:
160,96,66866,1,0,0:0:0:0:
352,96,66941,1,8,0:0:0:0:
352,96,67091,1,8,0:0:0:0:
160,96,67166,1,0,0:0:0:0:
352,96,67241,1,8,0:0:0:0:
160,96,67316,1,0,0:0:0:0:
352,96,67391,1,8,0:0:0:0:
352,96,67466,1,8,0:0:0:0:
352,96,67541,1,8,0:0:0:0:
160,96,67616,1,0,0:0:0:0:
352,96,67691,1,8,0:0:0:0:
352,96,67766,1,8,0:0:0:0:
160,96,67841,1,0,0:0:0:0:
160,96,67991,1,0,0:0:0:0:
160,96,68066,1,0,0:0:0:0:
352,96,68141,1,8,0:0:0:0:
352,96,68291,1,8,0:0:0:0:
352,96,68366,1,8,0:0:0:0:
160,96,68441,1,0,0:0:0:0:
352,96,68516,1,8,0:0:0:0:
160,96,68591,1,0,0:0:0:0:
160,96,68666,1,0,0:0:0:0:
352,96,68741,1,8,0:0:0:0:
352,96,68891,1,8,0:0:0:0:
160,96,69041,1,0,0:0:0:0:
352,96,69116,1,8,0:0:0:0:
160,96,69191,1,0,0:0:0:0:
160,96,69266,1,0,0:0:0:0:
352,96,69341,1,8,0:0:0:0:
352,96,69416,1,8,0:0:0:0:
160,96,69491,1,0,0:0:0:0:
352,96,69566,1,8,0:0:0:0:
160,96,69641,1,0,0:0:0:0:
160,96,69716,1,0,0:0:0:0:
352,96,69791,1,8,0:0:0:0:
352,96,69866,1,8,0:0:0:0:
352,96,69941,1,8,0:0:0:0:
352,96,70091,1,8,0:0:0:0:
160,288,70241,1,4,0:0:0:0:
160,96,70391,1,0,0:0:0:0:
160,96,70466,1,0,0:0:0:0:
352,96,70541,1,8,0:0:0:0:
352,96,70691,1,8,0:0:0:0:
352,96,70766,1,8,0:0:0:0:
160,96,70841,1,0,0:0:0:0:
352,96,70916,1,8,0:0:0:0:
160,96,70991,1,0,0:0:0:0:
160,96,71066,1,0,0:0:0:0:
352,96,71141,1,8,0:0:0:0:
352,96,71291,1,8,0:0:0:0:
160,96,71441,1,0,0:0:0:0:
160,96,71591,1,0,0:0:0:0:
160,96,71666,1,0,0:0:0:0:
352,96,71741,1,8,0:0:0:0:
352,96,71891,1,8,0:0:0:0:
160,96,71966,1,0,0:0:0:0:
352,96,72041,1,8,0:0:0:0:
160,96,72116,1,0,0:0:0:0:
352,96,72191,1,8,0:0:0:0:
352,96,72266,1,8,0:0:0:0:
352,96,72341,1,8,0:0:0:0:
160,96,72416,1,0,0:0:0:0:
352,96,72491,1,8,0:0:0:0:
352,96,72566,1,8,0:0:0:0:
160,96,72641,1,0,0:0:0:0:
160,96,72791,1,0,0:0:0:0:
160,96,72866,1,0,0:0:0:0:
352,96,72941,1,8,0:0:0:0:
352,96,73091,1,8,0:0:0:0:
352,96,73166,1,8,0:0:0:0:
160,96,73241,1,0,0:0:0:0:
352,96,73316,1,8,0:0:0:0:
160,96,73391,1,0,0:0:0:0:
160,96,73466,1,0,0:0:0:0:
352,96,73541,1,8,0:0:0:0:
352,96,73691,1,8,0:0:0:0:
160,96,73841,1,0,0:0:0:0:
352,96,73916,1,8,0:0:0:0:
160,96,73991,1,0,0:0:0:0:
160,96,74066,1,0,0:0:0:0:
352,96,74141,1,8,0:0:0:0:
352,96,74216,1,8,0:0:0:0:
160,96,74291,1,0,0:0:0:0:
352,96,74366,1,8,0:0:0:0:
160,96,74441,1,0,0:0:0:0:
160,96,74516,1,0,0:0:0:0:
352,96,74591,1,8,0:0:0:0:
352,96,74666,1,8,0:0:0:0:
352,96,74741,1,8,0:0:0:0:
352,96,74891,1,8,0:0:0:0:
160,288,75041,1,4,0:0:0:0:
352,288,75341,1,12,0:0:0:0:
160,288,75641,1,4,0:0:0:0:
352,288,75941,1,12,0:0:0:0:
352,96,76091,1,8,0:0:0:0:
160,288,76241,1,4,0:0:0:0:
160,288,76391,1,4,0:0:0:0:
352,288,76541,1,12,0:0:0:0:
352,288,76691,1,12,0:0:0:0:
160,288,76841,1,4,0:0:0:0:
352,96,76991,1,8,0:0:0:0:
352,96,77041,1,8,0:0:0:0:
352,96,77091,1,8,0:0:0:0:
160,96,77141,1,0,0:0:0:0:
160,96,77291,1,0,0:0:0:0:
160,96,77366,1,0,0:0:0:0:
352,288,77441,1,12,0:0:0:0:
160,96,77591,1,0,0:0:0:0:
352,96,77741,1,8,0:0:0:0:
160,96,77816,1,0,0:0:0:0:
352,96,77891,1,8,0:0:0:0:
160,96,77966,1,0,0:0:0:0:
352,96,78041,1,8,0:0:0:0:
160,96,78191,1,0,0:0:0:0:
352,96,78266,1,8,0:0:0:0:
160,96,78416,1,0,0:0:0:0:
352,96,78491,1,8,0:0:0:0:
160,96,78566,1,0,0:0:0:0:
352,96,78641,1,8,0:0:0:0:
160,96,78716,1,0,0:0:0:0:
352,96,78791,1,8,0:0:0:0:
352,96,78866,1,8,0:0:0:0:
160,96,79016,1,0,0:0:0:0:
160,96,79091,1,0,0:0:0:0:
352,96,79166,1,8,0:0:0:0:
352,96,79241,1,8,0:0:0:0:
160,96,79391,1,0,0:0:0:0:
352,96,79541,1,8,0:0:0:0:
352,96,79616,1,8,0:0:0:0:
160,96,79691,1,0,0:0:0:0:
160,96,79766,1,0,0:0:0:0:
352,96,79841,1,8,0:0:0:0:
160,96,79991,1,0,0:0:0:0:
160,96,80066,1,0,0:0:0:0:
352,96,80141,1,8,0:0:0:0:
160,96,80216,1,0,0:0:0:0:
352,96,80291,1,8,0:0:0:0:
160,96,80366,1,0,0:0:0:0:
352,96,80441,1,8,0:0:0:0:
160,96,80591,1,0,0:0:0:0:
352,96,80666,1,8,0:0:0:0:
160,96,80816,1,0,0:0:0:0:
160,96,80891,1,0,0:0:0:0:
352,96,80966,1,8,0:0:0:0:
352,96,81041,1,8,0:0:0:0:
352,96,81191,1,8,0:0:0:0:
160,96,81266,1,0,0:0:0:0:
352,96,81341,1,8,0:0:0:0:
352,96,81416,1,8,0:0:0:0:
160,96,81491,1,0,0:0:0:0:
160,96,81566,1,0,0:0:0:0:
352,96,81641,1,8,0:0:0:0:
160,96,81716,1,0,0:0:0:0:
352,96,81791,1,8,0:0:0:0:
352,96,81866,1,8,0:0:0:0:
160,96,81941,1,0,0:0:0:0:
352,96,82016,1,8,0:0:0:0:
352,96,82091,1,8,0:0:0:0:
160,96,82166,1,0,0:0:0:0:
352,96,82241,1,8,0:0:0:0:
160,96,82316,1,0,0:0:0:0:
352,96,82391,1,8,0:0:0:0:
160,96,82466,1,0,0:0:0:0:
352,96,82616,1,8,0:0:0:0:
352,96,82691,1,8,0:0:0:0:
352,96,82766,1,8,0:0:0:0:
160,96,82841,1,0,0:0:0:0:
352,96,82916,1,8,0:0:0:0:
160,96,82991,1,0,0:0:0:0:
160,96,83066,1,0,0:0:0:0:
352,96,83141,1,8,0:0:0:0:
352,96,83216,1,8,0:0:0:0:
160,96,83291,1,0,0:0:0:0:
160,96,83366,1,0,0:0:0:0:
352,96,83441,1,8,0:0:0:0:
160,96,83591,1,0,0:0:0:0:
160,96,83666,1,0,0:0:0:0:
352,96,83741,1,8,0:0:0:0:
352,96,83891,1,8,0:0:0:0:
160,96,83966,1,0,0:0:0:0:
352,96,84041,1,8,0:0:0:0:
352,96,84191,1,8,0:0:0:0:
352,96,84266,1,8,0:0:0:0:
160,96,84341,1,0,0:0:0:0:
160,96,84491,1,0,0:0:0:0:
160,96,84566,1,0,0:0:0:0:
352,96,84641,1,8,0:0:0:0:
160,96,84716,1,0,0:0:0:0:
352,96,84791,1,8,0:0:0:0:
352,96,84866,1,8,0:0:0:0:
352,96,84941,1,8,0:0:0:0:
160,96,85016,1,0,0:0:0:0:
352,96,85091,1,8,0:0:0:0:
160,96,85166,1,0,0:0:0:0:
352,96,85241,1,8,0:0:0:0:
352,96,85316,1,8,0:0:0:0:
160,96,85391,1,0,0:0:0:0:
160,96,85466,1,0,0:0:0:0:
352,96,85541,1,8,0:0:0:0:
160,96,85616,1,0,0:0:0:0:
352,96,85691,1,8,0:0:0:0:
352,96,85766,1,8,0:0:0:0:
160,288,85841,1,4,0:0:0:0:
160,288,86066,1,4,0:0:0:0:
160,288,86291,1,4,0:0:0:0:
160,288,86516,1,4,0:0:0:0:
352,288,86741,1,12,0:0:0:0:
352,288,86891,1,12,0:0:0:0:
160,288,87041,1,4,0:0:0:0:
160,96,87341,1,0,0:0:0:0:
352,96,87491,1,8,0:0:0:0:
352,96,87566,1,8,0:0:0:0:
352,96,87641,1,8,0:0:0:0:
160,96,87791,1,0,0:0:0:0:
352,96,87866,1,8,0:0:0:0:
160,96,88016,1,0,0:0:0:0:
160,96,88091,1,0,0:0:0:0:
352,96,88241,1,8,0:0:0:0:
160,96,88391,1,0,0:0:0:0:
352,96,88466,1,8,0:0:0:0:
160,96,88616,1,0,0:0:0:0:
160,96,88691,1,0,0:0:0:0:
160,96,88841,1,0,0:0:0:0:
352,96,88916,1,8,0:0:0:0:
352,96,88991,1,8,0:0:0:0:
160,96,89066,1,0,0:0:0:0:
352,96,89141,1,8,0:0:0:0:
160,96,89216,1,0,0:0:0:0:
352,96,89291,1,8,0:0:0:0:
352,96,89366,1,8,0:0:0:0:
160,96,89441,1,0,0:0:0:0:
160,96,89591,1,0,0:0:0:0:
160,96,89666,1,0,0:0:0:0:
352,96,89741,1,8,0:0:0:0:
352,96,89816,1,8,0:0:0:0:
352,96,89891,1,8,0:0:0:0:
160,96,89966,1,0,0:0:0:0:
352,96,90041,1,8,0:0:0:0:
352,96,90116,1,8,0:0:0:0:
160,96,90191,1,0,0:0:0:0:
352,96,90266,1,8,0:0:0:0:
160,96,90341,1,0,0:0:0:0:
160,96,90416,1,0,0:0:0:0:
352,96,90491,1,8,0:0:0:0:
352,96,90566,1,8,0:0:0:0:
160,96,90641,1,0,0:0:0:0:
352,96,90791,1,8,0:0:0:0:
352,96,90941,1,8,0:0:0:0:
352,96,91016,1,8,0:0:0:0:
160,96,91091,1,0,0:0:0:0:
160,96,91166,1,0,0:0:0:0:
352,96,91241,1,8,0:0:0:0:
352,96,91316,1,8,0:0:0:0:
160,96,91391,1,0,0:0:0:0:
352,96,91466,1,8,0:0:0:0:
160,96,91541,1,0,0:0:0:0:
160,96,91616,1,0,0:0:0:0:
160,96,91691,1,0,0:0:0:0:
160,96,91766,1,0,0:0:0:0:
352,96,91841,1,8,0:0:0:0:
160,96,91991,1,0,0:0:0:0:
352,96,92141,1,8,0:0:0:0:
160,96,92291,1,0,0:0:0:0:
160,96,92366,1,0,0:0:0:0:
352,96,92441,1,8,0:0:0:0:
352,96,92591,1,8,0:0:0:0:
160,96,92741,1,0,0:0:0:0:
352,96,92891,1,8,0:0:0:0:
160,96,93041,1,0,0:0:0:0:
352,96,93191,1,8,0:0:0:0:
160,96,93341,1,0,0:0:0:0:
352,96,93491,1,8,0:0:0:0:
160,96,93641,1,0,0:0:0:0:
352,96,93791,1,8,0:0:0:0:
352,96,93941,1,8,0:0:0:0:
352,96,94091,1,8,0:0:0:0:
160,96,94241,1,0,0:0:0:0:
160,96,94316,1,0,0:0:0:0:
352,96,94391,1,8,0:0:0:0:
160,96,94466,1,0,0:0:0:0:
352,96,94541,1,8,0:0:0:0:
352,96,94616,1,8,0:0:0:0:
160,96,94691,1,0,0:0:0:0:
352,96,94766,1,8,0:0:0:0:
160,96,94841,1,0,0:0:0:0:
160,96,94916,1,0,0:0:0:0:
352,96,94991,1,8,0:0:0:0:
160,96,95066,1,0,0:0:0:0:
352,96,95141,1,8,0:0:0:0:
352,96,95216,1,8,0:0:0:0:
160,96,95291,1,0,0:0:0:0:
160,96,95366,1,0,0:0:0:0:
352,96,95441,1,8,0:0:0:0:
160,96,95516,1,0,0:0:0:0:
352,96,95591,1,8,0:0:0:0:
160,96,95666,1,0,0:0:0:0:
352,96,95741,1,8,0:0:0:0:
160,96,95816,1,0,0:0:0:0:
352,96,95891,1,8,0:0:0:0:
160,96,95966,1,0,0:0:0:0:
352,96,96041,1,8,0:0:0:0:
160,96,96116,1,0,0:0:0:0:
352,96,96191,1,8,0:0:0:0:
160,96,96266,1,0,0:0:0:0:
352,96,96341,1,8,0:0:0:0:
352,96,96378,1,8,0:0:0:0:
160,96,96491,1,0,0:0:0:0:
160,288,96641,1,4,0:0:0:0:
352,96,96941,1,8,0:0:0:0:
160,96,97091,1,0,0:0:0:0:
352,96,97241,1,8,0:0:0:0:
160,96,97316,1,0,0:0:0:0:
352,96,97391,1,8,0:0:0:0:
352,96,97466,1,8,0:0:0:0:
160,96,97541,1,0,0:0:0:0:
352,96,97691,1,8,0:0:0:0:
160,96,97841,1,0,0:0:0:0:
352,96,97991,1,8,0:0:0:0:
352,96,98066,1,8,0:0:0:0:
352,96,98141,1,8,0:0:0:0:
352,96,98291,1,8,0:0:0:0:
160,96,98441,1,0,0:0:0:0:
160,96,98516,1,0,0:0:0:0:
352,96,98591,1,8,0:0:0:0:
160,96,98666,1,0,0:0:0:0:
352,96,98741,1,8,0:0:0:0:
352,96,98891,1,8,0:0:0:0:
160,96,99041,1,0,0:0:0:0:
352,96,99191,1,8,0:0:0:0:
352,96,99228,1,8,0:0:0:0:
352,96,99416,1,8,0:0:0:0:
160,96,99491,1,0,0:0:0:0:
160,96,99566,1,0,0:0:0:0:
352,96,99641,1,8,0:0:0:0:
160,96,99791,1,0,0:0:0:0:
352,96,99941,1,8,0:0:0:0:
352,96,100091,1,8,0:0:0:0:
352,96,100128,1,8,0:0:0:0:
160,96,100241,1,0,0:0:0:0:
352,96,100391,1,8,0:0:0:0:
160,96,100541,1,0,0:0:0:0:
352,96,100691,1,8,0:0:0:0:
160,96,100916,1,0,0:0:0:0:
352,96,100991,1,8,0:0:0:0:
352,96,101141,1,8,0:0:0:0:
352,96,101291,1,8,0:0:0:0:
160,288,101441,1,4,0:0:0:0:
352,96,101741,1,8,0:0:0:0:
160,96,101891,1,0,0:0:0:0:
352,96,102041,1,8,0:0:0:0:
352,96,102116,1,8,0:0:0:0:
160,96,102191,1,0,0:0:0:0:
352,96,102266,1,8,0:0:0:0:
160,96,102341,1,0,0:0:0:0:
352,96,102491,1,8,0:0:0:0:
160,96,102641,1,0,0:0:0:0:
352,96,102791,1,8,0:0:0:0:
160,96,102866,1,0,0:0:0:0:
352,96,102941,1,8,0:0:0:0:
160,96,103091,1,0,0:0:0:0:
160,96,103241,1,0,0:0:0:0:
352,96,103316,1,8,0:0:0:0:
160,96,103391,1,0,0:0:0:0:
160,96,103466,1,0,0:0:0:0:
352,96,103541,1,8,0:0:0:0:
160,96,103691,1,0,0:0:0:0:
160,96,103841,1,0,0:0:0:0:
352,96,103991,1,8,0:0:0:0:
352,96,104028,1,8,0:0:0:0:
352,96,104141,1,8,0:0:0:0:
160,96,104291,1,0,0:0:0:0:
160,96,104366,1,0,0:0:0:0:
352,96,104441,1,8,0:0:0:0:
160,96,104591,1,0,0:0:0:0:
352,96,104741,1,8,0:0:0:0:
352,96,104891,1,8,0:0:0:0:
160,96,105041,1,0,0:0:0:0:
352,96,105191,1,8,0:0:0:0:
160,96,105341,1,0,0:0:0:0:
352,96,105491,1,8,0:0:0:0:
352,96,105566,1,8,0:0:0:0:
160,96,105641,1,0,0:0:0:0:
352,96,105716,1,8,0:0:0:0:
160,96,105791,1,0,0:0:0:0:
160,96,105866,1,0,0:0:0:0:
352,96,105941,1,8,0:0:0:0:
352,96,106091,1,8,0:0:0:0:
160,288,106241,1,4,0:0:0:0:
352,96,106541,1,8,0:0:0:0:
160,96,106691,1,0,0:0:0:0:
352,96,106841,1,8,0:0:0:0:
160,96,106916,1,0,0:0:0:0:
352,96,106991,1,8,0:0:0:0:
352,96,107066,1,8,0:0:0:0:
160,96,107141,1,0,0:0:0:0:
352,96,107291,1,8,0:0:0:0:
160,96,107441,1,0,0:0:0:0:
352,96,107591,1,8,0:0:0:0:
352,96,107666,1,8,0:0:0:0:
160,96,107741,1,0,0:0:0:0:
160,96,107891,1,0,0:0:0:0:
352,96,108041,1,8,0:0:0:0:
352,96,108116,1,8,0:0:0:0:
160,96,108191,1,0,0:0:0:0:
160,96,108266,1,0,0:0:0:0:
352,96,108341,1,8,0:0:0:0:
352,96,108491,1,8,0:0:0:0:
160,96,108641,1,0,0:0:0:0:
352,96,108791,1,8,0:0:0:0:
352,96,108828,1,8,0:0:0:0:
352,96,109016,1,8,0:0:0:0:
160,96,109091,1,0,0:0:0:0:
160,96,109166,1,0,0:0:0:0:
352,96,109241,1,8,0:0:0:0:
160,96,109391,1,0,0:0:0:0:
352,96,109541,1,8,0:0:0:0:
352,96,109691,1,8,0:0:0:0:
352,96,109728,1,8,0:0:0:0:
160,96,109841,1,0,0:0:0:0:
352,96,109991,1,8,0:0:0:0:
160,96,110141,1,0,0:0:0:0:
352,96,110291,1,8,0:0:0:0:
160,96,110516,1,0,0:0:0:0:
352,96,110591,1,8,0:0:0:0:
352,96,110741,1,8,0:0:0:0:
352,96,110891,1,8,0:0:0:0:
160,288,111041,1,4,0:0:0:0:
352,96,111191,1,8,0:0:0:0:
160,96,111341,1,0,0:0:0:0:
160,96,111491,1,0,0:0:0:0:
352,96,111641,1,8,0:0:0:0:
352,96,111716,1,8,0:0:0:0:
160,96,111791,1,0,0:0:0:0:
160,96,111866,1,0,0:0:0:0:
352,96,111941,1,8,0:0:0:0:
352,96,112091,1,8,0:0:0:0:
160,96,112241,1,0,0:0:0:0:
352,96,112391,1,8,0:0:0:0:
160,96,112466,1,0,0:0:0:0:
352,96,112541,1,8,0:0:0:0:
160,96,112691,1,0,0:0:0:0:
352,96,112841,1,8,0:0:0:0:
160,96,112916,1,0,0:0:0:0:
352,96,112991,1,8,0:0:0:0:
160,96,113066,1,0,0:0:0:0:
352,96,113141,1,8,0:0:0:0:
160,96,113291,1,0,0:0:0:0:
160,96,113441,1,0,0:0:0:0:
352,96,113591,1,8,0:0:0:0:
352,96,113628,1,8,0:0:0:0:
352,96,113741,1,8,0:0:0:0:
160,96,113891,1,0,0:0:0:0:
160,96,113966,1,0,0:0:0:0:
352,96,114041,1,8,0:0:0:0:
160,96,114191,1,0,0:0:0:0:
352,96,114341,1,8,0:0:0:0:
352,96,114491,1,8,0:0:0:0:
160,96,114641,1,0,0:0:0:0:
352,96,114791,1,8,0:0:0:0:
160,96,114941,1,0,0:0:0:0:
352,96,115091,1,8,0:0:0:0:
352,96,115166,1,8,0:0:0:0:
160,96,115241,1,0,0:0:0:0:
352,96,115316,1,8,0:0:0:0:
160,96,115391,1,0,0:0:0:0:
160,96,115466,1,0,0:0:0:0:
352,96,115541,1,8,0:0:0:0:
160,96,115691,1,8,0:0:0:0:
352,288,115841,1,4,0:0:0:0:
256,192,115991,12,0,118241,0:0:0:0:
