osu file format v14

[General]
AudioFilename: audio.mp3
AudioLeadIn: 0
PreviewTime: 77230
Countdown: 0
SampleSet: Normal
StackLeniency: 1
Mode: 1
LetterboxInBreaks: 0
WidescreenStoryboard: 1

[Editor]
DistanceSpacing: 1.6
BeatDivisor: 2
GridSize: 32
TimelineZoom: 2.4

[Metadata]
Title:Coquette
TitleUnicode:Coquette
Artist:Jun Kuroda
ArtistUnicode:Jun Kuroda
Creator:Axer
Version:Futsuu
Source:太鼓の達人 ブルーVer.
Tags:taiko no tatsujin blue version コケット ウサコ usako _w6 argentine dream zethz161 [zeth] _w6 _wwwwww_wwwwww_ instrumental electronic rhythm game video usagi production
BeatmapID:2209060
BeatmapSetID:1056581

[Difficulty]
HPDrainRate:7
CircleSize:4
OverallDifficulty:4
ApproachRate:5
SliderMultiplier:1.4
SliderTickRate:1

[Events]
//Background and Video events
0,0,"celestia2.jpg",0,100
//Break Periods
2,38641,51641
//Storyboard Layer 0 (Background)
//Storyboard Layer 1 (Fail)
//Storyboard Layer 2 (Pass)
//Storyboard Layer 3 (Foreground)
//Storyboard Layer 4 (Overlay)
//Storyboard Sound Samples

[TimingPoints]
-259,300,4,1,0,80,1,0
29741,300,7,1,0,80,1,1
36041,300,4,1,0,80,1,1
38441,300,3,1,0,60,1,0
38441,-100,4,1,0,80,0,0
54641,300,4,1,0,5,1,0
54791,-25,6,1,0,5,0,0
54866,-25,6,1,0,10,0,0
54941,-25,6,1,0,15,0,0
55016,-25,6,1,0,20,0,0
55091,-25,6,1,0,25,0,0
55166,-25,6,1,0,30,0,0
55241,-25,6,1,0,35,0,0
55316,-25,6,1,0,40,0,0
55391,-25,6,1,0,45,0,0
55466,-25,6,1,0,50,0,0
55541,-25,6,1,0,55,0,0
55616,-25,6,1,0,60,0,0
55691,-25,6,1,0,65,0,0
55841,-100,4,1,0,80,0,1
75041,-100,4,1,0,80,0,0
77441,-100,4,1,0,80,0,1
96641,-100,4,1,0,80,0,0

[HitObjects]
256,192,641,5,0,0:0:0:0:
256,192,941,1,0,0:0:0:0:
256,192,1241,1,8,0:0:0:0:
256,192,1541,1,0,0:0:0:0:
256,192,1691,1,8,0:0:0:0:
256,192,1991,1,0,0:0:0:0:
256,192,2291,1,0,0:0:0:0:
256,192,2441,1,8,0:0:0:0:
256,192,2741,1,0,0:0:0:0:
256,192,2891,1,0,0:0:0:0:
256,192,3191,1,8,0:0:0:0:
256,192,3341,1,0,0:0:0:0:
256,192,3641,1,0,0:0:0:0:
256,192,3941,1,0,0:0:0:0:
256,192,4241,1,0,0:0:0:0:
256,192,4541,1,8,0:0:0:0:
256,192,4691,1,0,0:0:0:0:
256,192,4841,1,8,0:0:0:0:
256,192,5141,1,0,0:0:0:0:
256,192,5291,1,0,0:0:0:0:
256,192,5441,1,8,0:0:0:0:
256,192,5741,1,0,0:0:0:0:
256,192,6191,1,8,0:0:0:0:
256,192,6416,1,0,0:0:0:0:
256,192,6716,1,8,0:0:0:0:
256,192,6866,1,8,0:0:0:0:
256,192,7166,1,0,0:0:0:0:
256,192,7391,1,8,0:0:0:0:
256,192,7691,1,8,0:0:0:0:
256,192,8141,1,12,0:0:0:0:
256,192,8291,12,0,9191,0:0:0:0:
256,192,9341,6,0,L|160:192,6,70
256,192,10541,1,4,0:0:0:0:
256,192,10841,1,8,0:0:0:0:
256,192,11291,1,0,0:0:0:0:
256,192,11441,1,8,0:0:0:0:
256,192,11741,1,0,0:0:0:0:
256,192,12041,1,8,0:0:0:0:
256,192,12491,1,0,0:0:0:0:
256,192,12641,1,8,0:0:0:0:
256,192,13091,1,8,0:0:0:0:
256,192,13541,1,8,0:0:0:0:
256,192,13841,1,0,0:0:0:0:
256,192,13991,1,8,0:0:0:0:
256,192,14291,1,8,0:0:0:0:
256,192,14591,1,8,0:0:0:0:
256,192,14891,1,0,0:0:0:0:
256,192,15041,1,8,0:0:0:0:
256,192,15341,1,4,0:0:0:0:
256,192,15641,1,8,0:0:0:0:
256,192,16091,1,0,0:0:0:0:
256,192,16241,1,8,0:0:0:0:
256,192,16541,1,0,0:0:0:0:
256,192,16841,1,8,0:0:0:0:
256,192,17291,1,0,0:0:0:0:
256,192,17441,1,8,0:0:0:0:
256,192,17741,1,0,0:0:0:0:
256,192,18041,1,8,0:0:0:0:
256,192,18341,1,8,0:0:0:0:
256,192,18641,1,0,0:0:0:0:
256,192,18791,1,8,0:0:0:0:
256,192,19091,1,0,0:0:0:0:
256,192,19391,1,0,0:0:0:0:
256,192,19691,1,0,0:0:0:0:
256,192,19841,1,8,0:0:0:0:
256,192,20141,1,4,0:0:0:0:
256,192,20741,1,8,0:0:0:0:
256,192,21041,1,0,0:0:0:0:
256,192,21191,1,8,0:0:0:0:
256,192,21491,1,8,0:0:0:0:
256,192,21791,1,0,0:0:0:0:
256,192,21941,1,8,0:0:0:0:
256,192,22241,1,0,0:0:0:0:
256,192,22541,1,8,0:0:0:0:
256,192,23141,1,8,0:0:0:0:
256,192,23441,1,0,0:0:0:0:
256,192,23591,1,8,0:0:0:0:
256,192,23891,1,8,0:0:0:0:
256,192,24191,1,8,0:0:0:0:
256,192,24491,1,0,0:0:0:0:
256,192,24641,1,8,0:0:0:0:
256,192,24941,1,4,0:0:0:0:
256,192,25541,1,8,0:0:0:0:
256,192,25841,1,0,0:0:0:0:
256,192,25991,1,8,0:0:0:0:
256,192,26291,1,8,0:0:0:0:
256,192,26591,1,0,0:0:0:0:
256,192,26741,1,8,0:0:0:0:
256,192,27041,1,0,0:0:0:0:
256,192,27341,1,8,0:0:0:0:
256,192,27641,1,0,0:0:0:0:
256,192,27941,1,8,0:0:0:0:
256,192,28241,1,0,0:0:0:0:
256,192,28391,1,8,0:0:0:0:
256,192,28691,1,0,0:0:0:0:
256,192,28991,1,0,0:0:0:0:
256,192,29291,1,0,0:0:0:0:
256,192,29441,1,8,0:0:0:0:
256,192,29741,1,4,0:0:0:0:
256,192,30191,1,12,0:0:0:0:
256,192,30491,1,12,0:0:0:0:
256,192,30941,1,4,0:0:0:0:
256,192,31241,1,4,0:0:0:0:
256,192,31541,1,4,0:0:0:0:
256,192,31841,1,12,0:0:0:0:
256,192,32291,1,12,0:0:0:0:
256,192,32591,1,12,0:0:0:0:
256,192,32891,1,12,0:0:0:0:
256,192,33191,1,12,0:0:0:0:
256,192,33491,1,12,0:0:0:0:
256,192,33791,1,4,0:0:0:0:
256,192,33941,1,12,0:0:0:0:
256,192,34391,1,12,0:0:0:0:
256,192,34691,1,12,0:0:0:0:
256,192,34991,1,12,0:0:0:0:
256,192,35141,1,4,0:0:0:0:
256,192,35441,1,4,0:0:0:0:
256,192,35741,1,4,0:0:0:0:
256,192,36041,1,12,0:0:0:0:
256,192,36641,1,8,0:0:0:0:
256,192,36791,1,8,0:0:0:0:
256,192,36941,1,0,0:0:0:0:
256,192,37241,1,8,0:0:0:0:
256,192,37391,1,0,0:0:0:0:
256,192,37541,1,8,0:0:0:0:
256,192,37841,1,8,0:0:0:0:
256,192,38141,1,8,0:0:0:0:
256,192,38441,1,0,0:0:0:0:
256,192,52841,5,0,0:0:0:0:
256,192,52991,1,0,0:0:0:0:
256,192,53141,1,0,0:0:0:0:
256,192,53441,1,8,0:0:0:0:
256,192,53741,1,0,0:0:0:0:
256,192,53891,1,0,0:0:0:0:
256,192,54041,1,0,0:0:0:0:
256,192,54341,1,8,0:0:0:0:
256,192,54491,1,8,0:0:0:0:
256,192,54641,12,0,55691,0:0:0:0:
256,192,55841,5,4,0:0:0:0:
256,192,56141,1,8,0:0:0:0:
256,192,56591,1,0,0:0:0:0:
256,192,56741,1,8,0:0:0:0:
256,192,57041,1,0,0:0:0:0:
256,192,57341,1,8,0:0:0:0:
256,192,57491,1,0,0:0:0:0:
256,192,57641,1,0,0:0:0:0:
256,192,57791,1,0,0:0:0:0:
256,192,57941,1,8,0:0:0:0:
256,192,58241,1,0,0:0:0:0:
256,192,58541,1,8,0:0:0:0:
256,192,58991,1,0,0:0:0:0:
256,192,59141,1,8,0:0:0:0:
256,192,59441,1,0,0:0:0:0:
256,192,59741,1,8,0:0:0:0:
256,192,60041,1,8,0:0:0:0:
256,192,60191,1,0,0:0:0:0:
256,192,60341,1,8,0:0:0:0:
256,192,60641,1,4,0:0:0:0:
256,192,60941,1,8,0:0:0:0:
256,192,61391,1,0,0:0:0:0:
256,192,61541,1,8,0:0:0:0:
256,192,61841,1,0,0:0:0:0:
256,192,62141,1,8,0:0:0:0:
256,192,62291,1,0,0:0:0:0:
256,192,62441,1,0,0:0:0:0:
256,192,62591,1,0,0:0:0:0:
256,192,62741,1,8,0:0:0:0:
256,192,63041,1,0,0:0:0:0:
256,192,63341,1,8,0:0:0:0:
256,192,63791,1,0,0:0:0:0:
256,192,63941,1,8,0:0:0:0:
256,192,64241,1,0,0:0:0:0:
256,192,64541,1,8,0:0:0:0:
256,192,64841,1,8,0:0:0:0:
256,192,64991,1,0,0:0:0:0:
256,192,65141,1,8,0:0:0:0:
256,192,65441,1,4,0:0:0:0:
256,192,66041,1,0,0:0:0:0:
256,192,66191,1,0,0:0:0:0:
256,192,66341,1,8,0:0:0:0:
256,192,66641,1,0,0:0:0:0:
256,192,66941,1,8,0:0:0:0:
256,192,67391,1,0,0:0:0:0:
256,192,67541,1,8,0:0:0:0:
256,192,67841,1,0,0:0:0:0:
256,192,68141,1,8,0:0:0:0:
256,192,68441,1,0,0:0:0:0:
256,192,68591,1,0,0:0:0:0:
256,192,68741,1,8,0:0:0:0:
256,192,69041,1,0,0:0:0:0:
256,192,69341,1,8,0:0:0:0:
256,192,69641,1,8,0:0:0:0:
256,192,69791,1,0,0:0:0:0:
256,192,69941,1,8,0:0:0:0:
256,192,70241,1,4,0:0:0:0:
256,192,70541,1,8,0:0:0:0:
256,192,70841,1,0,0:0:0:0:
256,192,70991,1,0,0:0:0:0:
256,192,71141,1,8,0:0:0:0:
256,192,71441,1,0,0:0:0:0:
256,192,71741,1,8,0:0:0:0:
256,192,72191,1,0,0:0:0:0:
256,192,72341,1,8,0:0:0:0:
256,192,72641,1,0,0:0:0:0:
256,192,72941,1,8,0:0:0:0:
256,192,73241,1,0,0:0:0:0:
256,192,73391,1,0,0:0:0:0:
256,192,73541,1,8,0:0:0:0:
256,192,73841,1,0,0:0:0:0:
256,192,74141,1,8,0:0:0:0:
256,192,74441,1,8,0:0:0:0:
256,192,74591,1,0,0:0:0:0:
256,192,74741,1,8,0:0:0:0:
256,192,75041,1,4,0:0:0:0:
256,192,75341,1,12,0:0:0:0:
256,192,75641,1,4,0:0:0:0:
256,192,75941,1,12,0:0:0:0:
256,192,76241,1,0,0:0:0:0:
256,192,76541,1,8,0:0:0:0:
256,192,76691,1,8,0:0:0:0:
256,192,76841,1,0,0:0:0:0:
256,192,77141,1,0,0:0:0:0:
256,192,77441,1,12,0:0:0:0:
256,192,77741,1,0,0:0:0:0:
256,192,77891,1,0,0:0:0:0:
256,192,78041,1,8,0:0:0:0:
256,192,78341,1,0,0:0:0:0:
256,192,78641,1,8,0:0:0:0:
256,192,79241,1,8,0:0:0:0:
256,192,79541,1,0,0:0:0:0:
256,192,79691,1,0,0:0:0:0:
256,192,79841,1,8,0:0:0:0:
256,192,80141,1,8,0:0:0:0:
256,192,80291,1,0,0:0:0:0:
256,192,80441,1,8,0:0:0:0:
256,192,80741,1,0,0:0:0:0:
256,192,81041,1,8,0:0:0:0:
256,192,81641,1,8,0:0:0:0:
256,192,81941,1,0,0:0:0:0:
256,192,82091,1,0,0:0:0:0:
256,192,82241,1,8,0:0:0:0:
256,192,82541,1,8,0:0:0:0:
256,192,82841,1,0,0:0:0:0:
256,192,83141,1,8,0:0:0:0:
256,192,83441,1,0,0:0:0:0:
256,192,83741,1,0,0:0:0:0:
256,192,83891,1,0,0:0:0:0:
256,192,84041,1,8,0:0:0:0:
256,192,84341,1,8,0:0:0:0:
256,192,84491,1,8,0:0:0:0:
256,192,84641,1,0,0:0:0:0:
256,192,84941,1,8,0:0:0:0:
256,192,85241,1,0,0:0:0:0:
256,192,85541,1,8,0:0:0:0:
256,192,85841,1,4,0:0:0:0:
256,192,86291,1,4,0:0:0:0:
256,192,86741,1,12,0:0:0:0:
256,192,87041,1,4,0:0:0:0:
256,192,87641,1,8,0:0:0:0:
256,192,87941,1,8,0:0:0:0:
256,192,88241,1,0,0:0:0:0:
256,192,88466,1,0,0:0:0:0:
256,192,88691,1,0,0:0:0:0:
256,192,88916,1,0,0:0:0:0:
256,192,89141,1,8,0:0:0:0:
256,192,89441,1,8,0:0:0:0:
256,192,89741,1,0,0:0:0:0:
256,192,90041,1,0,0:0:0:0:
256,192,90191,1,0,0:0:0:0:
256,192,90341,1,8,0:0:0:0:
256,192,90491,1,8,0:0:0:0:
256,192,90791,1,8,0:0:0:0:
256,192,90941,1,8,0:0:0:0:
256,192,91241,1,0,0:0:0:0:
256,192,91541,1,0,0:0:0:0:
256,192,91841,1,8,0:0:0:0:
256,192,92141,1,8,0:0:0:0:
256,192,92291,1,0,0:0:0:0:
256,192,92441,1,8,0:0:0:0:
256,192,92591,1,0,0:0:0:0:
256,192,92891,1,0,0:0:0:0:
256,192,93191,1,8,0:0:0:0:
256,192,93491,1,8,0:0:0:0:
256,192,93791,1,0,0:0:0:0:
256,192,93941,1,8,0:0:0:0:
256,192,94091,1,0,0:0:0:0:
256,192,94241,1,0,0:0:0:0:
256,192,94841,1,0,0:0:0:0:
256,192,95141,1,0,0:0:0:0:
256,192,95291,1,0,0:0:0:0:
256,192,95441,1,8,0:0:0:0:
256,192,95741,1,8,0:0:0:0:
256,192,96041,1,8,0:0:0:0:
256,192,96341,1,8,0:0:0:0:
256,192,96491,1,8,0:0:0:0:
256,192,96641,1,4,0:0:0:0:
256,192,96941,1,8,0:0:0:0:
256,192,97391,1,0,0:0:0:0:
256,192,97541,1,8,0:0:0:0:
256,192,97841,1,0,0:0:0:0:
256,192,98141,1,8,0:0:0:0:
256,192,98591,1,0,0:0:0:0:
256,192,98741,1,8,0:0:0:0:
256,192,99191,1,8,0:0:0:0:
256,192,99641,1,8,0:0:0:0:
256,192,99941,1,0,0:0:0:0:
256,192,100091,1,8,0:0:0:0:
256,192,100391,1,8,0:0:0:0:
256,192,100691,1,8,0:0:0:0:
256,192,100991,1,0,0:0:0:0:
256,192,101141,1,8,0:0:0:0:
256,192,101441,1,4,0:0:0:0:
256,192,101741,1,8,0:0:0:0:
256,192,102191,1,0,0:0:0:0:
256,192,102341,1,8,0:0:0:0:
256,192,102641,1,0,0:0:0:0:
256,192,102941,1,8,0:0:0:0:
256,192,103391,1,0,0:0:0:0:
256,192,103541,1,8,0:0:0:0:
256,192,103841,1,0,0:0:0:0:
256,192,104141,1,8,0:0:0:0:
256,192,104441,1,8,0:0:0:0:
256,192,104741,1,0,0:0:0:0:
256,192,104891,1,8,0:0:0:0:
256,192,105191,1,0,0:0:0:0:
256,192,105491,1,0,0:0:0:0:
256,192,105791,1,0,0:0:0:0:
256,192,105941,1,8,0:0:0:0:
256,192,106241,1,4,0:0:0:0:
256,192,106841,1,8,0:0:0:0:
256,192,107141,1,0,0:0:0:0:
256,192,107291,1,8,0:0:0:0:
256,192,107591,1,8,0:0:0:0:
256,192,107891,1,0,0:0:0:0:
256,192,108041,1,8,0:0:0:0:
256,192,108341,1,0,0:0:0:0:
256,192,108641,1,8,0:0:0:0:
256,192,109241,1,8,0:0:0:0:
256,192,109541,1,0,0:0:0:0:
256,192,109691,1,8,0:0:0:0:
256,192,109991,1,8,0:0:0:0:
256,192,110291,1,8,0:0:0:0:
256,192,110591,1,0,0:0:0:0:
256,192,110741,1,8,0:0:0:0:
256,192,111041,1,4,0:0:0:0:
256,192,111641,1,8,0:0:0:0:
256,192,111941,1,0,0:0:0:0:
256,192,112091,1,8,0:0:0:0:
256,192,112391,1,8,0:0:0:0:
256,192,112691,1,0,0:0:0:0:
256,192,112841,1,8,0:0:0:0:
256,192,113141,1,0,0:0:0:0:
256,192,113441,1,8,0:0:0:0:
256,192,114041,1,8,0:0:0:0:
256,192,114341,1,0,0:0:0:0:
256,192,114491,1,8,0:0:0:0:
256,192,114791,1,0,0:0:0:0:
256,192,115091,5,0,0:0:0:0:
256,192,115391,1,0,0:0:0:0:
256,192,115541,1,8,0:0:0:0:
256,192,115841,1,4,0:0:0:0:
256,192,115991,12,0,118241,0:0:0:0:
