osu file format v14

[General]
AudioFilename: audio.mp3
AudioLeadIn: 0
PreviewTime: 77230
Countdown: 0
SampleSet: Normal
StackLeniency: 1
Mode: 1
LetterboxInBreaks: 0
WidescreenStoryboard: 1

[Editor]
DistanceSpacing: 1.6
BeatDivisor: 4
GridSize: 32
TimelineZoom: 3

[Metadata]
Title:Coquette
TitleUnicode:Coquette
Artist:Jun Kuroda
ArtistUnicode:Jun Kuroda
Creator:Axer
Version:Daitatsujin
Source:太鼓の達人 ブルーVer.
Tags:taiko no tatsujin blue version コケット ウサコ usako _w6 argentine dream zethz161 [zeth] _w6 _wwwwww_wwwwww_ instrumental electronic rhythm game video usagi production
BeatmapID:2208491
BeatmapSetID:1056581

[Difficulty]
HPDrainRate:6
CircleSize:5
OverallDifficulty:7
ApproachRate:5
SliderMultiplier:1.4
SliderTickRate:1

[Events]
//Background and Video events
0,0,"celestia2.jpg",0,100
//Break Periods
2,38730,50141
//Storyboard Layer 0 (Background)
//Storyboard Layer 1 (Fail)
//Storyboard Layer 2 (Pass)
//Storyboard Layer 3 (Foreground)
//Storyboard Layer 4 (Overlay)
//Storyboard Sound Samples

[TimingPoints]
-259,300,4,1,0,80,1,0
5591,-90.9090909090909,4,1,0,80,0,0
5741,-83.3333333333333,4,1,0,80,0,0
9341,-90.9090909090909,4,1,0,80,0,0
10841,-100,4,1,0,80,0,0
28541,-100,4,1,0,80,0,0
28691,-98.1688563230069,4,1,0,80,0,0
28841,-96.4035684744906,4,1,0,80,0,0
28991,-94.7006465213138,4,1,0,80,0,0
29066,-93.8715930478698,4,1,0,80,0,0
29141,-93.0569294377221,4,1,0,80,0,0
29216,-92.2561991553022,4,1,0,80,0,0
29291,-91.4692151209589,4,1,0,80,0,0
29366,-90.6954618711743,4,1,0,80,0,0
29441,-89.9347703110934,4,1,0,80,0,0
29591,-88.4509583661339,4,1,0,80,0,0
29741,300,7,1,0,80,1,1
29741,-86.9565217391304,7,1,0,80,0,1
36041,300,4,1,0,80,1,1
36041,-86.9565217391304,7,1,0,80,0,1
37241,-86.9565217391304,7,1,0,80,0,1
37291,-85.802294353351,7,1,0,80,0,1
37341,-84.6783788155019,7,1,0,80,0,1
37391,-83.5834568278908,7,1,0,80,0,1
37441,-82.5165569471514,7,1,0,80,0,1
37491,-81.4764842571137,7,1,0,80,0,1
37541,-80.4623042150983,7,1,0,80,0,1
37591,-79.4731249706943,7,1,0,80,0,1
37641,-78.5079100644786,7,1,0,80,0,1
37691,-77.5658592319273,7,1,0,80,0,1
37741,-76.646207239081,7,1,0,80,0,1
37791,-75.7480498664562,7,1,0,80,0,1
37841,-74.8707543602856,7,1,0,80,0,1
37891,-74.0134926597119,7,1,0,80,0,1
37941,-73.1756398295008,7,1,0,80,0,1
37991,-72.356596461473,7,1,0,80,0,1
38066,-71.1617656372643,7,1,0,80,0,1
38141,-70.0058034811086,7,1,0,80,0,1
38216,-68.8867962611002,7,1,0,80,0,1
38291,-67.802953767878,7,1,0,80,0,1
38366,-66.7527331906605,7,1,0,80,0,1
38441,300,3,1,0,60,1,0
38441,-66.6666666666667,4,1,0,60,0,0
38516,-100,4,1,0,60,0,0
52841,-100,3,1,0,80,0,0
54641,300,4,1,0,80,1,0
54791,-25,6,1,0,5,0,0
54866,-25,6,1,0,10,0,0
54941,-25,6,1,0,15,0,0
55016,-25,6,1,0,20,0,0
55091,-25,6,1,0,25,0,0
55166,-25,6,1,0,30,0,0
55241,-25,6,1,0,35,0,0
55316,-25,6,1,0,40,0,0
55391,-25,6,1,0,45,0,0
55466,-25,6,1,0,50,0,0
55541,-25,6,1,0,55,0,0
55616,-25,6,1,0,60,0,0
55691,-25,6,1,0,65,0,0
55841,-90.9090909090909,4,1,0,80,0,1
75041,-90.9090909090909,4,1,0,80,0,0
75078,-90.6522154948206,4,1,0,80,0,0
75341,-88.8940249881104,4,1,0,80,0,0
75378,-88.6483956413357,4,1,0,80,0,0
75641,-86.9663527181334,4,1,0,80,0,0
75678,-86.731246752999,4,1,0,80,0,0
75941,-85.120509361128,4,1,0,80,0,0
75978,-84.8952647119249,4,1,0,80,0,0
76091,-84.2266269004685,4,1,0,80,0,0
76128,-84.0060820403397,4,1,0,80,0,0
76241,-83.3513928017737,4,1,0,80,0,0
76278,-83.1354017975537,4,1,0,80,0,0
76391,-82.4940934229109,4,1,0,80,0,0
76428,-82.2825170221957,4,1,0,80,0,0
76541,-81.6543164513034,4,1,0,80,0,0
76578,-81.4470203422078,4,1,0,80,0,0
76691,-80.8313994421017,4,1,0,80,0,0
76728,-80.6282553658104,4,1,0,80,0,0
76841,-80.0249677899505,4,1,0,80,0,0
76891,-79.7596999759126,4,1,0,80,0,0
76941,-79.4961849780829,4,1,0,80,0,0
76991,-79.2344054804854,4,1,0,80,0,0
77041,-78.97434439448,4,1,0,80,0,0
77091,-78.7159848550445,4,1,0,80,0,0
77141,-78.4593717758102,4,1,0,80,0,0
77216,-78.0774825321152,4,1,0,80,0,0
77291,-77.6992928587357,4,1,0,80,0,0
77366,-77.3247492551694,4,1,0,80,0,0
77441,-76.9230769230769,4,1,0,80,0,1
77591,-86.9565217391304,4,1,0,80,0,1
85841,-86.9565217391304,4,1,0,80,0,1
86066,-82.2852252763755,4,1,0,80,0,1
86141,-80.8376722953938,4,1,0,80,0,1
86291,-78.0902254464809,4,1,0,80,0,1
86516,-74.3022093761958,4,1,0,80,0,1
86591,-73.1198866349278,4,1,0,80,0,1
86741,-70.8646909590827,4,1,0,80,0,1
86891,-68.7444445895716,4,1,0,80,0,1
87041,-66.747341953975,4,1,0,80,0,1
87341,-86.9565217391304,4,1,0,80,0,1
95441,-86.9565217391304,4,1,0,80,0,1
95516,-85.3415625357368,4,1,0,80,0,1
95591,-83.7855659254158,4,1,0,80,0,1
95666,-82.2852252763755,4,1,0,80,0,1
95741,-80.8376722953938,4,1,0,80,0,1
95816,-79.4402323467916,4,1,0,80,0,1
95891,-78.0902254464809,4,1,0,80,0,1
95966,-76.7853358437019,4,1,0,80,0,1
96041,-75.5233960152346,4,1,0,80,0,1
96116,-74.3022093761958,4,1,0,80,0,1
96191,-73.1198866349278,4,1,0,80,0,1
96266,-71.9746534060565,4,1,0,80,0,1
96341,-70.8646909590827,4,1,0,80,0,1
96378,-70.3224495278199,4,1,0,80,0,1
96491,-68.7444445895716,4,1,0,80,0,1
96641,-66.747341953975,4,1,0,80,0,0
96941,-100,4,1,0,80,0,0

[HitObjects]
224,224,641,5,0,0:0:0:0:
224,224,716,1,0,0:0:0:0:
224,224,791,1,0,0:0:0:0:
224,224,841,1,0,0:0:0:0:
224,224,891,1,0,0:0:0:0:
224,224,941,1,0,0:0:0:0:
224,224,1166,1,0,0:0:0:0:
224,160,1241,1,8,0:0:0:0:
224,224,1391,1,0,0:0:0:0:
224,160,1541,1,0,0:0:0:0:
224,160,1691,1,8,0:0:0:0:
224,224,1841,1,0,0:0:0:0:
224,224,1991,1,0,0:0:0:0:
224,160,2216,1,8,0:0:0:0:
224,224,2291,1,0,0:0:0:0:
224,160,2441,1,8,0:0:0:0:
224,160,2591,1,8,0:0:0:0:
224,224,2741,1,0,0:0:0:0:
224,224,2816,1,0,0:0:0:0:
224,224,2891,1,0,0:0:0:0:
224,160,3041,1,8,0:0:0:0:
224,224,3191,1,0,0:0:0:0:
224,224,3341,1,0,0:0:0:0:
224,224,3491,1,0,0:0:0:0:
224,224,3566,1,0,0:0:0:0:
224,160,3641,1,8,0:0:0:0:
224,224,3791,1,0,0:0:0:0:
224,224,3866,1,0,0:0:0:0:
224,160,3941,1,8,0:0:0:0:
224,224,4091,1,0,0:0:0:0:
224,224,4166,1,0,0:0:0:0:
224,160,4241,1,8,0:0:0:0:
224,224,4391,1,0,0:0:0:0:
224,160,4541,1,8,0:0:0:0:
224,224,4616,1,0,0:0:0:0:
224,160,4691,1,8,0:0:0:0:
224,224,4766,1,0,0:0:0:0:
224,160,4841,1,8,0:0:0:0:
224,160,4916,1,8,0:0:0:0:
224,224,4991,1,0,0:0:0:0:
224,224,5066,1,0,0:0:0:0:
224,160,5141,1,8,0:0:0:0:
224,160,5191,1,8,0:0:0:0:
224,160,5241,1,8,0:0:0:0:
224,224,5291,1,0,0:0:0:0:
224,224,5366,1,0,0:0:0:0:
224,160,5441,1,8,0:0:0:0:
224,160,5591,1,8,0:0:0:0:
288,160,5741,1,12,0:0:0:0:
288,160,5966,1,12,0:0:0:0:
224,160,6191,1,8,0:0:0:0:
288,224,6416,1,4,0:0:0:0:
288,224,6716,1,4,0:0:0:0:
288,224,6866,1,4,0:0:0:0:
288,224,7016,1,4,0:0:0:0:
224,224,7166,1,0,0:0:0:0:
224,224,7241,1,0,0:0:0:0:
288,160,7391,1,12,0:0:0:0:
224,160,7616,1,8,0:0:0:0:
288,224,7691,1,4,0:0:0:0:
224,160,7841,1,8,0:0:0:0:
288,224,7991,1,4,0:0:0:0:
288,160,8141,1,12,0:0:0:0:
256,192,8291,8,0,9191,0:0:0:0:
224,224,9341,5,0,0:0:0:0:
224,224,9416,1,0,0:0:0:0:
224,160,9491,1,8,0:0:0:0:
224,160,9541,1,8,0:0:0:0:
224,160,9591,1,8,0:0:0:0:
224,224,9641,1,0,0:0:0:0:
224,224,9716,1,0,0:0:0:0:
224,160,9791,1,8,0:0:0:0:
224,160,9841,1,8,0:0:0:0:
224,160,9891,1,8,0:0:0:0:
224,224,9941,1,0,0:0:0:0:
224,224,10016,1,0,0:0:0:0:
224,224,10166,1,0,0:0:0:0:
224,224,10316,1,0,0:0:0:0:
224,224,10466,1,0,0:0:0:0:
288,224,10541,1,4,0:0:0:0:
224,160,10841,1,8,0:0:0:0:
224,160,10991,1,8,0:0:0:0:
224,160,11066,1,8,0:0:0:0:
224,224,11141,1,0,0:0:0:0:
224,160,11216,1,8,0:0:0:0:
224,224,11291,1,0,0:0:0:0:
224,160,11441,1,8,0:0:0:0:
224,160,11591,1,8,0:0:0:0:
224,224,11741,1,0,0:0:0:0:
224,224,11891,1,0,0:0:0:0:
224,160,12041,1,8,0:0:0:0:
224,160,12116,1,8,0:0:0:0:
224,224,12191,1,0,0:0:0:0:
224,160,12266,1,8,0:0:0:0:
224,224,12341,1,0,0:0:0:0:
224,224,12391,1,0,0:0:0:0:
224,160,12441,1,0,0:0:0:0:
224,160,12491,1,0,0:0:0:0:
224,160,12641,1,8,0:0:0:0:
224,224,12716,1,0,0:0:0:0:
224,224,12791,1,0,0:0:0:0:
224,160,12866,1,8,0:0:0:0:
224,224,12941,1,0,0:0:0:0:
224,160,13091,1,8,0:0:0:0:
224,224,13128,1,0,0:0:0:0:
224,160,13241,1,8,0:0:0:0:
224,224,13391,1,0,0:0:0:0:
224,224,13466,1,0,0:0:0:0:
224,160,13541,1,8,0:0:0:0:
224,224,13616,1,0,0:0:0:0:
224,160,13691,1,8,0:0:0:0:
224,160,13766,1,8,0:0:0:0:
224,224,13841,1,0,0:0:0:0:
224,224,13991,1,0,0:0:0:0:
224,160,14028,1,8,0:0:0:0:
224,224,14141,1,0,0:0:0:0:
224,224,14216,1,0,0:0:0:0:
224,160,14291,1,8,0:0:0:0:
224,224,14441,1,0,0:0:0:0:
224,160,14591,1,8,0:0:0:0:
224,224,14741,1,0,0:0:0:0:
224,160,14816,1,8,0:0:0:0:
224,160,14891,1,8,0:0:0:0:
224,224,14966,1,0,0:0:0:0:
224,160,15041,1,8,0:0:0:0:
224,160,15191,1,8,0:0:0:0:
288,224,15341,1,4,0:0:0:0:
224,160,15641,1,8,0:0:0:0:
224,160,15791,1,8,0:0:0:0:
224,160,15866,1,8,0:0:0:0:
224,224,15941,1,0,0:0:0:0:
224,160,16016,1,8,0:0:0:0:
224,224,16091,1,0,0:0:0:0:
224,160,16241,1,8,0:0:0:0:
224,160,16391,1,8,0:0:0:0:
224,224,16541,1,0,0:0:0:0:
224,224,16691,1,0,0:0:0:0:
224,160,16841,1,8,0:0:0:0:
224,160,16916,1,8,0:0:0:0:
224,224,16991,1,0,0:0:0:0:
224,160,17066,1,8,0:0:0:0:
224,224,17141,1,0,0:0:0:0:
224,224,17191,1,0,0:0:0:0:
224,160,17241,1,0,0:0:0:0:
224,160,17291,1,0,0:0:0:0:
224,160,17441,1,8,0:0:0:0:
224,224,17516,1,0,0:0:0:0:
224,224,17591,1,0,0:0:0:0:
224,160,17666,1,8,0:0:0:0:
224,224,17741,1,0,0:0:0:0:
224,224,17891,1,0,0:0:0:0:
224,160,17928,1,8,0:0:0:0:
224,160,18041,1,8,0:0:0:0:
224,224,18116,1,0,0:0:0:0:
224,160,18191,1,8,0:0:0:0:
224,160,18341,1,8,0:0:0:0:
224,160,18416,1,8,0:0:0:0:
224,224,18491,1,0,0:0:0:0:
224,224,18641,1,0,0:0:0:0:
224,160,18791,1,8,0:0:0:0:
224,224,18941,1,0,0:0:0:0:
224,160,19091,1,8,0:0:0:0:
224,160,19241,1,8,0:0:0:0:
224,224,19391,1,0,0:0:0:0:
224,224,19466,1,0,0:0:0:0:
224,224,19541,1,0,0:0:0:0:
224,160,19616,1,8,0:0:0:0:
224,224,19691,1,0,0:0:0:0:
224,224,19766,1,0,0:0:0:0:
224,160,19841,1,8,0:0:0:0:
224,160,19991,1,8,0:0:0:0:
288,224,20141,1,4,0:0:0:0:
224,160,20291,1,8,0:0:0:0:
224,160,20441,1,8,0:0:0:0:
224,224,20591,1,0,0:0:0:0:
224,224,20666,1,0,0:0:0:0:
224,160,20741,1,8,0:0:0:0:
224,224,20816,1,0,0:0:0:0:
224,160,20891,1,8,0:0:0:0:
224,160,20966,1,8,0:0:0:0:
224,224,21041,1,0,0:0:0:0:
224,160,21191,1,8,0:0:0:0:
224,224,21341,1,0,0:0:0:0:
224,160,21491,1,8,0:0:0:0:
224,160,21641,1,8,0:0:0:0:
224,160,21716,1,8,0:0:0:0:
224,224,21791,1,0,0:0:0:0:
224,160,21866,1,8,0:0:0:0:
224,224,21941,1,0,0:0:0:0:
224,224,21991,1,0,0:0:0:0:
224,160,22041,1,0,0:0:0:0:
224,160,22091,1,0,0:0:0:0:
224,160,22241,1,8,0:0:0:0:
224,224,22316,1,0,0:0:0:0:
224,224,22391,1,0,0:0:0:0:
224,160,22466,1,8,0:0:0:0:
224,224,22541,1,0,0:0:0:0:
224,160,22691,1,8,0:0:0:0:
224,224,22728,1,0,0:0:0:0:
224,160,22841,1,8,0:0:0:0:
224,224,22991,1,0,0:0:0:0:
224,224,23066,1,0,0:0:0:0:
224,160,23141,1,8,0:0:0:0:
224,224,23216,1,0,0:0:0:0:
224,160,23291,1,8,0:0:0:0:
224,160,23366,1,8,0:0:0:0:
224,224,23441,1,0,0:0:0:0:
224,224,23591,1,0,0:0:0:0:
224,160,23628,1,8,0:0:0:0:
224,224,23741,1,0,0:0:0:0:
224,224,23816,1,0,0:0:0:0:
224,160,23891,1,8,0:0:0:0:
224,224,24041,1,0,0:0:0:0:
224,224,24116,1,0,0:0:0:0:
224,160,24191,1,8,0:0:0:0:
224,224,24266,1,0,0:0:0:0:
224,224,24341,1,0,0:0:0:0:
224,160,24416,1,8,0:0:0:0:
224,160,24491,1,8,0:0:0:0:
224,224,24566,1,0,0:0:0:0:
224,160,24641,1,8,0:0:0:0:
224,160,24791,1,8,0:0:0:0:
288,224,24941,1,4,0:0:0:0:
224,160,25091,1,8,0:0:0:0:
224,160,25241,1,8,0:0:0:0:
224,224,25391,1,0,0:0:0:0:
224,160,25541,1,8,0:0:0:0:
224,224,25616,1,0,0:0:0:0:
224,160,25691,1,8,0:0:0:0:
224,160,25766,1,8,0:0:0:0:
224,224,25841,1,0,0:0:0:0:
224,160,25991,1,8,0:0:0:0:
224,224,26141,1,0,0:0:0:0:
224,160,26291,1,8,0:0:0:0:
224,160,26441,1,8,0:0:0:0:
224,160,26516,1,8,0:0:0:0:
224,224,26591,1,0,0:0:0:0:
224,160,26666,1,8,0:0:0:0:
224,224,26741,1,0,0:0:0:0:
224,224,26791,1,0,0:0:0:0:
224,160,26841,1,0,0:0:0:0:
224,160,26891,1,0,0:0:0:0:
224,160,27041,1,8,0:0:0:0:
224,224,27116,1,0,0:0:0:0:
224,160,27191,1,8,0:0:0:0:
224,160,27266,1,8,0:0:0:0:
224,224,27341,1,0,0:0:0:0:
224,224,27491,1,0,0:0:0:0:
224,160,27528,1,8,0:0:0:0:
224,160,27641,1,8,0:0:0:0:
224,224,27716,1,0,0:0:0:0:
224,160,27791,1,8,0:0:0:0:
224,160,27941,1,8,0:0:0:0:
224,224,28016,1,0,0:0:0:0:
224,224,28091,1,0,0:0:0:0:
224,224,28241,1,0,0:0:0:0:
224,160,28391,1,8,0:0:0:0:
224,224,28541,1,0,0:0:0:0:
224,160,28691,1,8,0:0:0:0:
224,160,28841,1,8,0:0:0:0:
224,224,28991,1,0,0:0:0:0:
224,224,29066,1,0,0:0:0:0:
224,224,29141,1,0,0:0:0:0:
224,160,29216,1,8,0:0:0:0:
224,224,29291,1,0,0:0:0:0:
224,224,29366,1,0,0:0:0:0:
224,160,29441,1,8,0:0:0:0:
224,160,29591,1,8,0:0:0:0:
288,160,29741,1,12,0:0:0:0:
288,160,29891,1,12,0:0:0:0:
224,224,30041,1,0,0:0:0:0:
288,160,30191,1,12,0:0:0:0:
224,224,30341,1,0,0:0:0:0:
288,160,30491,1,12,0:0:0:0:
224,224,30641,1,0,0:0:0:0:
224,224,30716,1,0,0:0:0:0:
288,160,30791,1,12,0:0:0:0:
288,224,30941,1,4,0:0:0:0:
224,160,31091,1,8,0:0:0:0:
288,224,31241,1,4,0:0:0:0:
224,160,31391,1,8,0:0:0:0:
224,224,31541,1,0,0:0:0:0:
224,224,31616,1,0,0:0:0:0:
224,160,31691,1,8,0:0:0:0:
224,224,31766,1,0,0:0:0:0:
288,160,31841,1,12,0:0:0:0:
288,160,31991,1,12,0:0:0:0:
224,224,32141,1,0,0:0:0:0:
288,160,32291,1,12,0:0:0:0:
224,224,32441,1,0,0:0:0:0:
288,160,32591,1,12,0:0:0:0:
224,160,32741,1,8,0:0:0:0:
224,160,32816,1,8,0:0:0:0:
288,224,32891,1,4,0:0:0:0:
224,160,33041,1,8,0:0:0:0:
288,224,33191,1,4,0:0:0:0:
288,160,33341,1,12,0:0:0:0:
288,224,33491,1,4,0:0:0:0:
224,224,33641,1,0,0:0:0:0:
224,224,33716,1,0,0:0:0:0:
224,160,33791,1,8,0:0:0:0:
224,224,33866,1,0,0:0:0:0:
288,160,33941,1,12,0:0:0:0:
288,160,34091,1,12,0:0:0:0:
224,224,34241,1,0,0:0:0:0:
288,160,34391,1,12,0:0:0:0:
224,224,34541,1,0,0:0:0:0:
288,160,34691,1,12,0:0:0:0:
224,224,34841,1,0,0:0:0:0:
224,224,34916,1,0,0:0:0:0:
288,160,34991,1,12,0:0:0:0:
288,224,35141,1,4,0:0:0:0:
224,160,35291,1,8,0:0:0:0:
288,224,35441,1,4,0:0:0:0:
224,160,35591,1,8,0:0:0:0:
224,224,35741,1,0,0:0:0:0:
224,224,35816,1,0,0:0:0:0:
224,160,35891,1,8,0:0:0:0:
224,224,35966,1,0,0:0:0:0:
224,160,36041,1,8,0:0:0:0:
224,224,36091,1,0,0:0:0:0:
224,224,36141,1,0,0:0:0:0:
224,160,36191,1,8,0:0:0:0:
224,224,36266,1,0,0:0:0:0:
224,160,36341,1,8,0:0:0:0:
224,160,36391,1,8,0:0:0:0:
224,160,36441,1,8,0:0:0:0:
224,224,36491,1,0,0:0:0:0:
224,224,36566,1,0,0:0:0:0:
224,160,36641,1,8,0:0:0:0:
224,160,36716,1,8,0:0:0:0:
224,224,36791,1,0,0:0:0:0:
224,224,36866,1,0,0:0:0:0:
224,160,36941,1,8,0:0:0:0:
224,224,37016,1,0,0:0:0:0:
224,160,37091,1,8,0:0:0:0:
224,160,37166,1,8,0:0:0:0:
224,224,37241,1,0,0:0:0:0:
224,160,37291,1,8,0:0:0:0:
224,224,37341,1,0,0:0:0:0:
224,160,37391,1,8,0:0:0:0:
224,224,37441,1,0,0:0:0:0:
224,160,37491,1,8,0:0:0:0:
224,224,37541,1,0,0:0:0:0:
224,160,37591,1,8,0:0:0:0:
224,224,37641,1,0,0:0:0:0:
224,160,37691,1,8,0:0:0:0:
224,224,37741,1,0,0:0:0:0:
224,160,37791,1,8,0:0:0:0:
224,224,37841,1,0,0:0:0:0:
224,160,37891,1,8,0:0:0:0:
224,224,37941,1,0,0:0:0:0:
224,224,37991,1,0,0:0:0:0:
224,224,38066,1,0,0:0:0:0:
224,224,38141,1,0,0:0:0:0:
224,224,38216,1,0,0:0:0:0:
224,224,38291,1,0,0:0:0:0:
224,224,38366,1,0,0:0:0:0:
256,192,51341,12,0,52691,0:0:0:0:
224,224,52841,5,0,0:0:0:0:
224,224,52916,1,0,0:0:0:0:
224,224,52991,1,0,0:0:0:0:
224,224,53066,1,0,0:0:0:0:
224,224,53141,1,0,0:0:0:0:
224,224,53291,1,0,0:0:0:0:
224,224,53366,1,0,0:0:0:0:
224,160,53441,1,8,0:0:0:0:
224,160,53491,1,8,0:0:0:0:
224,160,53541,1,8,0:0:0:0:
224,160,53591,1,8,0:0:0:0:
224,160,53641,1,8,0:0:0:0:
224,160,53691,1,8,0:0:0:0:
224,224,53741,1,0,0:0:0:0:
224,224,53816,1,0,0:0:0:0:
224,224,53891,1,0,0:0:0:0:
224,224,53966,1,0,0:0:0:0:
224,224,54041,1,0,0:0:0:0:
224,224,54191,1,0,0:0:0:0:
224,224,54266,1,0,0:0:0:0:
224,160,54341,1,8,0:0:0:0:
224,160,54391,1,8,0:0:0:0:
224,160,54441,1,8,0:0:0:0:
224,160,54491,1,8,0:0:0:0:
224,160,54541,1,8,0:0:0:0:
224,224,54591,1,0,0:0:0:0:
256,192,54941,8,0,55691,0:0:0:0:
288,224,55841,5,4,0:0:0:0:
224,224,55991,1,0,0:0:0:0:
224,224,56066,1,0,0:0:0:0:
224,160,56141,1,8,0:0:0:0:
224,224,56291,1,0,0:0:0:0:
224,224,56366,1,8,0:0:0:0:
224,160,56441,1,8,0:0:0:0:
224,160,56516,1,8,0:0:0:0:
224,224,56591,1,0,0:0:0:0:
224,224,56666,1,0,0:0:0:0:
224,160,56741,1,8,0:0:0:0:
224,224,56816,1,0,0:0:0:0:
224,160,56891,1,8,0:0:0:0:
224,160,56966,1,8,0:0:0:0:
224,224,57041,1,0,0:0:0:0:
224,224,57116,1,0,0:0:0:0:
224,160,57191,1,8,0:0:0:0:
224,224,57266,1,0,0:0:0:0:
224,160,57341,1,8,0:0:0:0:
224,160,57416,1,8,0:0:0:0:
224,224,57491,1,0,0:0:0:0:
224,224,57566,1,0,0:0:0:0:
224,160,57641,1,8,0:0:0:0:
224,224,57716,1,0,0:0:0:0:
224,160,57791,1,8,0:0:0:0:
224,160,57866,1,8,0:0:0:0:
224,224,57941,1,0,0:0:0:0:
224,224,58016,1,0,0:0:0:0:
224,160,58091,1,8,0:0:0:0:
224,160,58166,1,8,0:0:0:0:
224,224,58241,1,0,0:0:0:0:
224,224,58316,1,0,0:0:0:0:
224,160,58391,1,8,0:0:0:0:
224,224,58466,1,0,0:0:0:0:
224,160,58541,1,8,0:0:0:0:
224,160,58616,1,8,0:0:0:0:
224,224,58691,1,0,0:0:0:0:
224,224,58766,1,0,0:0:0:0:
224,160,58841,1,8,0:0:0:0:
224,224,58916,1,0,0:0:0:0:
224,224,58991,1,0,0:0:0:0:
224,160,59066,1,8,0:0:0:0:
224,160,59141,1,8,0:0:0:0:
224,224,59216,1,0,0:0:0:0:
224,160,59291,1,8,0:0:0:0:
224,224,59366,1,0,0:0:0:0:
224,160,59441,1,8,0:0:0:0:
224,160,59516,1,8,0:0:0:0:
224,160,59591,1,8,0:0:0:0:
224,160,59666,1,8,0:0:0:0:
224,224,59741,1,0,0:0:0:0:
224,224,59816,1,0,0:0:0:0:
224,160,59891,1,8,0:0:0:0:
224,160,59966,1,8,0:0:0:0:
224,224,60041,1,0,0:0:0:0:
224,160,60116,1,8,0:0:0:0:
224,224,60191,1,0,0:0:0:0:
224,224,60266,1,0,0:0:0:0:
224,160,60341,1,8,0:0:0:0:
224,224,60416,1,0,0:0:0:0:
224,160,60491,1,8,0:0:0:0:
224,160,60566,1,8,0:0:0:0:
288,224,60641,1,4,0:0:0:0:
224,224,60791,1,0,0:0:0:0:
224,224,60866,1,0,0:0:0:0:
224,160,60941,1,8,0:0:0:0:
224,224,61091,1,0,0:0:0:0:
224,224,61166,1,8,0:0:0:0:
224,160,61241,1,8,0:0:0:0:
224,160,61316,1,8,0:0:0:0:
224,224,61391,1,0,0:0:0:0:
224,224,61466,1,0,0:0:0:0:
224,160,61541,1,8,0:0:0:0:
224,224,61616,1,0,0:0:0:0:
224,160,61691,1,8,0:0:0:0:
224,160,61766,1,8,0:0:0:0:
224,224,61841,1,0,0:0:0:0:
224,224,61916,1,0,0:0:0:0:
224,160,61991,1,8,0:0:0:0:
224,224,62066,1,0,0:0:0:0:
224,160,62141,1,8,0:0:0:0:
224,160,62216,1,8,0:0:0:0:
224,224,62291,1,0,0:0:0:0:
224,224,62366,1,0,0:0:0:0:
224,160,62441,1,8,0:0:0:0:
224,224,62516,1,0,0:0:0:0:
224,160,62591,1,8,0:0:0:0:
224,160,62666,1,8,0:0:0:0:
224,224,62741,1,0,0:0:0:0:
224,224,62816,1,0,0:0:0:0:
224,160,62891,1,8,0:0:0:0:
224,160,62966,1,8,0:0:0:0:
224,224,63041,1,0,0:0:0:0:
224,224,63116,1,0,0:0:0:0:
224,160,63191,1,8,0:0:0:0:
224,224,63266,1,0,0:0:0:0:
224,160,63341,1,8,0:0:0:0:
224,160,63416,1,8,0:0:0:0:
224,224,63491,1,0,0:0:0:0:
224,224,63566,1,0,0:0:0:0:
224,160,63641,1,8,0:0:0:0:
224,224,63716,1,0,0:0:0:0:
224,224,63791,1,0,0:0:0:0:
224,160,63866,1,8,0:0:0:0:
224,160,63941,1,8,0:0:0:0:
224,224,64016,1,0,0:0:0:0:
224,160,64091,1,8,0:0:0:0:
224,224,64166,1,0,0:0:0:0:
224,160,64241,1,8,0:0:0:0:
224,160,64316,1,8,0:0:0:0:
224,224,64391,1,0,0:0:0:0:
224,224,64466,1,0,0:0:0:0:
224,160,64541,1,8,0:0:0:0:
224,224,64616,1,0,0:0:0:0:
224,160,64691,1,8,0:0:0:0:
224,160,64766,1,8,0:0:0:0:
224,224,64841,1,0,0:0:0:0:
224,160,64916,1,8,0:0:0:0:
224,224,64991,1,0,0:0:0:0:
224,224,65066,1,0,0:0:0:0:
224,160,65141,1,8,0:0:0:0:
224,224,65216,1,0,0:0:0:0:
224,160,65291,1,8,0:0:0:0:
224,160,65366,1,8,0:0:0:0:
288,224,65441,1,4,0:0:0:0:
224,224,65591,1,0,0:0:0:0:
224,224,65666,1,0,0:0:0:0:
224,160,65741,1,8,0:0:0:0:
224,160,65891,1,8,0:0:0:0:
224,160,65966,1,8,0:0:0:0:
224,224,66041,1,0,0:0:0:0:
224,224,66116,1,0,0:0:0:0:
224,224,66191,1,0,0:0:0:0:
224,224,66266,1,0,0:0:0:0:
224,160,66341,1,8,0:0:0:0:
224,160,66416,1,8,0:0:0:0:
224,160,66491,1,8,0:0:0:0:
224,160,66566,1,8,0:0:0:0:
224,224,66641,1,0,0:0:0:0:
224,224,66716,1,0,0:0:0:0:
224,160,66791,1,8,0:0:0:0:
224,224,66866,1,0,0:0:0:0:
224,160,66941,1,8,0:0:0:0:
224,160,67016,1,8,0:0:0:0:
224,224,67091,1,0,0:0:0:0:
224,224,67166,1,0,0:0:0:0:
224,160,67241,1,8,0:0:0:0:
224,224,67316,1,0,0:0:0:0:
224,160,67391,1,8,0:0:0:0:
224,160,67466,1,8,0:0:0:0:
224,224,67541,1,0,0:0:0:0:
224,224,67616,1,0,0:0:0:0:
224,160,67691,1,8,0:0:0:0:
224,224,67766,1,0,0:0:0:0:
224,160,67841,1,8,0:0:0:0:
224,160,67916,1,8,0:0:0:0:
224,224,67991,1,0,0:0:0:0:
224,224,68066,1,0,0:0:0:0:
224,160,68141,1,8,0:0:0:0:
224,224,68216,1,0,0:0:0:0:
224,160,68291,1,8,0:0:0:0:
224,160,68366,1,8,0:0:0:0:
224,224,68441,1,0,0:0:0:0:
224,224,68516,1,0,0:0:0:0:
224,224,68591,1,0,0:0:0:0:
224,224,68666,1,0,0:0:0:0:
224,160,68741,1,8,0:0:0:0:
224,160,68816,1,8,0:0:0:0:
224,160,68891,1,8,0:0:0:0:
224,160,68966,1,8,0:0:0:0:
224,224,69041,1,0,0:0:0:0:
224,224,69116,1,0,0:0:0:0:
224,160,69191,1,8,0:0:0:0:
224,224,69266,1,0,0:0:0:0:
224,160,69341,1,8,0:0:0:0:
224,224,69416,1,0,0:0:0:0:
224,160,69491,1,8,0:0:0:0:
224,160,69566,1,8,0:0:0:0:
224,224,69641,1,0,0:0:0:0:
224,224,69716,1,0,0:0:0:0:
224,160,69791,1,8,0:0:0:0:
224,224,69866,1,0,0:0:0:0:
224,160,69941,1,8,0:0:0:0:
224,224,70016,1,0,0:0:0:0:
224,160,70091,1,8,0:0:0:0:
224,160,70166,1,8,0:0:0:0:
288,224,70241,1,4,0:0:0:0:
224,224,70391,1,0,0:0:0:0:
224,224,70466,1,0,0:0:0:0:
224,160,70541,1,8,0:0:0:0:
224,160,70691,1,8,0:0:0:0:
224,160,70766,1,8,0:0:0:0:
224,224,70841,1,0,0:0:0:0:
224,224,70916,1,0,0:0:0:0:
224,224,70991,1,0,0:0:0:0:
224,224,71066,1,0,0:0:0:0:
224,160,71141,1,8,0:0:0:0:
224,160,71216,1,8,0:0:0:0:
224,160,71291,1,8,0:0:0:0:
224,160,71366,1,8,0:0:0:0:
224,224,71441,1,0,0:0:0:0:
224,160,71516,1,8,0:0:0:0:
224,224,71591,1,0,0:0:0:0:
224,224,71666,1,0,0:0:0:0:
224,160,71741,1,8,0:0:0:0:
224,160,71816,1,8,0:0:0:0:
224,224,71891,1,0,0:0:0:0:
224,224,71966,1,0,0:0:0:0:
224,160,72041,1,8,0:0:0:0:
224,224,72116,1,0,0:0:0:0:
224,160,72191,1,8,0:0:0:0:
224,160,72266,1,8,0:0:0:0:
224,224,72341,1,0,0:0:0:0:
224,224,72416,1,0,0:0:0:0:
224,160,72491,1,8,0:0:0:0:
224,224,72566,1,0,0:0:0:0:
224,160,72641,1,8,0:0:0:0:
224,160,72716,1,8,0:0:0:0:
224,224,72791,1,0,0:0:0:0:
224,224,72866,1,0,0:0:0:0:
224,160,72941,1,8,0:0:0:0:
224,224,73016,1,0,0:0:0:0:
224,160,73091,1,8,0:0:0:0:
224,160,73166,1,8,0:0:0:0:
224,224,73241,1,0,0:0:0:0:
224,224,73316,1,0,0:0:0:0:
224,160,73391,1,8,0:0:0:0:
224,224,73466,1,0,0:0:0:0:
224,160,73541,1,8,0:0:0:0:
224,160,73616,1,8,0:0:0:0:
224,160,73691,1,8,0:0:0:0:
224,160,73766,1,8,0:0:0:0:
224,224,73841,1,0,0:0:0:0:
224,224,73916,1,0,0:0:0:0:
224,160,73991,1,8,0:0:0:0:
224,160,74066,1,8,0:0:0:0:
224,224,74141,1,0,0:0:0:0:
224,224,74216,1,0,0:0:0:0:
224,224,74291,1,0,0:0:0:0:
224,224,74366,1,0,0:0:0:0:
224,160,74441,1,8,0:0:0:0:
224,160,74516,1,8,0:0:0:0:
224,224,74591,1,0,0:0:0:0:
224,160,74666,1,8,0:0:0:0:
224,160,74741,1,8,0:0:0:0:
224,224,74816,1,0,0:0:0:0:
224,160,74891,1,8,0:0:0:0:
224,160,74966,1,8,0:0:0:0:
224,224,75041,1,0,0:0:0:0:
224,224,75078,1,0,0:0:0:0:
224,224,75341,1,0,0:0:0:0:
224,160,75378,1,8,0:0:0:0:
224,160,75641,1,8,0:0:0:0:
224,224,75678,1,0,0:0:0:0:
224,160,75941,1,8,0:0:0:0:
224,160,75978,1,8,0:0:0:0:
224,160,76091,1,8,0:0:0:0:
224,160,76128,1,8,0:0:0:0:
224,160,76241,1,8,0:0:0:0:
224,224,76278,1,0,0:0:0:0:
224,160,76391,1,8,0:0:0:0:
224,224,76428,1,0,0:0:0:0:
224,224,76541,1,0,0:0:0:0:
224,160,76578,1,8,0:0:0:0:
224,224,76691,1,0,0:0:0:0:
224,160,76728,1,8,0:0:0:0:
224,160,76841,1,8,0:0:0:0:
224,160,76891,1,8,0:0:0:0:
224,160,76941,1,8,0:0:0:0:
224,224,76991,1,0,0:0:0:0:
224,224,77041,1,0,0:0:0:0:
224,224,77091,1,0,0:0:0:0:
224,160,77141,1,8,0:0:0:0:
224,224,77216,1,0,0:0:0:0:
224,160,77291,1,8,0:0:0:0:
224,160,77366,1,8,0:0:0:0:
288,224,77441,1,4,0:0:0:0:
224,160,77591,1,8,0:0:0:0:
224,224,77741,1,0,0:0:0:0:
224,224,77816,1,0,0:0:0:0:
224,160,77891,1,8,0:0:0:0:
224,224,77966,1,0,0:0:0:0:
224,160,78041,1,8,0:0:0:0:
224,224,78191,1,0,0:0:0:0:
224,160,78266,1,8,0:0:0:0:
224,224,78341,1,0,0:0:0:0:
224,224,78416,1,0,0:0:0:0:
224,160,78491,1,8,0:0:0:0:
224,224,78566,1,0,0:0:0:0:
224,160,78641,1,8,0:0:0:0:
224,160,78716,1,8,0:0:0:0:
224,224,78791,1,0,0:0:0:0:
224,160,78866,1,8,0:0:0:0:
224,160,78941,1,8,0:0:0:0:
224,224,79016,1,0,0:0:0:0:
224,160,79091,1,8,0:0:0:0:
224,160,79166,1,8,0:0:0:0:
224,160,79241,1,8,0:0:0:0:
224,160,79391,1,8,0:0:0:0:
224,224,79466,1,0,0:0:0:0:
224,160,79541,1,8,0:0:0:0:
224,160,79616,1,8,0:0:0:0:
224,160,79691,1,8,0:0:0:0:
224,224,79766,1,0,0:0:0:0:
224,160,79841,1,8,0:0:0:0:
224,160,79991,1,8,0:0:0:0:
224,224,80141,1,0,0:0:0:0:
224,224,80216,1,0,0:0:0:0:
224,160,80291,1,8,0:0:0:0:
224,224,80366,1,0,0:0:0:0:
224,160,80441,1,8,0:0:0:0:
224,224,80516,1,0,0:0:0:0:
224,224,80591,1,0,0:0:0:0:
224,160,80666,1,8,0:0:0:0:
224,224,80741,1,0,0:0:0:0:
224,224,80816,1,0,0:0:0:0:
224,160,80891,1,8,0:0:0:0:
224,160,80966,1,8,0:0:0:0:
224,160,81041,1,8,0:0:0:0:
224,160,81191,1,8,0:0:0:0:
224,160,81266,1,8,0:0:0:0:
224,224,81341,1,0,0:0:0:0:
224,160,81416,1,8,0:0:0:0:
224,224,81491,1,0,0:0:0:0:
224,160,81566,1,8,0:0:0:0:
224,160,81641,1,8,0:0:0:0:
224,224,81716,1,0,0:0:0:0:
224,160,81791,1,8,0:0:0:0:
224,160,81866,1,8,0:0:0:0:
224,160,81941,1,8,0:0:0:0:
224,224,82016,1,0,0:0:0:0:
224,160,82091,1,8,0:0:0:0:
224,224,82166,1,0,0:0:0:0:
224,160,82241,1,8,0:0:0:0:
224,160,82316,1,8,0:0:0:0:
224,224,82391,1,0,0:0:0:0:
224,160,82466,1,8,0:0:0:0:
224,224,82541,1,0,0:0:0:0:
224,224,82616,1,0,0:0:0:0:
224,160,82691,1,8,0:0:0:0:
224,160,82766,1,8,0:0:0:0:
224,224,82841,1,0,0:0:0:0:
224,160,82916,1,8,0:0:0:0:
224,224,82991,1,0,0:0:0:0:
224,224,83066,1,0,0:0:0:0:
224,160,83141,1,8,0:0:0:0:
224,160,83216,1,8,0:0:0:0:
224,224,83291,1,0,0:0:0:0:
224,224,83366,1,0,0:0:0:0:
224,160,83441,1,8,0:0:0:0:
224,224,83516,1,0,0:0:0:0:
224,160,83591,1,8,0:0:0:0:
224,160,83666,1,8,0:0:0:0:
224,224,83741,1,0,0:0:0:0:
224,224,83816,1,0,0:0:0:0:
224,160,83891,1,8,0:0:0:0:
224,160,83966,1,8,0:0:0:0:
224,224,84041,1,0,0:0:0:0:
224,224,84116,1,0,0:0:0:0:
224,160,84191,1,8,0:0:0:0:
224,160,84266,1,8,0:0:0:0:
224,160,84341,1,8,0:0:0:0:
224,224,84416,1,0,0:0:0:0:
224,160,84491,1,8,0:0:0:0:
224,160,84566,1,8,0:0:0:0:
224,224,84641,1,0,0:0:0:0:
224,160,84716,1,8,0:0:0:0:
224,224,84791,1,0,0:0:0:0:
224,224,84866,1,0,0:0:0:0:
224,160,84941,1,8,0:0:0:0:
224,224,85016,1,0,0:0:0:0:
224,160,85091,1,8,0:0:0:0:
224,224,85166,1,0,0:0:0:0:
224,160,85241,1,8,0:0:0:0:
224,224,85316,1,0,0:0:0:0:
224,224,85391,1,0,0:0:0:0:
224,160,85466,1,8,0:0:0:0:
224,224,85541,1,0,0:0:0:0:
224,224,85616,1,0,0:0:0:0:
224,160,85691,1,8,0:0:0:0:
224,160,85766,1,8,0:0:0:0:
288,224,85841,1,4,0:0:0:0:
224,224,86066,1,0,0:0:0:0:
224,160,86141,1,8,0:0:0:0:
288,224,86291,1,4,0:0:0:0:
224,224,86516,1,0,0:0:0:0:
224,224,86591,1,0,0:0:0:0:
288,160,86741,1,12,0:0:0:0:
288,160,86891,1,12,0:0:0:0:
288,224,87041,1,4,0:0:0:0:
224,224,87341,1,0,0:0:0:0:
224,160,87491,1,8,0:0:0:0:
224,160,87566,1,8,0:0:0:0:
224,160,87641,1,8,0:0:0:0:
224,224,87791,1,0,0:0:0:0:
224,160,87866,1,8,0:0:0:0:
224,224,87941,1,0,0:0:0:0:
224,224,88016,1,0,0:0:0:0:
224,160,88091,1,8,0:0:0:0:
224,224,88166,1,0,0:0:0:0:
224,160,88241,1,8,0:0:0:0:
224,224,88391,1,0,0:0:0:0:
224,160,88466,1,8,0:0:0:0:
224,224,88541,1,0,0:0:0:0:
224,224,88616,1,0,0:0:0:0:
224,160,88691,1,8,0:0:0:0:
224,160,88766,1,8,0:0:0:0:
224,224,88841,1,0,0:0:0:0:
224,160,88916,1,8,0:0:0:0:
224,224,88991,1,0,0:0:0:0:
224,224,89066,1,0,0:0:0:0:
224,160,89141,1,8,0:0:0:0:
224,224,89216,1,0,0:0:0:0:
224,160,89291,1,8,0:0:0:0:
224,224,89366,1,0,0:0:0:0:
224,224,89441,1,0,0:0:0:0:
224,160,89591,1,8,0:0:0:0:
224,160,89666,1,8,0:0:0:0:
224,224,89741,1,0,0:0:0:0:
224,160,89816,1,8,0:0:0:0:
224,160,89891,1,8,0:0:0:0:
224,224,89966,1,0,0:0:0:0:
224,160,90041,1,8,0:0:0:0:
224,160,90116,1,8,0:0:0:0:
224,224,90191,1,0,0:0:0:0:
224,224,90266,1,0,0:0:0:0:
224,160,90341,1,8,0:0:0:0:
224,224,90416,1,0,0:0:0:0:
224,160,90491,1,8,0:0:0:0:
224,160,90566,1,8,0:0:0:0:
224,160,90791,1,8,0:0:0:0:
224,160,90941,1,8,0:0:0:0:
224,160,91016,1,8,0:0:0:0:
224,224,91091,1,0,0:0:0:0:
224,224,91166,1,0,0:0:0:0:
224,160,91241,1,8,0:0:0:0:
224,224,91316,1,0,0:0:0:0:
224,160,91391,1,8,0:0:0:0:
224,160,91466,1,8,0:0:0:0:
224,224,91541,1,0,0:0:0:0:
224,160,91616,1,8,0:0:0:0:
224,224,91691,1,0,0:0:0:0:
224,224,91766,1,0,0:0:0:0:
224,160,91841,1,8,0:0:0:0:
224,224,91916,1,0,0:0:0:0:
224,224,91991,1,0,0:0:0:0:
224,160,92141,1,8,0:0:0:0:
224,224,92216,1,0,0:0:0:0:
224,224,92291,1,0,0:0:0:0:
224,160,92366,1,8,0:0:0:0:
224,160,92441,1,8,0:0:0:0:
224,160,92591,1,8,0:0:0:0:
224,224,92666,1,0,0:0:0:0:
224,224,92741,1,0,0:0:0:0:
224,160,92891,1,8,0:0:0:0:
224,224,92966,1,0,0:0:0:0:
224,224,93041,1,0,0:0:0:0:
224,160,93191,1,8,0:0:0:0:
224,160,93266,1,8,0:0:0:0:
224,224,93341,1,0,0:0:0:0:
224,160,93491,1,8,0:0:0:0:
224,160,93566,1,8,0:0:0:0:
224,224,93641,1,0,0:0:0:0:
224,160,93791,1,8,0:0:0:0:
224,224,93866,1,0,0:0:0:0:
224,160,93941,1,8,0:0:0:0:
224,224,94016,1,0,0:0:0:0:
224,160,94091,1,8,0:0:0:0:
224,224,94241,1,0,0:0:0:0:
224,224,94316,1,0,0:0:0:0:
224,160,94391,1,8,0:0:0:0:
224,224,94466,1,0,0:0:0:0:
224,160,94541,1,8,0:0:0:0:
224,160,94616,1,8,0:0:0:0:
224,224,94691,1,0,0:0:0:0:
224,160,94766,1,8,0:0:0:0:
224,224,94841,1,0,0:0:0:0:
224,224,94916,1,0,0:0:0:0:
224,160,94991,1,8,0:0:0:0:
224,224,95066,1,0,0:0:0:0:
224,160,95141,1,8,0:0:0:0:
224,160,95216,1,8,0:0:0:0:
224,224,95291,1,0,0:0:0:0:
224,224,95366,1,0,0:0:0:0:
224,160,95441,1,8,0:0:0:0:
224,160,95516,1,8,0:0:0:0:
224,160,95591,1,8,0:0:0:0:
224,160,95666,1,8,0:0:0:0:
224,160,95741,1,8,0:0:0:0:
224,160,95816,1,8,0:0:0:0:
224,160,95891,1,8,0:0:0:0:
224,160,95966,1,8,0:0:0:0:
224,160,96041,1,8,0:0:0:0:
224,160,96116,1,8,0:0:0:0:
224,160,96191,1,8,0:0:0:0:
224,160,96266,1,8,0:0:0:0:
224,224,96341,1,0,0:0:0:0:
224,160,96378,1,8,0:0:0:0:
224,224,96491,1,0,0:0:0:0:
288,224,96641,1,4,0:0:0:0:
224,160,96941,1,8,0:0:0:0:
224,160,97091,1,8,0:0:0:0:
224,160,97166,1,8,0:0:0:0:
224,224,97241,1,0,0:0:0:0:
224,160,97316,1,8,0:0:0:0:
224,224,97391,1,0,0:0:0:0:
224,160,97541,1,8,0:0:0:0:
224,160,97691,1,8,0:0:0:0:
224,224,97841,1,0,0:0:0:0:
224,224,97991,1,0,0:0:0:0:
224,160,98141,1,8,0:0:0:0:
224,160,98216,1,8,0:0:0:0:
224,224,98291,1,0,0:0:0:0:
224,160,98366,1,8,0:0:0:0:
224,224,98441,1,0,0:0:0:0:
224,224,98491,1,0,0:0:0:0:
224,160,98541,1,0,0:0:0:0:
224,160,98591,1,0,0:0:0:0:
224,160,98741,1,8,0:0:0:0:
224,224,98816,1,0,0:0:0:0:
224,224,98891,1,0,0:0:0:0:
224,160,98966,1,8,0:0:0:0:
224,224,99041,1,0,0:0:0:0:
224,160,99191,1,8,0:0:0:0:
224,224,99228,1,0,0:0:0:0:
224,160,99341,1,8,0:0:0:0:
224,224,99491,1,0,0:0:0:0:
224,224,99566,1,0,0:0:0:0:
224,160,99641,1,8,0:0:0:0:
224,224,99716,1,0,0:0:0:0:
224,160,99791,1,8,0:0:0:0:
224,160,99866,1,8,0:0:0:0:
224,224,99941,1,0,0:0:0:0:
224,224,100091,1,0,0:0:0:0:
224,160,100128,1,8,0:0:0:0:
224,224,100241,1,0,0:0:0:0:
224,224,100316,1,0,0:0:0:0:
224,160,100391,1,8,0:0:0:0:
224,224,100541,1,0,0:0:0:0:
224,160,100691,1,8,0:0:0:0:
224,224,100841,1,0,0:0:0:0:
224,160,100916,1,8,0:0:0:0:
224,160,100991,1,8,0:0:0:0:
224,224,101066,1,0,0:0:0:0:
224,160,101141,1,8,0:0:0:0:
224,160,101291,1,8,0:0:0:0:
288,224,101441,1,4,0:0:0:0:
224,160,101741,1,8,0:0:0:0:
224,160,101891,1,8,0:0:0:0:
224,160,101966,1,8,0:0:0:0:
224,224,102041,1,0,0:0:0:0:
224,160,102116,1,8,0:0:0:0:
224,224,102191,1,0,0:0:0:0:
224,160,102341,1,8,0:0:0:0:
224,160,102491,1,8,0:0:0:0:
224,224,102641,1,0,0:0:0:0:
224,224,102791,1,0,0:0:0:0:
224,160,102941,1,8,0:0:0:0:
224,160,103016,1,8,0:0:0:0:
224,224,103091,1,0,0:0:0:0:
224,160,103166,1,8,0:0:0:0:
224,224,103241,1,0,0:0:0:0:
224,224,103291,1,0,0:0:0:0:
224,160,103341,1,0,0:0:0:0:
224,224,103391,1,0,0:0:0:0:
224,160,103541,1,8,0:0:0:0:
224,224,103616,1,0,0:0:0:0:
224,224,103691,1,0,0:0:0:0:
224,160,103766,1,8,0:0:0:0:
224,224,103841,1,0,0:0:0:0:
224,224,103991,1,0,0:0:0:0:
224,160,104028,1,8,0:0:0:0:
224,160,104141,1,8,0:0:0:0:
224,224,104216,1,0,0:0:0:0:
224,160,104291,1,8,0:0:0:0:
224,160,104441,1,8,0:0:0:0:
224,160,104516,1,8,0:0:0:0:
224,224,104591,1,0,0:0:0:0:
224,224,104741,1,0,0:0:0:0:
224,160,104891,1,8,0:0:0:0:
224,224,105041,1,0,0:0:0:0:
224,160,105191,1,8,0:0:0:0:
224,160,105341,1,8,0:0:0:0:
224,224,105491,1,0,0:0:0:0:
224,224,105566,1,0,0:0:0:0:
224,224,105641,1,0,0:0:0:0:
224,160,105716,1,8,0:0:0:0:
224,224,105791,1,0,0:0:0:0:
224,224,105866,1,0,0:0:0:0:
224,160,105941,1,8,0:0:0:0:
224,160,106091,1,8,0:0:0:0:
288,224,106241,1,4,0:0:0:0:
224,160,106391,1,8,0:0:0:0:
224,160,106541,1,8,0:0:0:0:
224,224,106691,1,0,0:0:0:0:
224,224,106766,1,0,0:0:0:0:
224,160,106841,1,8,0:0:0:0:
224,224,106916,1,0,0:0:0:0:
224,160,106991,1,8,0:0:0:0:
224,160,107066,1,8,0:0:0:0:
224,224,107141,1,0,0:0:0:0:
224,160,107291,1,8,0:0:0:0:
224,224,107441,1,0,0:0:0:0:
224,160,107591,1,8,0:0:0:0:
224,160,107741,1,8,0:0:0:0:
224,160,107816,1,8,0:0:0:0:
224,224,107891,1,0,0:0:0:0:
224,160,107966,1,8,0:0:0:0:
224,224,108041,1,0,0:0:0:0:
224,224,108091,1,0,0:0:0:0:
224,160,108141,1,0,0:0:0:0:
224,160,108191,1,0,0:0:0:0:
224,160,108341,1,8,0:0:0:0:
224,224,108416,1,0,0:0:0:0:
224,224,108491,1,0,0:0:0:0:
224,160,108566,1,8,0:0:0:0:
224,224,108641,1,0,0:0:0:0:
224,160,108791,1,8,0:0:0:0:
224,224,108828,1,0,0:0:0:0:
224,160,108941,1,8,0:0:0:0:
224,224,109091,1,0,0:0:0:0:
224,224,109166,1,0,0:0:0:0:
224,160,109241,1,8,0:0:0:0:
224,224,109316,1,0,0:0:0:0:
224,160,109391,1,8,0:0:0:0:
224,160,109466,1,8,0:0:0:0:
224,224,109541,1,0,0:0:0:0:
224,224,109691,1,0,0:0:0:0:
224,160,109728,1,8,0:0:0:0:
224,224,109841,1,0,0:0:0:0:
224,224,109916,1,0,0:0:0:0:
224,160,109991,1,8,0:0:0:0:
224,224,110141,1,0,0:0:0:0:
224,224,110216,1,0,0:0:0:0:
224,160,110291,1,8,0:0:0:0:
224,224,110366,1,0,0:0:0:0:
224,224,110441,1,0,0:0:0:0:
224,160,110516,1,8,0:0:0:0:
224,160,110591,1,8,0:0:0:0:
224,224,110666,1,0,0:0:0:0:
224,160,110741,1,8,0:0:0:0:
224,160,110891,1,8,0:0:0:0:
288,224,111041,1,4,0:0:0:0:
224,160,111191,1,8,0:0:0:0:
224,160,111341,1,8,0:0:0:0:
224,224,111491,1,0,0:0:0:0:
224,160,111641,1,8,0:0:0:0:
224,224,111716,1,0,0:0:0:0:
224,160,111791,1,8,0:0:0:0:
224,160,111866,1,8,0:0:0:0:
224,224,111941,1,0,0:0:0:0:
224,160,112091,1,8,0:0:0:0:
224,224,112241,1,0,0:0:0:0:
224,160,112391,1,8,0:0:0:0:
224,160,112541,1,8,0:0:0:0:
224,160,112616,1,8,0:0:0:0:
224,224,112691,1,0,0:0:0:0:
224,160,112766,1,8,0:0:0:0:
224,224,112841,1,0,0:0:0:0:
224,224,112891,1,0,0:0:0:0:
224,160,112941,1,0,0:0:0:0:
224,160,112991,1,0,0:0:0:0:
224,160,113141,1,8,0:0:0:0:
224,224,113216,1,0,0:0:0:0:
224,160,113291,1,8,0:0:0:0:
224,160,113366,1,8,0:0:0:0:
224,224,113441,1,0,0:0:0:0:
224,224,113591,1,0,0:0:0:0:
224,160,113628,1,8,0:0:0:0:
224,160,113741,1,8,0:0:0:0:
224,224,113816,1,0,0:0:0:0:
224,160,113891,1,8,0:0:0:0:
224,160,114041,1,8,0:0:0:0:
224,224,114116,1,0,0:0:0:0:
224,224,114191,1,0,0:0:0:0:
224,224,114341,1,0,0:0:0:0:
224,160,114491,1,8,0:0:0:0:
224,160,114528,1,8,0:0:0:0:
224,224,114641,1,0,0:0:0:0:
224,160,114791,1,8,0:0:0:0:
224,160,114941,1,8,0:0:0:0:
224,224,115091,1,0,0:0:0:0:
224,224,115166,1,0,0:0:0:0:
224,224,115241,1,0,0:0:0:0:
224,160,115316,1,8,0:0:0:0:
224,224,115391,1,0,0:0:0:0:
224,224,115466,1,0,0:0:0:0:
224,160,115541,1,8,0:0:0:0:
224,160,115691,1,8,0:0:0:0:
288,224,115841,1,4,0:0:0:0:
256,192,115991,8,0,118241,0:0:0:0:
