osu file format v14

[General]
AudioFilename: audio.mp3
AudioLeadIn: 0
PreviewTime: 25027
Countdown: 0
SampleSet: Normal
StackLeniency: 0.7
Mode: 3
LetterboxInBreaks: 0
SpecialStyle: 0
WidescreenStoryboard: 0

[Editor]
DistanceSpacing: 0.8
BeatDivisor: 4
GridSize: 32
TimelineZoom: 1

[Metadata]
Title:Anokumene
TitleUnicode:Anökumene
Artist:Jun Kuroda
ArtistUnicode:Jun Kuroda
Creator:eliteXproX
Version:Desolate
Source:BMS of Fighters Ultimate 2016
Tags:junkuroda anokumene BOFU2016 BMS
BeatmapID:3693301
BeatmapSetID:1801322

[Difficulty]
HPDrainRate:8
CircleSize:7
OverallDifficulty:7
ApproachRate:6
SliderMultiplier:1.4
SliderTickRate:1

[Events]
//Background and Video events
0,0,"anokumene.png",0,0
//Break Periods
2,66517,70428
//Storyboard Layer 0 (Background)
//Storyboard Layer 1 (Fail)
//Storyboard Layer 2 (Pass)
//Storyboard Layer 3 (Foreground)
//Storyboard Layer 4 (Overlay)
//Storyboard Sound Samples

[TimingPoints]
0,322.58064516129,4,1,0,100,1,0
22419,1200,4,1,0,100,1,0
22419,-100,4,1,0,100,0,0
24866,322.58064516129,4,1,0,100,1,1
112688,1200,4,1,0,100,1,0
115185,322.58064516129,4,1,0,100,1,0

[HitObjects]
36,192,1774,5,4,0:0:0:0:
475,192,1774,1,4,0:0:0:0:
329,192,1774,1,4,0:0:0:0:
109,192,2096,1,0,0:0:0:0:
256,192,2419,1,0,0:0:0:0:
402,192,2741,1,0,0:0:0:0:
329,192,3387,1,0,0:0:0:0:
36,192,3709,1,0,0:0:0:0:
182,192,4032,1,0,0:0:0:0:
36,192,4677,1,0,0:0:0:0:
182,192,5000,1,0,0:0:0:0:
256,192,5322,1,0,0:0:0:0:
329,192,5806,1,0,0:0:0:0:
182,192,5806,1,0,0:0:0:0:
256,192,5967,1,0,0:0:0:0:
182,192,6290,1,0,0:0:0:0:
36,192,6612,1,0,0:0:0:0:
182,192,7258,1,0,0:0:0:0:
329,192,7580,1,0,0:0:0:0:
475,192,7903,1,0,0:0:0:0:
256,192,8548,1,0,0:0:0:0:
182,192,8870,1,0,0:0:0:0:
256,192,9193,1,0,0:0:0:0:
329,192,9838,1,0,0:0:0:0:
36,192,10161,1,0,0:0:0:0:
475,192,10483,1,0,0:0:0:0:
182,192,10967,1,0,0:0:0:0:
329,192,10967,1,0,0:0:0:0:
256,192,11129,1,0,0:0:0:0:
109,192,11451,1,0,0:0:0:0:
402,192,11774,1,0,0:0:0:0:
109,192,12096,1,4,0:0:0:0:
402,192,12096,1,4,0:0:0:0:
256,192,12096,1,4,0:0:0:0:
402,192,12903,1,0,0:0:0:0:
402,192,13064,1,0,0:0:0:0:
109,192,13225,1,0,0:0:0:0:
109,192,13387,1,0,0:0:0:0:
182,192,13440,1,0,0:0:0:0:
256,192,13548,1,0,0:0:0:0:
475,192,13870,1,0,0:0:0:0:
109,192,14677,1,0,0:0:0:0:
402,192,14758,1,0,0:0:0:0:
182,192,14838,1,0,0:0:0:0:
329,192,14919,1,0,0:0:0:0:
256,192,15000,1,0,0:0:0:0:
402,192,15080,1,0,0:0:0:0:
182,192,15161,1,0,0:0:0:0:
402,192,15241,1,0,0:0:0:0:
256,192,15322,1,0,0:0:0:0:
402,192,15403,1,0,0:0:0:0:
182,192,15483,1,0,0:0:0:0:
36,192,15564,1,0,0:0:0:0:
109,192,15645,1,0,0:0:0:0:
256,192,15725,1,0,0:0:0:0:
402,192,15806,1,0,0:0:0:0:
475,192,15887,1,0,0:0:0:0:
402,192,15967,1,0,0:0:0:0:
329,192,16048,1,0,0:0:0:0:
402,192,16129,1,0,0:0:0:0:
475,192,16209,1,0,0:0:0:0:
402,192,16290,1,0,0:0:0:0:
329,192,16370,1,0,0:0:0:0:
256,192,16451,1,0,0:0:0:0:
182,192,16532,1,0,0:0:0:0:
109,192,16612,1,0,0:0:0:0:
36,192,16693,1,0,0:0:0:0:
109,192,16774,1,0,0:0:0:0:
256,192,16854,1,0,0:0:0:0:
182,192,16935,1,0,0:0:0:0:
329,192,17016,1,0,0:0:0:0:
182,192,17096,1,0,0:0:0:0:
402,192,17177,1,0,0:0:0:0:
36,192,17258,1,0,0:0:0:0:
182,192,17338,1,0,0:0:0:0:
256,192,17580,1,0,0:0:0:0:
256,192,17741,1,0,0:0:0:0:
256,192,17903,1,0,0:0:0:0:
256,192,18225,1,0,0:0:0:0:
256,192,18548,128,0,18870:0:0:0:0:
256,192,18951,1,0,0:0:0:0:
256,192,19274,1,0,0:0:0:0:
256,192,19435,1,0,0:0:0:0:
256,192,19596,1,0,0:0:0:0:
256,192,20161,1,0,0:0:0:0:
256,192,20322,1,0,0:0:0:0:
256,192,20483,1,0,0:0:0:0:
256,192,20806,1,0,0:0:0:0:
256,192,21129,128,0,21451:0:0:0:0:
256,192,21532,1,0,0:0:0:0:
256,192,21854,1,0,0:0:0:0:
256,192,22016,1,0,0:0:0:0:
256,192,22177,1,0,0:0:0:0:
36,192,22419,128,4,24519:0:0:0:0:
475,192,22419,128,4,24519:0:0:0:0:
329,192,22419,128,4,24519:0:0:0:0:
182,192,22419,128,4,24519:0:0:0:0:
329,192,24677,1,4,0:0:0:0:
256,192,24838,1,4,0:0:0:0:
109,192,24999,1,0,0:0:0:0:
329,192,24999,1,0,0:0:0:0:
256,192,25483,1,0,0:0:0:0:
475,192,25483,1,0,0:0:0:0:
109,192,25645,1,0,0:0:0:0:
329,192,25645,1,0,0:0:0:0:
182,192,25806,1,0,0:0:0:0:
329,192,25806,1,0,0:0:0:0:
36,192,26129,1,0,0:0:0:0:
256,192,26129,1,0,0:0:0:0:
36,192,26451,1,0,0:0:0:0:
475,192,26451,1,0,0:0:0:0:
402,192,26774,1,0,0:0:0:0:
36,192,26774,1,0,0:0:0:0:
329,192,26935,1,0,0:0:0:0:
36,192,26935,1,0,0:0:0:0:
36,192,27096,1,0,0:0:0:0:
256,192,27096,1,0,0:0:0:0:
36,192,27258,1,0,0:0:0:0:
182,192,27258,1,0,0:0:0:0:
36,192,27419,1,0,0:0:0:0:
109,192,27419,1,0,0:0:0:0:
36,192,27580,1,0,0:0:0:0:
475,192,27580,1,0,0:0:0:0:
475,192,28064,1,0,0:0:0:0:
329,192,28064,1,0,0:0:0:0:
182,192,28548,1,0,0:0:0:0:
329,192,28548,1,0,0:0:0:0:
256,192,28870,1,0,0:0:0:0:
475,192,28870,1,0,0:0:0:0:
36,192,29032,1,0,0:0:0:0:
182,192,29032,1,0,0:0:0:0:
256,192,29193,1,0,0:0:0:0:
475,192,29193,1,0,0:0:0:0:
182,192,29354,1,0,0:0:0:0:
109,192,29354,1,0,0:0:0:0:
256,192,29677,1,0,0:0:0:0:
475,192,29677,1,0,0:0:0:0:
256,192,29999,1,0,0:0:0:0:
36,192,29999,1,0,0:0:0:0:
256,192,30161,1,0,0:0:0:0:
109,192,30161,1,0,0:0:0:0:
475,192,30322,128,0,32177:0:0:0:0:
182,192,31129,1,0,0:0:0:0:
256,192,31129,1,0,0:0:0:0:
182,192,32419,128,0,32741:0:0:0:0:
329,192,32419,128,0,32741:0:0:0:0:
256,192,33225,1,0,0:0:0:0:
402,192,33225,1,0,0:0:0:0:
109,192,33709,1,0,0:0:0:0:
256,192,33709,1,0,0:0:0:0:
182,192,34193,1,0,0:0:0:0:
475,192,34193,1,0,0:0:0:0:
329,192,34677,1,0,0:0:0:0:
182,192,34677,1,0,0:0:0:0:
36,192,34838,1,0,0:0:0:0:
182,192,34838,1,0,0:0:0:0:
329,192,35161,1,0,0:0:0:0:
475,192,35161,1,0,0:0:0:0:
109,192,35322,1,0,0:0:0:0:
256,192,35322,1,0,0:0:0:0:
182,192,35806,1,0,0:0:0:0:
256,192,35806,1,0,0:0:0:0:
256,192,35967,1,0,0:0:0:0:
402,192,35967,1,0,0:0:0:0:
36,192,36129,1,0,0:0:0:0:
182,192,36129,1,0,0:0:0:0:
256,192,36451,1,0,0:0:0:0:
475,192,36451,1,0,0:0:0:0:
36,192,36774,1,0,0:0:0:0:
475,192,36774,1,0,0:0:0:0:
475,192,37096,1,0,0:0:0:0:
109,192,37096,1,0,0:0:0:0:
475,192,37258,1,0,0:0:0:0:
182,192,37258,1,0,0:0:0:0:
475,192,37419,1,0,0:0:0:0:
256,192,37419,1,0,0:0:0:0:
475,192,37580,1,0,0:0:0:0:
329,192,37580,1,0,0:0:0:0:
475,192,37741,1,0,0:0:0:0:
402,192,37741,1,0,0:0:0:0:
475,192,37903,1,0,0:0:0:0:
36,192,37903,1,0,0:0:0:0:
182,192,38387,1,0,0:0:0:0:
329,192,38387,1,0,0:0:0:0:
109,192,38870,1,0,0:0:0:0:
402,192,38870,1,0,0:0:0:0:
109,192,39193,1,0,0:0:0:0:
402,192,39193,1,0,0:0:0:0:
182,192,39354,1,0,0:0:0:0:
329,192,39354,1,0,0:0:0:0:
109,192,39516,1,0,0:0:0:0:
402,192,39516,1,0,0:0:0:0:
475,192,39677,1,0,0:0:0:0:
36,192,39677,1,0,0:0:0:0:
182,192,39999,1,0,0:0:0:0:
329,192,39999,1,0,0:0:0:0:
109,192,40322,1,0,0:0:0:0:
475,192,40322,1,0,0:0:0:0:
182,192,40483,1,0,0:0:0:0:
256,192,40483,1,0,0:0:0:0:
329,192,41129,1,0,0:0:0:0:
402,192,41129,1,0,0:0:0:0:
109,192,41774,1,0,0:0:0:0:
182,192,41774,1,0,0:0:0:0:
256,192,42096,1,0,0:0:0:0:
329,192,42096,1,0,0:0:0:0:
182,192,42419,1,0,0:0:0:0:
256,192,42419,1,0,0:0:0:0:
475,192,42741,1,0,0:0:0:0:
402,192,42741,1,0,0:0:0:0:
256,192,42903,1,0,0:0:0:0:
329,192,42903,1,0,0:0:0:0:
109,192,43387,1,0,0:0:0:0:
182,192,43387,1,0,0:0:0:0:
475,192,43548,1,0,0:0:0:0:
36,192,43548,1,0,0:0:0:0:
329,192,43870,1,0,0:0:0:0:
329,192,44032,1,0,0:0:0:0:
182,192,44193,1,0,0:0:0:0:
329,192,44274,1,0,0:0:0:0:
182,192,44354,1,0,0:0:0:0:
329,192,44435,1,0,0:0:0:0:
182,192,44516,1,0,0:0:0:0:
329,192,44596,1,0,0:0:0:0:
182,192,44677,1,0,0:0:0:0:
182,192,44838,1,0,0:0:0:0:
329,192,44919,1,0,0:0:0:0:
182,192,44999,1,0,0:0:0:0:
329,192,45080,1,0,0:0:0:0:
182,192,45161,128,0,45645:0:0:0:0:
402,192,45241,1,0,0:0:0:0:
329,192,45322,1,0,0:0:0:0:
475,192,45403,1,0,0:0:0:0:
402,192,45483,1,0,0:0:0:0:
329,192,45645,1,4,0:0:0:0:
475,192,45645,1,4,0:0:0:0:
182,192,46129,1,0,0:0:0:0:
182,192,46612,1,0,0:0:0:0:
182,192,46935,128,0,49838:0:0:0:0:
329,192,48225,1,8,0:0:0:0:
402,192,48387,1,8,0:0:0:0:
475,192,48548,1,8,0:0:0:0:
256,192,48870,1,8,0:0:0:0:
402,192,49193,1,8,0:0:0:0:
182,192,50806,1,4,0:0:0:0:
475,192,50806,1,4,0:0:0:0:
329,192,50806,1,4,0:0:0:0:
36,192,50806,1,4,0:0:0:0:
256,192,51290,1,0,0:0:0:0:
256,192,51774,1,0,0:0:0:0:
256,192,52096,128,0,55645:0:0:0:0:
329,192,53709,1,8,0:0:0:0:
402,192,53870,1,8,0:0:0:0:
109,192,54032,1,8,0:0:0:0:
36,192,54354,1,8,0:0:0:0:
329,192,54677,128,8,54999:0:0:0:0:
402,192,55161,128,8,55645:0:0:0:0:
329,192,55645,1,4,0:0:0:0:
182,192,55645,1,4,0:0:0:0:
256,192,55967,1,4,0:0:0:0:
475,192,56048,128,8,56129:0:0:0:0:
402,192,56129,128,8,56209:0:0:0:0:
256,192,56451,1,4,0:0:0:0:
36,192,56532,128,8,56612:0:0:0:0:
109,192,56612,128,8,56693:0:0:0:0:
256,192,56935,1,4,0:0:0:0:
475,192,57016,128,8,57096:0:0:0:0:
402,192,57096,128,8,57177:0:0:0:0:
256,192,57419,1,4,0:0:0:0:
36,192,57499,128,8,57580:0:0:0:0:
109,192,57580,128,8,57661:0:0:0:0:
256,192,57741,1,4,0:0:0:0:
329,192,57822,1,4,0:0:0:0:
182,192,57822,1,4,0:0:0:0:
256,192,57903,1,4,0:0:0:0:
475,192,57983,128,8,58064:0:0:0:0:
402,192,58064,128,8,58145:0:0:0:0:
109,192,58064,1,4,0:0:0:0:
182,192,58064,1,4,0:0:0:0:
256,192,58225,1,4,0:0:0:0:
329,192,58225,1,4,0:0:0:0:
256,192,58495,1,4,0:0:0:0:
36,192,58575,128,8,58656:0:0:0:0:
109,192,58656,128,8,58736:0:0:0:0:
256,192,58978,1,4,0:0:0:0:
475,192,59059,128,8,59140:0:0:0:0:
402,192,59140,128,8,59220:0:0:0:0:
256,192,59462,1,4,0:0:0:0:
36,192,59543,128,8,59624:0:0:0:0:
109,192,59624,128,8,59704:0:0:0:0:
256,192,59946,1,4,0:0:0:0:
475,192,60027,128,8,60107:0:0:0:0:
402,192,60107,128,8,60188:0:0:0:0:
329,192,60349,1,0,0:0:0:0:
329,192,60430,1,0,0:0:0:0:
329,192,60511,1,4,0:0:0:0:
182,192,60672,1,0,0:0:0:0:
256,192,60672,1,0,0:0:0:0:
109,192,60833,128,0,61156:0:0:0:0:
256,192,61156,1,4,0:0:0:0:
402,192,61236,128,8,61317:0:0:0:0:
329,192,61317,128,8,61398:0:0:0:0:
256,192,61640,1,4,0:0:0:0:
109,192,61720,128,8,61801:0:0:0:0:
182,192,61801,128,8,61882:0:0:0:0:
256,192,62124,1,4,0:0:0:0:
402,192,62204,128,8,62285:0:0:0:0:
329,192,62285,128,8,62365:0:0:0:0:
256,192,62607,1,4,0:0:0:0:
109,192,62688,128,8,62769:0:0:0:0:
182,192,62769,128,8,62849:0:0:0:0:
475,192,62930,1,0,0:0:0:0:
36,192,62930,1,0,0:0:0:0:
475,192,63011,1,0,0:0:0:0:
36,192,63011,1,0,0:0:0:0:
109,192,63091,1,4,0:0:0:0:
402,192,63091,1,4,0:0:0:0:
256,192,63253,1,0,0:0:0:0:
109,192,63414,1,4,0:0:0:0:
402,192,63414,1,4,0:0:0:0:
256,192,63736,1,4,0:0:0:0:
329,192,63817,128,8,63898:0:0:0:0:
256,192,63898,128,8,63978:0:0:0:0:
256,192,64220,1,4,0:0:0:0:
182,192,64301,128,8,64382:0:0:0:0:
256,192,64382,128,8,64462:0:0:0:0:
256,192,64704,1,4,0:0:0:0:
329,192,64785,128,8,64865:0:0:0:0:
256,192,64865,128,8,64946:0:0:0:0:
256,192,65188,1,4,0:0:0:0:
182,192,65269,128,8,65349:0:0:0:0:
256,192,65349,128,8,65430:0:0:0:0:
475,192,65511,1,0,0:0:0:0:
36,192,65511,1,0,0:0:0:0:
36,192,65591,1,0,0:0:0:0:
475,192,65591,1,0,0:0:0:0:
182,192,65672,1,4,0:0:0:0:
329,192,65672,1,4,0:0:0:0:
256,192,65833,1,0,0:0:0:0:
109,192,65833,1,0,0:0:0:0:
402,192,65833,1,0,0:0:0:0:
182,192,65995,128,4,66317:0:0:0:0:
329,192,65995,128,4,66317:0:0:0:0:
475,192,65995,1,0,0:0:0:0:
36,192,65995,1,4,0:0:0:0:
36,192,66317,1,4,0:0:0:0:
475,192,66317,1,4,0:0:0:0:
256,192,71478,5,4,0:0:0:0:
109,192,71478,5,4,0:0:0:0:
402,192,71478,5,4,0:0:0:0:
475,192,71478,5,4,0:0:0:0:
36,192,71478,5,4,0:0:0:0:
329,192,71640,1,0,0:0:0:0:
329,192,71801,1,0,0:0:0:0:
329,192,71962,1,0,0:0:0:0:
329,192,72124,1,0,0:0:0:0:
329,192,72285,1,0,0:0:0:0:
329,192,72446,1,0,0:0:0:0:
329,192,72607,1,0,0:0:0:0:
182,192,72769,1,4,0:0:0:0:
329,192,72769,1,0,0:0:0:0:
329,192,72930,1,0,0:0:0:0:
329,192,73091,1,0,0:0:0:0:
329,192,73253,1,0,0:0:0:0:
329,192,73414,1,0,0:0:0:0:
329,192,73575,1,0,0:0:0:0:
329,192,73736,1,0,0:0:0:0:
329,192,73898,1,0,0:0:0:0:
329,192,74059,1,0,0:0:0:0:
182,192,74059,1,4,0:0:0:0:
182,192,74140,1,0,0:0:0:0:
329,192,74220,1,0,0:0:0:0:
182,192,74301,1,0,0:0:0:0:
329,192,74382,1,0,0:0:0:0:
182,192,74462,1,0,0:0:0:0:
329,192,74543,1,0,0:0:0:0:
182,192,74624,1,0,0:0:0:0:
329,192,74704,1,0,0:0:0:0:
182,192,74785,1,0,0:0:0:0:
329,192,74865,1,0,0:0:0:0:
182,192,74946,1,0,0:0:0:0:
329,192,75027,1,0,0:0:0:0:
182,192,75107,1,0,0:0:0:0:
329,192,75188,1,0,0:0:0:0:
182,192,75269,1,0,0:0:0:0:
402,192,75349,1,0,0:0:0:0:
109,192,75430,1,0,0:0:0:0:
402,192,75511,1,0,0:0:0:0:
109,192,75591,1,0,0:0:0:0:
402,192,75672,1,0,0:0:0:0:
109,192,75753,1,0,0:0:0:0:
475,192,75833,1,0,0:0:0:0:
36,192,75914,1,0,0:0:0:0:
36,192,76075,1,0,0:0:0:0:
475,192,76156,1,0,0:0:0:0:
36,192,76236,1,0,0:0:0:0:
182,192,76398,1,4,0:0:0:0:
329,192,76398,1,4,0:0:0:0:
256,192,76398,128,2,77607:0:0:0:0:
402,192,76398,128,2,77607:0:0:0:0:
109,192,76398,128,2,77607:0:0:0:0:
329,192,77607,128,2,77930:0:0:0:0:
182,192,77607,128,2,77930:0:0:0:0:
402,192,77930,128,2,78414:0:0:0:0:
109,192,77930,128,2,78414:0:0:0:0:
182,192,78414,128,2,78898:0:0:0:0:
256,192,78414,128,2,78898:0:0:0:0:
329,192,78414,128,2,78898:0:0:0:0:
475,192,78898,128,2,79140:0:0:0:0:
402,192,78898,128,2,79140:0:0:0:0:
36,192,79140,128,2,79704:0:0:0:0:
329,192,79140,128,2,79704:0:0:0:0:
109,192,79704,128,2,79785:0:0:0:0:
182,192,79785,128,2,79865:0:0:0:0:
256,192,79865,128,2,80188:0:0:0:0:
329,192,80188,128,2,80995:0:0:0:0:
182,192,80188,128,2,80995:0:0:0:0:
109,192,80995,128,2,81075:0:0:0:0:
36,192,81075,128,2,81156:0:0:0:0:
109,192,81156,128,2,81236:0:0:0:0:
182,192,81236,128,2,81317:0:0:0:0:
256,192,81317,128,2,81398:0:0:0:0:
329,192,81398,128,2,81478:0:0:0:0:
256,192,81478,128,2,81559:0:0:0:0:
329,192,81559,128,2,81640:0:0:0:0:
402,192,81640,128,2,81720:0:0:0:0:
475,192,81720,128,2,81801:0:0:0:0:
402,192,81801,128,2,82607:0:0:0:0:
109,192,81801,128,2,82607:0:0:0:0:
256,192,82607,128,2,82930:0:0:0:0:
475,192,82607,128,2,82930:0:0:0:0:
36,192,82607,128,2,82930:0:0:0:0:
182,192,82930,128,2,83898:0:0:0:0:
329,192,82930,128,2,83898:0:0:0:0:
475,192,83898,128,2,84220:0:0:0:0:
36,192,83898,128,2,84220:0:0:0:0:
256,192,84220,128,2,85107:0:0:0:0:
329,192,85107,128,2,85188:0:0:0:0:
182,192,85107,128,2,85188:0:0:0:0:
402,192,85188,128,2,85269:0:0:0:0:
109,192,85188,128,2,85269:0:0:0:0:
475,192,85269,128,2,85672:0:0:0:0:
36,192,85269,128,2,85672:0:0:0:0:
256,192,85672,128,2,86156:0:0:0:0:
329,192,86156,128,2,86640:0:0:0:0:
182,192,86156,128,2,86640:0:0:0:0:
109,192,86640,128,2,86962:0:0:0:0:
402,192,86640,128,2,86962:0:0:0:0:
475,192,86962,128,2,88253:0:0:0:0:
36,192,86962,128,2,88253:0:0:0:0:
256,192,86962,1,4,0:0:0:0:
329,192,87043,128,8,87124:0:0:0:0:
256,192,87124,128,8,87204:0:0:0:0:
256,192,87446,1,4,0:0:0:0:
182,192,87527,128,8,87607:0:0:0:0:
256,192,87607,128,8,87688:0:0:0:0:
256,192,87930,1,4,0:0:0:0:
329,192,88011,128,8,88091:0:0:0:0:
256,192,88091,128,8,88172:0:0:0:0:
109,192,88253,128,2,88333:0:0:0:0:
402,192,88253,128,2,88333:0:0:0:0:
182,192,88333,128,2,88414:0:0:0:0:
329,192,88333,128,2,88414:0:0:0:0:
256,192,88414,1,4,0:0:0:0:
475,192,88495,128,8,88575:0:0:0:0:
402,192,88575,128,8,88656:0:0:0:0:
475,192,88736,1,0,0:0:0:0:
36,192,88736,1,0,0:0:0:0:
475,192,88817,1,0,0:0:0:0:
36,192,88817,1,0,0:0:0:0:
182,192,88898,1,4,0:0:0:0:
329,192,88898,1,4,0:0:0:0:
256,192,89059,1,0,0:0:0:0:
109,192,89220,1,4,0:0:0:0:
402,192,89220,1,4,0:0:0:0:
36,192,89220,128,0,89543:0:0:0:0:
475,192,89220,128,0,89543:0:0:0:0:
256,192,89543,1,4,0:0:0:0:
402,192,89624,128,8,89704:0:0:0:0:
329,192,89704,128,8,89785:0:0:0:0:
256,192,90027,1,4,0:0:0:0:
109,192,90107,128,8,90188:0:0:0:0:
182,192,90188,128,8,90269:0:0:0:0:
256,192,90511,1,4,0:0:0:0:
329,192,90591,128,8,90672:0:0:0:0:
256,192,90672,128,8,90753:0:0:0:0:
256,192,90995,1,4,0:0:0:0:
182,192,91075,128,8,91156:0:0:0:0:
256,192,91156,128,8,91236:0:0:0:0:
36,192,91317,1,0,0:0:0:0:
475,192,91317,1,0,0:0:0:0:
36,192,91398,1,0,0:0:0:0:
475,192,91398,1,0,0:0:0:0:
256,192,91478,1,4,0:0:0:0:
109,192,91640,1,0,0:0:0:0:
402,192,91640,1,0,0:0:0:0:
329,192,91640,1,0,0:0:0:0:
182,192,91640,1,0,0:0:0:0:
256,192,91801,1,4,0:0:0:0:
36,192,91801,128,0,92124:0:0:0:0:
475,192,91801,128,0,92124:0:0:0:0:
182,192,92124,1,0,0:0:0:0:
329,192,92124,1,0,0:0:0:0:
109,192,92607,1,0,0:0:0:0:
256,192,92607,1,0,0:0:0:0:
182,192,92769,1,0,0:0:0:0:
329,192,92769,1,0,0:0:0:0:
256,192,92930,1,0,0:0:0:0:
402,192,92930,1,0,0:0:0:0:
182,192,93253,1,0,0:0:0:0:
329,192,93253,1,0,0:0:0:0:
109,192,93575,1,0,0:0:0:0:
402,192,93575,1,0,0:0:0:0:
109,192,93898,1,0,0:0:0:0:
402,192,93898,1,0,0:0:0:0:
402,192,94059,1,0,0:0:0:0:
109,192,94059,1,0,0:0:0:0:
402,192,94220,1,0,0:0:0:0:
109,192,94220,1,0,0:0:0:0:
256,192,94220,1,0,0:0:0:0:
109,192,94382,1,0,0:0:0:0:
402,192,94382,1,0,0:0:0:0:
182,192,94543,1,0,0:0:0:0:
329,192,94543,1,0,0:0:0:0:
256,192,94704,1,0,0:0:0:0:
475,192,94704,1,0,0:0:0:0:
36,192,94704,1,0,0:0:0:0:
109,192,95188,1,0,0:0:0:0:
475,192,95188,1,0,0:0:0:0:
182,192,95672,1,0,0:0:0:0:
329,192,95672,1,0,0:0:0:0:
402,192,95995,1,0,0:0:0:0:
256,192,95995,1,0,0:0:0:0:
109,192,96156,1,0,0:0:0:0:
256,192,96156,1,0,0:0:0:0:
402,192,96317,1,0,0:0:0:0:
256,192,96317,1,0,0:0:0:0:
182,192,96478,1,0,0:0:0:0:
329,192,96478,1,0,0:0:0:0:
475,192,96801,1,0,0:0:0:0:
36,192,96801,1,0,0:0:0:0:
329,192,97124,1,0,0:0:0:0:
182,192,97124,1,0,0:0:0:0:
256,192,97285,1,0,0:0:0:0:
36,192,97285,1,0,0:0:0:0:
402,192,97769,1,0,0:0:0:0:
256,192,97769,1,0,0:0:0:0:
402,192,98253,1,0,0:0:0:0:
109,192,98253,1,0,0:0:0:0:
109,192,99543,1,0,0:0:0:0:
329,192,99543,1,0,0:0:0:0:
182,192,99704,1,0,0:0:0:0:
475,192,99704,1,0,0:0:0:0:
402,192,99865,1,0,0:0:0:0:
109,192,99865,1,0,0:0:0:0:
182,192,100349,1,0,0:0:0:0:
475,192,100349,1,0,0:0:0:0:
256,192,100833,1,0,0:0:0:0:
109,192,100833,1,0,0:0:0:0:
109,192,101317,1,0,0:0:0:0:
329,192,101317,1,0,0:0:0:0:
475,192,101640,1,0,0:0:0:0:
36,192,101640,1,0,0:0:0:0:
475,192,101720,1,0,0:0:0:0:
36,192,101720,1,0,0:0:0:0:
402,192,101882,1,4,0:0:0:0:
109,192,101882,1,4,0:0:0:0:
402,192,102285,1,4,0:0:0:0:
109,192,102285,1,4,0:0:0:0:
256,192,102446,1,0,0:0:0:0:
475,192,102446,1,0,0:0:0:0:
109,192,102930,1,0,0:0:0:0:
256,192,102930,1,0,0:0:0:0:
182,192,103091,1,0,0:0:0:0:
329,192,103091,1,0,0:0:0:0:
256,192,103253,1,0,0:0:0:0:
402,192,103253,1,0,0:0:0:0:
182,192,103575,1,0,0:0:0:0:
329,192,103575,1,0,0:0:0:0:
256,192,103898,1,0,0:0:0:0:
402,192,103898,1,0,0:0:0:0:
256,192,104220,1,0,0:0:0:0:
36,192,104220,1,0,0:0:0:0:
256,192,104382,1,0,0:0:0:0:
475,192,104382,1,0,0:0:0:0:
256,192,104543,1,0,0:0:0:0:
109,192,104543,1,0,0:0:0:0:
402,192,104704,1,0,0:0:0:0:
256,192,104704,1,0,0:0:0:0:
36,192,104865,1,0,0:0:0:0:
256,192,104865,1,0,0:0:0:0:
475,192,105027,1,0,0:0:0:0:
256,192,105027,1,0,0:0:0:0:
182,192,105511,1,0,0:0:0:0:
329,192,105511,1,0,0:0:0:0:
256,192,105995,1,0,0:0:0:0:
402,192,105995,1,0,0:0:0:0:
182,192,106317,1,0,0:0:0:0:
329,192,106317,1,0,0:0:0:0:
109,192,106478,1,0,0:0:0:0:
256,192,106478,1,0,0:0:0:0:
182,192,106640,1,0,0:0:0:0:
329,192,106640,1,0,0:0:0:0:
256,192,106801,1,0,0:0:0:0:
402,192,106801,1,0,0:0:0:0:
256,192,107124,1,0,0:0:0:0:
475,192,107124,1,0,0:0:0:0:
109,192,107446,1,0,0:0:0:0:
256,192,107446,1,0,0:0:0:0:
256,192,107607,1,0,0:0:0:0:
402,192,107607,1,0,0:0:0:0:
182,192,108253,1,0,0:0:0:0:
329,192,108253,1,0,0:0:0:0:
329,192,108898,1,0,0:0:0:0:
475,192,108898,1,0,0:0:0:0:
182,192,109220,1,0,0:0:0:0:
329,192,109220,1,0,0:0:0:0:
36,192,109543,1,0,0:0:0:0:
182,192,109543,1,0,0:0:0:0:
109,192,109865,1,0,0:0:0:0:
256,192,109865,1,0,0:0:0:0:
256,192,110027,1,0,0:0:0:0:
402,192,110027,1,0,0:0:0:0:
182,192,110511,1,0,0:0:0:0:
329,192,110511,1,0,0:0:0:0:
475,192,110672,1,0,0:0:0:0:
36,192,110672,1,0,0:0:0:0:
109,192,110995,1,0,0:0:0:0:
402,192,110995,1,0,0:0:0:0:
402,192,111156,1,0,0:0:0:0:
109,192,111156,1,0,0:0:0:0:
402,192,111317,1,0,0:0:0:0:
109,192,111398,1,0,0:0:0:0:
402,192,111478,1,0,0:0:0:0:
109,192,111559,1,0,0:0:0:0:
402,192,111640,1,0,0:0:0:0:
109,192,111720,1,0,0:0:0:0:
402,192,111801,1,0,0:0:0:0:
109,192,111882,1,0,0:0:0:0:
402,192,111962,1,0,0:0:0:0:
109,192,112043,1,0,0:0:0:0:
402,192,112124,1,0,0:0:0:0:
109,192,112204,1,0,0:0:0:0:
256,192,112285,128,0,112365:0:0:0:0:
109,192,112365,1,0,0:0:0:0:
329,192,112365,128,0,112446:0:0:0:0:
402,192,112446,1,0,0:0:0:0:
182,192,112446,128,0,112527:0:0:0:0:
109,192,112527,1,0,0:0:0:0:
256,192,112527,128,0,112607:0:0:0:0:
402,192,112607,1,0,0:0:0:0:
329,192,112688,1,4,0:0:0:0:
182,192,112688,1,4,0:0:0:0:
109,192,112688,128,0,115185:0:0:0:0:
256,192,112688,128,0,115188:0:0:0:0:
402,192,112688,128,0,115185:0:0:0:0:
36,192,115185,1,4,0:0:0:0:
182,192,115185,1,4,0:0:0:0:
329,192,115185,1,4,0:0:0:0:
475,192,115185,1,4,0:0:0:0:
