osu file format v14

[General]
AudioFilename: audio.mp3
AudioLeadIn: 0
PreviewTime: 24435
Countdown: 0
SampleSet: Soft
StackLeniency: 0.5
Mode: 0
LetterboxInBreaks: 0
WidescreenStoryboard: 0

[Editor]
Bookmarks: 11612,21935,24515,45160,55483,65806,72257,76128,86451,91612,112257
DistanceSpacing: 0.8
BeatDivisor: 4
GridSize: 16
TimelineZoom: 4.299998

[Metadata]
Title:Anokumene
TitleUnicode:Anökumene
Artist:Jun Kuroda
ArtistUnicode:Jun Kuroda
Creator:Skorpiik
Version:Arcane Levitator
Source:Arcaea
Tags:video game rhythm electronic
BeatmapID:2057389
BeatmapSetID:983157

[Difficulty]
HPDrainRate:5
CircleSize:4
OverallDifficulty:9
ApproachRate:9.5
SliderMultiplier:2
SliderTickRate:1

[Events]
//Background and Video events
0,0,"25771.jpg",0,0
//Break Periods
2,66006,67861
//Storyboard Layer 0 (Background)
//Storyboard Layer 1 (Fail)
//Storyboard Layer 2 (Pass)
//Storyboard Layer 3 (Foreground)
//Storyboard Sound Samples

[TimingPoints]
1290,322.58064516129,4,2,0,68,1,0
11451,-100,4,2,0,5,0,0
11612,-250,4,2,0,68,0,0
14193,-285.714285714286,4,2,0,68,0,0
15483,-222.222222222222,4,2,0,68,0,0
16128,-200,4,2,0,68,0,0
16773,-222.222222222222,4,2,0,68,0,0
18064,-285.714285714286,4,2,0,68,0,0
21935,-333.333333333333,4,2,0,68,0,0
24515,-100,4,2,0,68,0,1
31935,-83.3333333333333,4,2,0,68,0,1
32257,-100,4,2,0,68,0,1
42902,-83.3333333333333,4,2,0,68,0,1
44838,-100,4,2,0,68,0,1
45160,-100,4,2,0,68,0,0
50160,-100,4,2,0,5,0,0
50322,-100,4,2,0,68,0,0
54193,-166.666666666667,4,2,0,68,0,0
54677,-133.333333333333,4,2,0,68,0,0
55160,-83.3333333333333,4,2,0,68,0,0
55483,-57.1428571428571,4,2,0,68,0,0
57419,-83.3333333333333,4,2,0,68,0,0
58064,-57.1428571428571,4,2,0,68,0,0
59999,-83.3333333333333,4,2,0,68,0,0
60322,-50,4,2,0,68,0,0
60644,-57.1428571428571,4,2,0,68,0,0
62580,-83.3333333333333,4,2,0,68,0,0
63225,-57.1428571428571,4,2,0,68,0,0
65160,-83.3333333333333,4,2,0,68,0,0
65483,-50,4,2,0,68,0,0
73548,-90.9090909090909,4,2,0,68,0,0
74193,-80,4,2,0,68,0,0
74838,-71.4285714285714,4,2,0,68,0,0
76128,-62.5,4,2,0,68,0,0
77096,-58.8235294117647,4,2,0,68,0,0
77419,-62.5,4,2,0,68,0,0
81289,-68.9655172413793,4,2,0,68,0,0
82419,-64.5161290322581,4,2,0,68,0,0
83709,-60.6060606060606,4,2,0,68,0,0
84677,-57.1428571428571,4,2,0,68,0,0
86451,-57.1428571428571,4,2,0,68,0,0
88386,-83.3333333333333,4,2,0,68,0,0
88709,-50,4,2,0,68,0,0
89031,-57.1428571428571,4,2,0,68,0,0
90967,-74.0740740740741,4,2,0,68,0,0
91289,-50,4,2,0,68,0,0
91612,-76.9230769230769,4,2,0,68,0,1
99031,-62.5,4,2,0,68,0,1
99354,-76.9230769230769,4,2,0,68,0,1
112257,-100,4,2,0,68,0,0

[Colours]
Combo1 : 134,165,247
Combo2 : 96,2,172
Combo3 : 0,92,232
Combo4 : 221,87,198

[HitObjects]
256,192,9031,12,0,11451,0:0:0:0:
293,232,11612,6,0,B|284:180|320:134|320:134|165:118|165:118|140:85|144:46|144:46|203:31|261:61|261:61|234:103|222:165,1,560
225,156,14193,6,0,B|191:205|134:198|134:198|156:247|126:305,1,209.999993591309
129,298,15483,6,0,P|160:322|213:331,1,89.9999972534181
309,330,16128,2,0,P|359:321|400:291,1,100
398,293,16773,6,0,B|373:254|381:210|381:210|459:241|459:241|491:202|489:141|452:109,1,314.999990386963
453,109,18064,6,0,B|351:137|351:137|239:109,1,209.999993591309
249,111,19354,5,0,0:0:0:0:
256,192,19435,12,0,21773,0:0:0:0:
314,129,21935,6,0,P|336:200|196:125,1,389.999988098145,0|0,3:0|3:0,3:0:0:0:
256,192,24193,1,0,0:0:0:0:
256,192,24354,1,0,0:0:0:0:
341,60,24515,6,0,P|404:50|451:59,1,100
393,266,24838,1,0,0:0:0:0:
465,63,24999,1,0,0:0:0:0:
364,280,25160,2,0,P|319:293|286:293,1,50
99,266,25322,2,0,P|144:253|177:253,1,50
233,279,25483,1,0,0:0:0:0:
147,38,25644,6,0,L|125:146,1,100
213,376,25967,2,0,L|235:268,1,100
9,187,26289,1,0,0:0:0:0:
79,352,26451,1,0,0:0:0:0:
122,234,26612,1,0,0:0:0:0:
218,153,26773,1,0,0:0:0:0:
341,130,26935,1,0,3:0:0:0:
494,262,27096,6,0,P|455:275|393:268,1,100
127,147,27419,1,0,0:0:0:0:
372,374,27580,2,0,P|331:355|296:306,1,100
190,64,27903,1,0,0:0:0:0:
172,372,28064,2,0,L|199:250,1,100
376,47,28386,5,0,0:0:0:0:
430,258,28548,1,0,0:0:0:0:
239,70,28709,1,0,0:0:0:0:
450,124,28871,1,0,0:0:0:0:
330,200,29031,1,0,0:0:0:0:
330,200,29193,1,0,0:0:0:0:
189,181,29354,1,0,0:0:0:0:
93,75,29515,2,0,L|81:128,1,50
16,315,29677,6,0,P|61:308|123:316,1,100
294,384,29999,1,0,0:0:0:0:
28,161,30160,2,0,P|73:168|135:160,1,100
306,92,30482,1,0,0:0:0:0:
194,382,30644,2,0,L|217:283,1,100
122,30,30967,5,0,0:0:0:0:
208,127,31128,1,0,0:0:0:0:
131,23,31289,1,0,0:0:0:0:
198,133,31450,1,0,0:0:0:0:
141,18,31612,1,0,0:0:0:0:
188,138,31773,1,0,0:0:0:0:
0,30,31935,6,0,P|-3:61|12:104,1,59.9999981689454
110,307,32096,2,0,P|106:275|122:233,1,59.9999981689454
247,43,32257,6,0,P|313:42|346:58,1,100
448,291,32580,1,0,0:0:0:0:
438,0,32741,2,0,P|454:47|443:103,1,100
330,330,33064,1,0,0:0:0:0:
198,130,33225,2,0,L|308:150,1,100
69,332,33548,5,0,0:0:0:0:
1,174,33709,2,0,P|2:137|25:95,1,50
53,53,33870,2,0,P|79:27|125:14,1,50
175,5,34031,1,0,0:0:0:0:
184,44,34112,1,0,0:0:0:0:
193,83,34193,2,0,L|205:137,1,50
411,228,34354,1,0,0:0:0:0:
411,228,34677,1,0,0:0:0:0:
211,355,34838,6,0,P|152:361|108:348,1,100
34,103,35160,1,0,0:0:0:0:
81,337,35322,1,0,0:0:0:0:
69,82,35483,2,0,P|104:72|134:74,1,50
186,243,35644,2,0,P|210:241|234:232,1,50
256,88,35806,1,0,0:0:0:0:
351,358,35967,6,0,P|369:310|362:260,1,100
164,55,36289,2,0,P|146:103|152:152,1,100
360,19,36612,1,0,0:0:0:0:
424,196,36773,1,0,0:0:0:0:
296,188,36935,1,0,0:0:0:0:
189,117,37096,1,0,0:0:0:0:
131,2,37257,1,0,0:0:0:0:
23,169,37419,6,0,P|21:220|42:278,1,100
333,354,37741,1,0,0:0:0:0:
0,369,37902,2,0,P|54:373|106:348,1,100
356,240,38225,1,0,0:0:0:0:
190,383,38386,2,0,L|213:266,1,100
214,27,38709,5,0,0:0:0:0:
356,240,38870,1,0,0:0:0:0:
470,11,39031,1,0,0:0:0:0:
257,153,39193,1,0,0:0:0:0:
443,140,39354,1,0,0:0:0:0:
443,140,39515,1,0,0:0:0:0:
489,271,39677,1,0,0:0:0:0:
391,384,39838,2,0,L|359:296,1,50
232,164,39999,6,0,P|171:152|117:163,1,100
26,349,40322,2,0,L|93:340,1,50
149,329,40483,2,0,L|199:323,1,50
275,99,40644,2,0,P|216:77|161:78,1,100
54,314,40967,2,0,L|121:305,1,50
177,294,41128,2,0,L|226:287,1,50
352,105,41289,6,0,P|411:110|454:137,1,100
482,248,41531,1,0,0:0:0:0:
470,272,41612,2,0,L|368:282,1,100
216,32,41935,2,0,L|206:134,1,100
88,344,42257,2,0,P|89:298|96:277,1,50
284,240,42419,2,0,P|287:215|286:191,1,50
91,66,42580,6,0,P|75:129|88:181,1,100
357,94,42902,2,0,L|297:103,1,59.9999981689454
52,260,43064,2,0,L|111:269,1,59.9999981689454
349,353,43225,1,0,0:0:0:0:
181,178,43386,1,0,0:0:0:0:
479,238,43548,1,0,0:0:0:0:
242,335,43709,1,0,0:0:0:0:
234,306,43789,1,0,0:0:0:0:
226,276,43870,5,0,0:0:0:0:
255,242,43950,1,0,0:0:0:0:
297,239,44031,1,0,0:0:0:0:
338,235,44113,1,0,0:0:0:0:
368,202,44193,1,0,0:0:0:0:
281,23,44354,1,0,0:0:0:0:
240,27,44436,1,0,0:0:0:0:
210,60,44516,1,0,0:0:0:0:
136,270,44677,1,0,0:0:0:0:
92,133,44838,2,0,L|26:127,2,50
256,192,45160,5,0,0:0:0:0:
256,192,45241,12,0,50160,0:0:0:0:
256,192,50322,5,0,0:0:0:0:
256,192,50806,1,0,0:0:0:0:
256,192,51289,1,0,0:0:0:0:
342,230,51612,5,0,0:0:0:0:
256,192,53225,5,0,0:0:0:0:
299,211,53386,1,0,0:0:0:0:
342,230,53548,1,0,0:0:0:0:
170,154,53870,1,0,0:0:0:0:
428,268,54193,2,0,L|505:302,2,59.9999981689454
414,146,54677,2,0,L|417:118,2,18.7500007152558
348,98,54838,5,0,0:0:0:0:
311,91,54918,1,0,0:0:0:0:
274,94,54999,1,0,0:0:0:0:
237,97,55080,1,0,0:0:0:0:
200,90,55160,2,0,P|169:89|105:125,1,59.9999981689454
58,167,55322,2,0,P|88:166|153:202,1,59.9999981689454
309,349,55483,6,0,L|324:248,1,87.500000834465
348,89,55644,2,0,L|319:272,1,175.00000166893
200,341,55967,6,0,L|185:240,1,87.500000834465
161,81,56128,2,0,L|189:264,1,175.00000166893
338,338,56451,6,0,L|353:237,1,87.500000834465
377,78,56612,2,0,L|348:261,1,175.00000166893
171,330,56935,6,0,L|156:229,1,87.500000834465
132,70,57096,2,0,L|145:156,1,87.500000834465
256,64,57257,1,0,0:0:0:0:
309,56,57338,1,0,0:0:0:0:
362,50,57419,2,0,P|417:64|480:122,1,119.999996337891
364,170,57741,2,0,P|393:219|396:305,1,119.999996337891
350,356,57983,1,0,0:0:0:0:
350,356,58064,6,0,L|249:341,1,87.500000834465
90,316,58225,2,0,L|300:348,1,175.00000166893
319,150,58548,6,0,L|218:165,1,87.500000834465
59,190,58709,2,0,L|269:157,1,175.00000166893
293,365,59031,6,0,L|192:350,1,87.500000834465
33,325,59192,2,0,L|243:357,1,175.00000166893
262,141,59515,6,0,L|161:156,1,87.500000834465
2,181,59677,2,0,L|153:157,1,87.500000834465
198,54,59838,1,0,0:0:0:0:
251,65,59919,1,0,0:0:0:0:
303,76,59999,2,0,P|334:135|326:202,1,119.999996337891
208,368,60322,2,0,P|225:284|360:380,1,300
448,344,60644,6,0,L|463:243,1,87.500000834465
487,84,60805,2,0,L|460:258,1,175.00000166893
334,270,61128,6,0,L|319:169,1,87.500000834465
295,10,61289,2,0,L|321:184,1,175.00000166893
153,354,61612,6,0,L|168:253,1,87.500000834465
192,94,61773,2,0,L|165:268,1,175.00000166893
39,280,62096,6,0,L|24:179,1,87.500000834465
0,20,62257,2,0,L|23:172,1,87.500000834465
172,227,62419,1,0,0:0:0:0:
223,237,62499,1,0,0:0:0:0:
274,220,62580,2,0,P|319:177|332:113,1,119.999996337891
159,23,62902,2,0,P|174:80|217:120,1,119.999996337891
443,52,63225,6,0,L|428:153,1,87.500000834465
407,300,63386,1,0,0:0:0:0:
413,256,63466,1,0,0:0:0:0:
419,213,63547,1,0,0:0:0:0:
310,342,63709,6,0,L|295:241,1,87.500000834465
275,94,63870,1,0,0:0:0:0:
281,137,63950,1,0,0:0:0:0:
287,180,64031,1,0,0:0:0:0:
179,36,64193,6,0,L|164:137,1,87.500000834465
144,285,64354,1,0,0:0:0:0:
150,241,64434,1,0,0:0:0:0:
156,198,64515,1,0,0:0:0:0:
46,326,64677,6,0,L|31:225,1,87.500000834465
11,78,64838,1,0,0:0:0:0:
17,121,64918,1,0,0:0:0:0:
23,164,64999,1,0,0:0:0:0:
89,188,65080,1,0,0:0:0:0:
151,157,65160,2,0,P|216:135|273:154,1,119.999996337891
370,295,65483,2,0,P|286:355|256:182,1,300
263,148,65806,5,0,0:0:0:0:
256,192,68386,12,0,70806,0:0:0:0:
158,73,70967,5,0,0:0:0:0:
90,285,71128,1,0,0:0:0:0:
236,112,71289,5,0,0:0:0:0:
225,333,71450,1,0,0:0:0:0:
319,120,71612,5,0,0:0:0:0:
365,336,71773,1,0,0:0:0:0:
390,84,71935,5,0,0:0:0:0:
490,280,72096,1,0,0:0:0:0:
281,44,72257,5,0,0:0:0:0:
168,292,72419,1,0,0:0:0:0:
103,39,72580,5,0,0:0:0:0:
317,236,72742,1,0,0:0:0:0:
186,31,72902,5,0,0:0:0:0:
45,300,73064,1,0,0:0:0:0:
8,26,73225,5,0,0:0:0:0:
168,292,73387,1,0,0:0:0:0:
281,44,73548,5,0,0:0:0:0:
335,44,73628,1,0,0:0:0:0:
382,71,73709,1,0,0:0:0:0:
409,119,73789,1,0,0:0:0:0:
408,173,73870,1,0,0:0:0:0:
381,220,73951,1,0,0:0:0:0:
333,247,74031,1,0,0:0:0:0:
306,293,74112,1,0,0:0:0:0:
305,348,74193,5,0,0:0:0:0:
364,361,74273,1,0,0:0:0:0:
413,326,74354,1,0,0:0:0:0:
420,266,74434,1,0,0:0:0:0:
380,220,74515,1,0,0:0:0:0:
320,220,74596,1,0,0:0:0:0:
279,264,74676,1,0,0:0:0:0:
218,264,74757,1,0,0:0:0:0:
178,218,74838,5,0,0:0:0:0:
114,194,74918,1,0,0:0:0:0:
52,222,74999,1,0,0:0:0:0:
29,286,75079,1,0,0:0:0:0:
58,348,75160,1,0,0:0:0:0:
199,117,75322,1,0,0:0:0:0:
199,117,75402,1,0,0:0:0:0:
199,117,75483,5,0,0:0:0:0:
301,363,75644,1,0,0:0:0:0:
370,52,75806,1,0,0:0:0:0:
141,292,75967,1,0,0:0:0:0:
454,220,76128,6,0,B|481:127|378:52|295:117|295:117|363:173|366:284|306:338|306:338|193:303|148:172|218:60,1,800
110,27,77096,2,0,P|28:63|9:137,1,170.000003242493
60,319,77419,2,0,B|33:228|157:159|225:251|225:251|310:231|310:231|356:263|356:263|418:233|420:151,2,480
60,319,78548,1,0,0:0:0:0:
173,136,78709,6,0,B|224:132|258:172|258:172|224:46|224:46|261:81|317:75,1,320
430,39,79193,2,0,B|453:73|440:127|440:127|483:81|483:81|473:127|492:166|492:166|436:248,1,320
364,314,79677,2,0,B|302:297|250:326|250:326|184:278|184:278|118:310|47:285,2,320
368,193,80483,5,0,0:0:0:0:
343,171,80563,1,0,0:0:0:0:
314,157,80644,1,0,0:0:0:0:
282,151,80724,1,0,0:0:0:0:
250,154,80805,1,0,0:0:0:0:
219,165,80886,1,0,0:0:0:0:
193,183,80966,1,0,0:0:0:0:
162,194,81047,1,0,0:0:0:0:
129,197,81128,1,0,0:0:0:0:
97,191,81208,1,0,0:0:0:0:
68,177,81289,6,0,B|20:104|63:42|142:34|142:34|191:71|191:71|217:24|281:13|319:68|319:68|365:28|365:28|479:68,1,580.000017700196
484,265,82096,1,0,0:0:0:0:
484,265,82257,1,0,0:0:0:0:
329,164,82419,6,0,B|262:159|199:218|223:307|223:307|119:277|34:371|34:371|63:265|6:191|6:191|59:31,1,775.000005912781
258,11,83386,1,0,0:0:0:0:
258,11,83548,1,0,0:0:0:0:
162,182,83709,6,0,B|123:303|258:338|292:290|327:238|453:312|453:312|426:219|341:180|240:217|240:217|260:133|206:93|142:94,1,825.000007867813
277,28,84677,2,0,P|423:16|499:187,1,350.00000333786
347,340,85160,6,0,B|263:264|156:318|156:318|122:215|184:124|184:124|109:124|60:47,2,525.00000500679
347,340,86289,1,0,0:0:0:0:
445,103,86451,6,0,L|458:189,1,87.500000834465
485,362,86612,2,0,L|453:162,1,175.00000166893
270,45,86935,6,0,L|257:131,1,87.500000834465
230,304,87096,2,0,L|261:104,1,175.00000166893
436,43,87419,6,0,L|449:129,1,87.500000834465
476,302,87580,2,0,L|444:102,1,175.00000166893
260,103,87902,6,0,L|247:189,1,87.500000834465
220,362,88064,2,0,L|243:213,1,87.500000834465
56,149,88225,1,0,0:0:0:0:
65,202,88306,1,0,0:0:0:0:
74,254,88386,2,0,P|116:262|160:165,1,119.999996337891
109,0,88709,2,0,P|-3:20|59:152,1,300
133,174,89031,6,0,L|234:159,1,87.500000834465
392,137,89193,1,0,0:0:0:0:
343,144,89273,1,0,0:0:0:0:
295,151,89354,1,0,0:0:0:0:
173,316,89515,6,0,L|274:301,1,87.500000834465
432,279,89677,1,0,0:0:0:0:
383,286,89757,1,0,0:0:0:0:
335,293,89838,1,0,0:0:0:0:
182,167,89999,6,0,L|283:152,1,87.500000834465
441,130,90161,1,0,0:0:0:0:
392,137,90241,1,0,0:0:0:0:
344,144,90322,1,0,0:0:0:0:
222,309,90483,6,0,L|323:294,1,87.500000834465
481,272,90645,1,0,0:0:0:0:
432,279,90725,1,0,0:0:0:0:
384,286,90806,1,0,0:0:0:0:
360,220,90886,1,0,0:0:0:0:
380,153,90967,2,0,L|391:75,1,67.5000002574921
210,27,91128,2,0,L|140:36,1,67.5000002574921
263,136,91289,2,0,P|253:215|148:262,1,200
70,240,91531,1,0,0:0:0:0:
49,230,91612,6,0,L|24:79,1,129.999994049073
173,348,91935,1,0,0:0:0:0:
289,47,92096,1,0,0:0:0:0:
334,316,92257,2,0,P|301:312|270:302,1,64.9999970245363
127,79,92419,2,0,P|159:82|190:92,1,64.9999970245363
173,348,92580,1,0,0:0:0:0:
426,27,92741,6,0,P|448:92|439:169,1,129.999994049073
107,3,93064,2,0,P|171:-1|232:21,1,129.999994049073
456,291,93386,1,0,0:0:0:0:
173,348,93548,1,0,0:0:0:0:
156,185,93709,1,0,0:0:0:0:
269,67,93870,1,0,0:0:0:0:
432,77,94031,1,0,0:0:0:0:
173,348,94193,6,0,P|108:348|48:325,1,129.999994049073
21,27,94515,1,0,0:0:0:0:
280,343,94677,2,0,P|344:343|404:320,1,129.999994049073
432,22,94999,1,0,0:0:0:0:
129,190,95160,2,0,L|0:207,1,129.999994049073
359,173,95483,5,0,0:0:0:0:
46,66,95644,1,0,0:0:0:0:
388,174,95806,1,0,0:0:0:0:
31,310,95967,1,0,0:0:0:0:
204,116,96128,1,0,0:0:0:0:
204,116,96289,1,0,0:0:0:0:
294,348,96451,1,0,0:0:0:0:
446,98,96612,1,0,0:0:0:0:
160,361,96773,6,0,P|111:384|31:371,1,129.999994049073
0,37,97096,1,0,0:0:0:0:
248,376,97257,2,0,P|311:387|370:362,1,129.999994049073
512,61,97580,1,0,0:0:0:0:
184,256,97741,2,0,L|21:278,1,129.999994049073
400,133,98064,5,0,0:0:0:0:
300,334,98225,1,0,0:0:0:0:
420,145,98387,1,0,0:0:0:0:
280,322,98548,1,0,0:0:0:0:
437,161,98709,1,0,0:0:0:0:
264,305,98870,1,0,0:0:0:0:
498,45,99031,6,0,P|446:35|402:40,1,80
56,201,99193,2,0,P|108:191|152:196,1,80
483,341,99354,2,0,P|474:278|427:235,1,129.999994049073
107,294,99677,1,0,0:0:0:0:
495,98,99838,2,0,L|366:120,1,129.999994049073
199,384,100160,1,0,0:0:0:0:
350,16,100322,2,0,P|286:11|230:43,1,129.999994049073
335,365,100644,5,0,0:0:0:0:
