osu file format v14

[General]
AudioFilename: audio.mp3
AudioLeadIn: 0
PreviewTime: 91571
Countdown: 0
SampleSet: Soft
StackLeniency: 0.7
Mode: 3
LetterboxInBreaks: 0
SpecialStyle: 0
WidescreenStoryboard: 0

[Editor]
DistanceSpacing: 0.8
BeatDivisor: 4
GridSize: 32
TimelineZoom: 1.9

[Metadata]
Title:Anokumene
TitleUnicode:Anokumene
Artist:Jun Kuroda
ArtistUnicode:Jun Kuroda
Creator:Purrinya
Version:Another Future
Source:BMS
Tags:Arcaea BMS
BeatmapID:2079184
BeatmapSetID:994400

[Difficulty]
HPDrainRate:7
CircleSize:7
OverallDifficulty:7.5
ApproachRate:5
SliderMultiplier:1.4
SliderTickRate:1

[Events]
//Background and Video events
0,0,"Night Sky Forest Stars Tree.jpg",0,0
//Break Periods
//Storyboard Layer 0 (Background)
//Storyboard Layer 1 (Fail)
//Storyboard Layer 2 (Pass)
//Storyboard Layer 3 (Foreground)
//Storyboard Sound Samples

[TimingPoints]
1330,322.58064516129,4,2,0,0,1,0
24555,-100,4,2,0,0,0,1
45200,-100,4,2,0,0,0,0
91652,-100,4,2,0,0,0,1
112297,-100,4,2,0,0,0,0

[HitObjects]
36,192,1330,128,0,3910:0:0:0:0:
182,192,1330,1,0,0:0:0:0:
402,192,1330,1,0,0:0:0:0:
475,192,1330,1,0,0:0:0:0:
256,192,1652,1,0,0:0:0:0:
402,192,1975,1,0,0:0:0:0:
182,192,1975,1,0,0:0:0:0:
475,192,1975,1,0,0:0:0:0:
329,192,2297,1,0,0:0:0:0:
402,192,2620,1,0,0:0:0:0:
475,192,2620,1,0,0:0:0:0:
329,192,2942,1,0,0:0:0:0:
256,192,3104,1,0,0:0:0:0:
329,192,3104,1,0,0:0:0:0:
182,192,3265,1,0,0:0:0:0:
109,192,3265,1,0,0:0:0:0:
402,192,3265,1,0,0:0:0:0:
256,192,3588,1,0,0:0:0:0:
182,192,3910,1,0,0:0:0:0:
109,192,3910,1,0,0:0:0:0:
475,192,3910,128,0,5200:0:0:0:0:
36,192,4233,1,0,0:0:0:0:
182,192,4233,1,0,0:0:0:0:
182,192,4394,1,0,0:0:0:0:
109,192,4394,1,0,0:0:0:0:
36,192,4555,1,0,0:0:0:0:
256,192,4555,1,0,0:0:0:0:
402,192,4555,1,0,0:0:0:0:
329,192,4878,1,0,0:0:0:0:
182,192,5039,1,0,0:0:0:0:
109,192,5039,1,0,0:0:0:0:
182,192,5200,1,0,0:0:0:0:
109,192,5200,1,0,0:0:0:0:
402,192,5200,128,0,5846:0:0:0:0:
256,192,5523,1,0,0:0:0:0:
109,192,5684,1,0,0:0:0:0:
36,192,5684,1,0,0:0:0:0:
329,192,5846,128,0,6491:0:0:0:0:
109,192,5846,1,0,0:0:0:0:
182,192,5846,1,0,0:0:0:0:
36,192,5846,1,0,0:0:0:0:
109,192,6168,1,0,0:0:0:0:
36,192,6491,1,0,0:0:0:0:
402,192,6491,1,0,0:0:0:0:
256,192,6491,128,0,7781:0:0:0:0:
109,192,6813,1,0,0:0:0:0:
402,192,6813,1,0,0:0:0:0:
109,192,6975,1,0,0:0:0:0:
329,192,6975,1,0,0:0:0:0:
182,192,7136,1,0,0:0:0:0:
475,192,7136,1,0,0:0:0:0:
402,192,7136,1,0,0:0:0:0:
36,192,7459,1,0,0:0:0:0:
109,192,7620,1,0,0:0:0:0:
182,192,7620,1,0,0:0:0:0:
329,192,7781,1,0,0:0:0:0:
402,192,7781,1,0,0:0:0:0:
36,192,7781,128,0,8426:0:0:0:0:
256,192,8104,1,0,0:0:0:0:
329,192,8265,1,0,0:0:0:0:
475,192,8265,1,0,0:0:0:0:
109,192,8426,128,0,9071:0:0:0:0:
182,192,8426,1,0,0:0:0:0:
256,192,8426,1,0,0:0:0:0:
402,192,8426,1,0,0:0:0:0:
329,192,8749,1,0,0:0:0:0:
182,192,9071,128,0,10362:0:0:0:0:
256,192,9071,1,0,0:0:0:0:
402,192,9071,1,0,0:0:0:0:
329,192,9394,1,0,0:0:0:0:
402,192,9394,1,0,0:0:0:0:
329,192,9555,1,0,0:0:0:0:
402,192,9555,1,0,0:0:0:0:
256,192,9717,1,0,0:0:0:0:
475,192,9717,1,0,0:0:0:0:
36,192,9717,1,0,0:0:0:0:
109,192,10039,1,0,0:0:0:0:
402,192,10200,1,0,0:0:0:0:
475,192,10200,1,0,0:0:0:0:
329,192,10362,1,0,0:0:0:0:
109,192,10362,1,0,0:0:0:0:
256,192,10362,128,0,11652:0:0:0:0:
402,192,10684,1,0,0:0:0:0:
329,192,10846,1,0,0:0:0:0:
475,192,10846,1,0,0:0:0:0:
402,192,11007,1,0,0:0:0:0:
109,192,11007,1,0,0:0:0:0:
36,192,11007,1,0,0:0:0:0:
182,192,11329,1,0,0:0:0:0:
36,192,11652,128,0,14233:0:0:0:0:
475,192,11652,128,0,14233:0:0:0:0:
182,192,11652,1,0,0:0:0:0:
329,192,11652,1,0,0:0:0:0:
109,192,11652,128,0,11813:0:0:0:0:
182,192,11813,128,0,11975:0:0:0:0:
256,192,11975,128,0,12136:0:0:0:0:
329,192,12136,128,0,12297:0:0:0:0:
402,192,12297,128,0,12459:0:0:0:0:
329,192,12459,128,0,12620:0:0:0:0:
256,192,12620,128,0,12781:0:0:0:0:
182,192,12781,128,0,12942:0:0:0:0:
109,192,12942,128,0,13023:0:0:0:0:
182,192,13023,128,0,13104:0:0:0:0:
256,192,13104,128,0,13184:0:0:0:0:
329,192,13184,128,0,13265:0:0:0:0:
402,192,13265,128,0,13346:0:0:0:0:
182,192,13346,128,0,13426:0:0:0:0:
256,192,13426,128,0,13507:0:0:0:0:
329,192,13507,128,0,13588:0:0:0:0:
109,192,13588,128,0,13668:0:0:0:0:
182,192,13668,128,0,13749:0:0:0:0:
402,192,13749,128,0,13829:0:0:0:0:
329,192,13829,128,0,13910:0:0:0:0:
256,192,13910,128,0,13991:0:0:0:0:
182,192,13991,128,0,14071:0:0:0:0:
109,192,14071,128,0,14152:0:0:0:0:
402,192,14152,128,0,14233:0:0:0:0:
182,192,14233,128,0,15523:0:0:0:0:
329,192,14233,128,0,15523:0:0:0:0:
256,192,14233,128,0,14313:0:0:0:0:
109,192,14313,128,0,14394:0:0:0:0:
36,192,14394,128,0,14475:0:0:0:0:
256,192,14475,128,0,14555:0:0:0:0:
109,192,14555,128,0,14636:0:0:0:0:
402,192,14636,128,0,14717:0:0:0:0:
256,192,14717,128,0,14797:0:0:0:0:
475,192,14797,128,0,14878:0:0:0:0:
402,192,14878,128,0,14959:0:0:0:0:
256,192,14959,128,0,15039:0:0:0:0:
402,192,15039,128,0,15120:0:0:0:0:
475,192,15120,128,0,15200:0:0:0:0:
36,192,15200,128,0,15281:0:0:0:0:
109,192,15281,128,0,15362:0:0:0:0:
256,192,15362,128,0,15442:0:0:0:0:
402,192,15442,128,0,15523:0:0:0:0:
475,192,15523,128,0,15604:0:0:0:0:
36,192,15523,128,0,16813:0:0:0:0:
109,192,15523,128,0,16168:0:0:0:0:
402,192,15604,128,0,15684:0:0:0:0:
182,192,15684,128,0,15765:0:0:0:0:
256,192,15765,128,0,15846:0:0:0:0:
329,192,15846,128,0,15926:0:0:0:0:
402,192,15926,128,0,16007:0:0:0:0:
329,192,16007,128,0,16088:0:0:0:0:
256,192,16088,128,0,16168:0:0:0:0:
182,192,16168,128,0,16813:0:0:0:0:
475,192,16168,128,0,16652:0:0:0:0:
402,192,16329,128,0,16652:0:0:0:0:
329,192,16410,128,0,16652:0:0:0:0:
256,192,16491,128,0,16652:0:0:0:0:
256,192,16813,1,0,0:0:0:0:
329,192,16813,1,0,0:0:0:0:
402,192,16813,1,0,0:0:0:0:
475,192,16813,1,0,0:0:0:0:
109,192,16813,128,0,18104:0:0:0:0:
36,192,17136,128,0,17297:0:0:0:0:
182,192,17136,128,0,17297:0:0:0:0:
256,192,17217,128,0,17297:0:0:0:0:
402,192,17297,128,0,17459:0:0:0:0:
329,192,17297,128,0,17459:0:0:0:0:
475,192,17459,128,0,17620:0:0:0:0:
182,192,17459,128,0,17620:0:0:0:0:
256,192,17539,128,0,17620:0:0:0:0:
402,192,17620,128,0,17700:0:0:0:0:
329,192,17700,128,0,17781:0:0:0:0:
182,192,17781,128,0,17942:0:0:0:0:
256,192,17781,128,0,17942:0:0:0:0:
402,192,17862,128,0,17942:0:0:0:0:
329,192,17942,128,0,18023:0:0:0:0:
256,192,18023,128,0,18104:0:0:0:0:
402,192,18104,128,0,19394:0:0:0:0:
36,192,18104,128,0,18588:0:0:0:0:
475,192,18104,128,0,18426:0:0:0:0:
182,192,18104,128,0,18184:0:0:0:0:
109,192,18184,128,0,18265:0:0:0:0:
329,192,18265,128,0,18346:0:0:0:0:
256,192,18346,128,0,18426:0:0:0:0:
109,192,18426,128,0,18507:0:0:0:0:
182,192,18507,128,0,18588:0:0:0:0:
475,192,18588,128,0,18749:0:0:0:0:
329,192,18588,128,0,18749:0:0:0:0:
256,192,18668,128,0,18749:0:0:0:0:
36,192,18749,128,0,18829:0:0:0:0:
109,192,18829,128,0,18910:0:0:0:0:
256,192,18910,128,0,19071:0:0:0:0:
329,192,18910,128,0,19071:0:0:0:0:
182,192,18991,128,0,19071:0:0:0:0:
109,192,19071,128,0,19233:0:0:0:0:
36,192,19071,128,0,19233:0:0:0:0:
182,192,19152,128,0,19233:0:0:0:0:
256,192,19233,128,0,19394:0:0:0:0:
329,192,19233,128,0,19394:0:0:0:0:
182,192,19313,128,0,19394:0:0:0:0:
36,192,19394,128,0,20039:0:0:0:0:
109,192,19394,128,0,19475:0:0:0:0:
475,192,19475,128,0,19555:0:0:0:0:
402,192,19555,128,0,19636:0:0:0:0:
329,192,19636,128,0,19717:0:0:0:0:
182,192,19717,128,0,19878:0:0:0:0:
109,192,19717,128,0,19878:0:0:0:0:
256,192,19797,128,0,19878:0:0:0:0:
402,192,19878,128,0,20039:0:0:0:0:
329,192,19878,128,0,20039:0:0:0:0:
109,192,19959,128,0,20039:0:0:0:0:
475,192,20039,128,0,20684:0:0:0:0:
182,192,20039,128,0,20200:0:0:0:0:
256,192,20039,128,0,20200:0:0:0:0:
109,192,20120,128,0,20200:0:0:0:0:
36,192,20200,128,0,20281:0:0:0:0:
402,192,20281,128,0,20362:0:0:0:0:
329,192,20362,128,0,20523:0:0:0:0:
256,192,20362,128,0,20523:0:0:0:0:
182,192,20362,128,0,20523:0:0:0:0:
109,192,20442,128,0,20523:0:0:0:0:
36,192,20523,128,0,20604:0:0:0:0:
402,192,20604,128,0,20684:0:0:0:0:
256,192,20684,128,0,21249:0:0:0:0:
109,192,20684,128,0,20846:0:0:0:0:
182,192,20684,128,0,20846:0:0:0:0:
36,192,20684,128,0,20846:0:0:0:0:
329,192,20765,128,0,20846:0:0:0:0:
402,192,20846,128,0,20926:0:0:0:0:
475,192,20926,128,0,21007:0:0:0:0:
182,192,21007,128,0,21088:0:0:0:0:
36,192,21088,128,0,21168:0:0:0:0:
109,192,21168,128,0,21329:0:0:0:0:
329,192,21168,128,0,21329:0:0:0:0:
402,192,21168,128,0,21329:0:0:0:0:
182,192,21249,128,0,21329:0:0:0:0:
36,192,21329,128,0,21975:0:0:0:0:
475,192,21329,128,0,21975:0:0:0:0:
256,192,21329,128,0,21410:0:0:0:0:
329,192,21410,128,0,21491:0:0:0:0:
402,192,21491,128,0,21571:0:0:0:0:
109,192,21571,128,0,21652:0:0:0:0:
182,192,21652,128,0,21733:0:0:0:0:
256,192,21733,128,0,21813:0:0:0:0:
329,192,21813,128,0,21894:0:0:0:0:
402,192,21894,128,0,21975:0:0:0:0:
109,192,21975,1,0,0:0:0:0:
182,192,21975,1,0,0:0:0:0:
256,192,21975,1,0,0:0:0:0:
329,192,21975,1,0,0:0:0:0:
36,192,24233,1,0,0:0:0:0:
109,192,24233,1,0,0:0:0:0:
256,192,24233,1,0,0:0:0:0:
402,192,24233,1,0,0:0:0:0:
475,192,24233,1,0,0:0:0:0:
109,192,24394,1,0,0:0:0:0:
182,192,24394,1,0,0:0:0:0:
329,192,24394,1,0,0:0:0:0:
402,192,24394,1,0,0:0:0:0:
36,192,24555,1,0,0:0:0:0:
256,192,24555,1,0,0:0:0:0:
329,192,24555,1,0,0:0:0:0:
475,192,24555,1,0,0:0:0:0:
182,192,24717,1,0,0:0:0:0:
109,192,24878,1,0,0:0:0:0:
256,192,24878,1,0,0:0:0:0:
402,192,24878,1,0,0:0:0:0:
36,192,24878,1,0,0:0:0:0:
109,192,25039,1,0,0:0:0:0:
475,192,25039,1,0,0:0:0:0:
182,192,25120,1,0,0:0:0:0:
256,192,25200,1,0,0:0:0:0:
329,192,25200,1,0,0:0:0:0:
402,192,25362,1,0,0:0:0:0:
36,192,25362,1,0,0:0:0:0:
182,192,25362,1,0,0:0:0:0:
109,192,25362,1,0,0:0:0:0:
256,192,25523,1,0,0:0:0:0:
182,192,25523,1,0,0:0:0:0:
475,192,25523,1,0,0:0:0:0:
402,192,25523,1,0,0:0:0:0:
256,192,25684,1,0,0:0:0:0:
329,192,25684,1,0,0:0:0:0:
402,192,25765,1,0,0:0:0:0:
182,192,25846,1,0,0:0:0:0:
36,192,25846,1,0,0:0:0:0:
109,192,25846,1,0,0:0:0:0:
475,192,25846,1,0,0:0:0:0:
182,192,26007,1,0,0:0:0:0:
402,192,26007,1,0,0:0:0:0:
256,192,26168,1,0,0:0:0:0:
329,192,26168,1,0,0:0:0:0:
475,192,26168,1,0,0:0:0:0:
109,192,26168,1,0,0:0:0:0:
329,192,26329,1,0,0:0:0:0:
182,192,26329,1,0,0:0:0:0:
402,192,26410,1,0,0:0:0:0:
475,192,26491,1,0,0:0:0:0:
329,192,26491,1,0,0:0:0:0:
256,192,26571,1,0,0:0:0:0:
182,192,26652,1,0,0:0:0:0:
109,192,26652,1,0,0:0:0:0:
36,192,26652,1,0,0:0:0:0:
402,192,26652,1,0,0:0:0:0:
329,192,26813,1,0,0:0:0:0:
256,192,26813,1,0,0:0:0:0:
182,192,26813,1,0,0:0:0:0:
475,192,26813,1,0,0:0:0:0:
36,192,26975,1,0,0:0:0:0:
256,192,26975,1,0,0:0:0:0:
109,192,27055,1,0,0:0:0:0:
329,192,27136,1,0,0:0:0:0:
402,192,27136,1,0,0:0:0:0:
475,192,27136,1,0,0:0:0:0:
182,192,27136,1,0,0:0:0:0:
256,192,27297,1,0,0:0:0:0:
36,192,27459,1,0,0:0:0:0:
109,192,27459,1,0,0:0:0:0:
402,192,27459,1,0,0:0:0:0:
475,192,27459,1,0,0:0:0:0:
109,192,27620,1,0,0:0:0:0:
329,192,27620,1,0,0:0:0:0:
182,192,27700,1,0,0:0:0:0:
402,192,27781,1,0,0:0:0:0:
36,192,27942,1,0,0:0:0:0:
329,192,27942,1,0,0:0:0:0:
256,192,27942,1,0,0:0:0:0:
182,192,27942,1,0,0:0:0:0:
182,192,28104,1,0,0:0:0:0:
329,192,28104,1,0,0:0:0:0:
475,192,28104,1,0,0:0:0:0:
109,192,28104,1,0,0:0:0:0:
402,192,28265,1,0,0:0:0:0:
256,192,28346,1,0,0:0:0:0:
182,192,28426,1,0,0:0:0:0:
36,192,28426,1,0,0:0:0:0:
109,192,28426,1,0,0:0:0:0:
475,192,28426,1,0,0:0:0:0:
109,192,28588,1,0,0:0:0:0:
402,192,28588,1,0,0:0:0:0:
36,192,28749,1,0,0:0:0:0:
182,192,28749,1,0,0:0:0:0:
329,192,28749,1,0,0:0:0:0:
256,192,28749,1,0,0:0:0:0:
329,192,28910,1,0,0:0:0:0:
109,192,28910,1,0,0:0:0:0:
402,192,28991,1,0,0:0:0:0:
475,192,29071,1,0,0:0:0:0:
109,192,29233,1,0,0:0:0:0:
329,192,29233,1,0,0:0:0:0:
402,192,29233,1,0,0:0:0:0:
36,192,29233,1,0,0:0:0:0:
182,192,29394,1,0,0:0:0:0:
256,192,29394,1,0,0:0:0:0:
475,192,29394,1,0,0:0:0:0:
109,192,29394,1,0,0:0:0:0:
182,192,29555,1,0,0:0:0:0:
329,192,29555,1,0,0:0:0:0:
256,192,29717,1,0,0:0:0:0:
109,192,29717,1,0,0:0:0:0:
36,192,29717,1,0,0:0:0:0:
402,192,29717,1,0,0:0:0:0:
329,192,29878,1,0,0:0:0:0:
256,192,30039,1,0,0:0:0:0:
182,192,30039,1,0,0:0:0:0:
109,192,30039,1,0,0:0:0:0:
36,192,30039,1,0,0:0:0:0:
475,192,30200,1,0,0:0:0:0:
109,192,30200,1,0,0:0:0:0:
402,192,30281,1,0,0:0:0:0:
329,192,30362,1,0,0:0:0:0:
182,192,30523,1,0,0:0:0:0:
256,192,30523,1,0,0:0:0:0:
109,192,30523,1,0,0:0:0:0:
402,192,30523,1,0,0:0:0:0:
36,192,30684,1,0,0:0:0:0:
329,192,30684,1,0,0:0:0:0:
402,192,30684,1,0,0:0:0:0:
475,192,30684,1,0,0:0:0:0:
329,192,30846,1,0,0:0:0:0:
256,192,30926,1,0,0:0:0:0:
182,192,31007,1,0,0:0:0:0:
109,192,31007,1,0,0:0:0:0:
329,192,31007,1,0,0:0:0:0:
402,192,31007,1,0,0:0:0:0:
36,192,31168,1,0,0:0:0:0:
256,192,31168,1,0,0:0:0:0:
109,192,31329,1,0,0:0:0:0:
182,192,31329,1,0,0:0:0:0:
402,192,31329,1,0,0:0:0:0:
475,192,31329,1,0,0:0:0:0:
329,192,31491,1,0,0:0:0:0:
402,192,31571,1,0,0:0:0:0:
182,192,31652,1,0,0:0:0:0:
109,192,31733,1,0,0:0:0:0:
36,192,31813,1,0,0:0:0:0:
182,192,31813,1,0,0:0:0:0:
329,192,31813,1,0,0:0:0:0:
475,192,31813,1,0,0:0:0:0:
329,192,31975,1,0,0:0:0:0:
402,192,31975,1,0,0:0:0:0:
109,192,31975,1,0,0:0:0:0:
36,192,31975,1,0,0:0:0:0:
329,192,32136,1,0,0:0:0:0:
256,192,32136,1,0,0:0:0:0:
402,192,32217,1,0,0:0:0:0:
182,192,32297,1,0,0:0:0:0:
109,192,32297,1,0,0:0:0:0:
475,192,32297,1,0,0:0:0:0:
36,192,32297,1,0,0:0:0:0:
182,192,32459,128,0,32539:0:0:0:0:
402,192,32459,1,0,0:0:0:0:
109,192,32539,128,0,32620:0:0:0:0:
36,192,32620,128,0,32700:0:0:0:0:
475,192,32620,1,0,0:0:0:0:
329,192,32620,1,0,0:0:0:0:
256,192,32620,1,0,0:0:0:0:
256,192,32781,1,0,0:0:0:0:
402,192,32781,1,0,0:0:0:0:
182,192,32862,1,0,0:0:0:0:
109,192,32942,1,0,0:0:0:0:
182,192,33104,1,0,0:0:0:0:
329,192,33104,1,0,0:0:0:0:
402,192,33104,1,0,0:0:0:0:
36,192,33104,1,0,0:0:0:0:
329,192,33265,1,0,0:0:0:0:
402,192,33265,1,0,0:0:0:0:
182,192,33265,1,0,0:0:0:0:
109,192,33265,1,0,0:0:0:0:
475,192,33426,1,0,0:0:0:0:
109,192,33426,1,0,0:0:0:0:
36,192,33426,1,0,0:0:0:0:
329,192,33426,128,0,33507:0:0:0:0:
256,192,33507,128,0,33588:0:0:0:0:
182,192,33588,128,0,33668:0:0:0:0:
256,192,33749,1,0,0:0:0:0:
329,192,33749,1,0,0:0:0:0:
182,192,33749,1,0,0:0:0:0:
36,192,33749,1,0,0:0:0:0:
109,192,33910,1,0,0:0:0:0:
182,192,33910,1,0,0:0:0:0:
475,192,33910,1,0,0:0:0:0:
329,192,33910,1,0,0:0:0:0:
329,192,34071,1,0,0:0:0:0:
402,192,34071,1,0,0:0:0:0:
475,192,34071,1,0,0:0:0:0:
182,192,34152,1,0,0:0:0:0:
109,192,34152,1,0,0:0:0:0:
36,192,34152,1,0,0:0:0:0:
256,192,34233,1,0,0:0:0:0:
329,192,34233,1,0,0:0:0:0:
402,192,34233,1,0,0:0:0:0:
475,192,34233,1,0,0:0:0:0:
329,192,34394,1,0,0:0:0:0:
402,192,34394,1,0,0:0:0:0:
182,192,34394,1,0,0:0:0:0:
109,192,34394,1,0,0:0:0:0:
36,192,34394,1,0,0:0:0:0:
36,192,34717,1,0,0:0:0:0:
109,192,34717,1,0,0:0:0:0:
256,192,34717,1,0,0:0:0:0:
475,192,34717,1,0,0:0:0:0:
402,192,34717,1,0,0:0:0:0:
182,192,34878,1,0,0:0:0:0:
109,192,34878,1,0,0:0:0:0:
256,192,34878,1,0,0:0:0:0:
475,192,34878,1,0,0:0:0:0:
329,192,34878,1,0,0:0:0:0:
182,192,35039,1,0,0:0:0:0:
36,192,35200,1,0,0:0:0:0:
109,192,35200,1,0,0:0:0:0:
402,192,35200,1,0,0:0:0:0:
256,192,35200,1,0,0:0:0:0:
475,192,35362,1,0,0:0:0:0:
182,192,35362,1,0,0:0:0:0:
402,192,35442,1,0,0:0:0:0:
329,192,35523,1,0,0:0:0:0:
109,192,35523,1,0,0:0:0:0:
182,192,35684,1,0,0:0:0:0:
36,192,35684,1,0,0:0:0:0:
475,192,35684,1,0,0:0:0:0:
256,192,35684,1,0,0:0:0:0:
475,192,35846,1,0,0:0:0:0:
402,192,35846,1,0,0:0:0:0:
109,192,35846,1,0,0:0:0:0:
182,192,35846,1,0,0:0:0:0:
36,192,36007,1,0,0:0:0:0:
256,192,36007,1,0,0:0:0:0:
329,192,36088,1,0,0:0:0:0:
402,192,36168,1,0,0:0:0:0:
182,192,36168,1,0,0:0:0:0:
109,192,36168,1,0,0:0:0:0:
475,192,36168,1,0,0:0:0:0:
182,192,36329,1,0,0:0:0:0:
256,192,36329,1,0,0:0:0:0:
109,192,36491,1,0,0:0:0:0:
36,192,36491,1,0,0:0:0:0:
329,192,36491,1,0,0:0:0:0:
402,192,36491,1,0,0:0:0:0:
182,192,36652,1,0,0:0:0:0:
329,192,36652,1,0,0:0:0:0:
402,192,36733,1,0,0:0:0:0:
475,192,36813,1,0,0:0:0:0:
256,192,36813,1,0,0:0:0:0:
329,192,36894,1,0,0:0:0:0:
402,192,36975,1,0,0:0:0:0:
182,192,36975,1,0,0:0:0:0:
109,192,36975,1,0,0:0:0:0:
36,192,36975,1,0,0:0:0:0:
182,192,37136,1,0,0:0:0:0:
109,192,37136,1,0,0:0:0:0:
475,192,37136,1,0,0:0:0:0:
329,192,37136,1,0,0:0:0:0:
256,192,37297,1,0,0:0:0:0:
402,192,37297,1,0,0:0:0:0:
329,192,37378,1,0,0:0:0:0:
182,192,37459,1,0,0:0:0:0:
109,192,37459,1,0,0:0:0:0:
402,192,37459,1,0,0:0:0:0:
475,192,37459,1,0,0:0:0:0:
256,192,37620,1,0,0:0:0:0:
36,192,37781,1,0,0:0:0:0:
182,192,37781,1,0,0:0:0:0:
402,192,37781,1,0,0:0:0:0:
329,192,37781,1,0,0:0:0:0:
109,192,37942,1,0,0:0:0:0:
475,192,37942,1,0,0:0:0:0:
182,192,38023,1,0,0:0:0:0:
256,192,38104,1,0,0:0:0:0:
402,192,38265,1,0,0:0:0:0:
182,192,38265,1,0,0:0:0:0:
36,192,38265,1,0,0:0:0:0:
329,192,38265,1,0,0:0:0:0:
109,192,38426,1,0,0:0:0:0:
256,192,38426,1,0,0:0:0:0:
329,192,38426,1,0,0:0:0:0:
475,192,38426,1,0,0:0:0:0:
182,192,38588,1,0,0:0:0:0:
256,192,38668,1,0,0:0:0:0:
329,192,38749,1,0,0:0:0:0:
475,192,38749,1,0,0:0:0:0:
402,192,38749,1,0,0:0:0:0:
182,192,38749,1,0,0:0:0:0:
36,192,38910,1,0,0:0:0:0:
109,192,38910,1,0,0:0:0:0:
256,192,39071,1,0,0:0:0:0:
329,192,39071,1,0,0:0:0:0:
402,192,39071,1,0,0:0:0:0:
475,192,39071,1,0,0:0:0:0:
256,192,39233,1,0,0:0:0:0:
475,192,39233,128,0,39313:0:0:0:0:
36,192,39233,1,0,0:0:0:0:
182,192,39313,1,0,0:0:0:0:
402,192,39313,128,0,39394:0:0:0:0:
109,192,39394,1,0,0:0:0:0:
329,192,39394,128,0,39475:0:0:0:0:
182,192,39555,1,0,0:0:0:0:
256,192,39555,1,0,0:0:0:0:
475,192,39555,1,0,0:0:0:0:
36,192,39555,1,0,0:0:0:0:
182,192,39717,1,0,0:0:0:0:
256,192,39717,1,0,0:0:0:0:
402,192,39717,1,0,0:0:0:0:
109,192,39717,1,0,0:0:0:0:
329,192,39878,1,0,0:0:0:0:
475,192,39878,1,0,0:0:0:0:
402,192,40039,1,0,0:0:0:0:
182,192,40039,1,0,0:0:0:0:
36,192,40039,1,0,0:0:0:0:
256,192,40039,1,0,0:0:0:0:
329,192,40200,1,0,0:0:0:0:
402,192,40362,1,0,0:0:0:0:
475,192,40362,1,0,0:0:0:0:
109,192,40362,1,0,0:0:0:0:
36,192,40362,1,0,0:0:0:0:
182,192,40523,128,0,40604:0:0:0:0:
256,192,40523,1,0,0:0:0:0:
329,192,40684,1,0,0:0:0:0:
109,192,40684,1,0,0:0:0:0:
402,192,40765,1,0,0:0:0:0:
256,192,40846,1,0,0:0:0:0:
182,192,40846,1,0,0:0:0:0:
36,192,40846,1,0,0:0:0:0:
329,192,40846,1,0,0:0:0:0:
402,192,41007,1,0,0:0:0:0:
475,192,41007,1,0,0:0:0:0:
256,192,41007,1,0,0:0:0:0:
182,192,41007,1,0,0:0:0:0:
329,192,41168,1,0,0:0:0:0:
109,192,41168,128,0,41249:0:0:0:0:
256,192,41249,1,0,0:0:0:0:
182,192,41329,1,0,0:0:0:0:
36,192,41329,1,0,0:0:0:0:
402,192,41329,1,0,0:0:0:0:
475,192,41329,1,0,0:0:0:0:
109,192,41491,1,0,0:0:0:0:
182,192,41571,1,0,0:0:0:0:
256,192,41652,1,0,0:0:0:0:
402,192,41652,1,0,0:0:0:0:
329,192,41652,1,0,0:0:0:0:
475,192,41652,1,0,0:0:0:0:
36,192,41813,1,0,0:0:0:0:
256,192,41813,128,0,41894:0:0:0:0:
109,192,41894,1,0,0:0:0:0:
182,192,41975,1,0,0:0:0:0:
402,192,41975,1,0,0:0:0:0:
256,192,42136,1,0,0:0:0:0:
329,192,42136,1,0,0:0:0:0:
475,192,42136,1,0,0:0:0:0:
36,192,42136,1,0,0:0:0:0:
36,192,42297,1,0,0:0:0:0:
109,192,42297,1,0,0:0:0:0:
182,192,42297,1,0,0:0:0:0:
256,192,42297,1,0,0:0:0:0:
402,192,42459,1,0,0:0:0:0:
182,192,42459,128,0,42539:0:0:0:0:
329,192,42539,1,0,0:0:0:0:
256,192,42620,1,0,0:0:0:0:
109,192,42620,1,0,0:0:0:0:
36,192,42620,1,0,0:0:0:0:
475,192,42620,1,0,0:0:0:0:
182,192,42781,1,0,0:0:0:0:
329,192,42942,1,0,0:0:0:0:
402,192,42942,1,0,0:0:0:0:
109,192,42942,1,0,0:0:0:0:
182,192,42942,1,0,0:0:0:0:
475,192,43104,1,0,0:0:0:0:
256,192,43104,128,0,43184:0:0:0:0:
402,192,43184,1,0,0:0:0:0:
329,192,43265,1,0,0:0:0:0:
256,192,43426,1,0,0:0:0:0:
182,192,43426,1,0,0:0:0:0:
36,192,43426,1,0,0:0:0:0:
402,192,43426,1,0,0:0:0:0:
109,192,43588,1,0,0:0:0:0:
182,192,43588,1,0,0:0:0:0:
329,192,43588,1,0,0:0:0:0:
475,192,43588,1,0,0:0:0:0:
329,192,43749,1,0,0:0:0:0:
402,192,43749,1,0,0:0:0:0:
475,192,43749,1,0,0:0:0:0:
182,192,43829,1,0,0:0:0:0:
109,192,43829,1,0,0:0:0:0:
36,192,43829,1,0,0:0:0:0:
402,192,43910,1,0,0:0:0:0:
475,192,43910,1,0,0:0:0:0:
256,192,43910,1,0,0:0:0:0:
36,192,43991,1,0,0:0:0:0:
109,192,43991,1,0,0:0:0:0:
329,192,43991,1,0,0:0:0:0:
402,192,44071,1,0,0:0:0:0:
475,192,44071,1,0,0:0:0:0:
182,192,44071,1,0,0:0:0:0:
109,192,44152,1,0,0:0:0:0:
36,192,44152,1,0,0:0:0:0:
256,192,44152,1,0,0:0:0:0:
329,192,44233,1,0,0:0:0:0:
402,192,44233,1,0,0:0:0:0:
475,192,44233,1,0,0:0:0:0:
256,192,44313,1,0,0:0:0:0:
182,192,44394,1,0,0:0:0:0:
109,192,44394,1,0,0:0:0:0:
36,192,44394,1,0,0:0:0:0:
329,192,44475,1,0,0:0:0:0:
402,192,44475,1,0,0:0:0:0:
475,192,44475,1,0,0:0:0:0:
256,192,44555,1,0,0:0:0:0:
182,192,44555,1,0,0:0:0:0:
109,192,44555,1,0,0:0:0:0:
36,192,44555,128,0,44636:0:0:0:0:
256,192,44717,128,0,44797:0:0:0:0:
475,192,44878,128,0,44959:0:0:0:0:
402,192,44959,128,0,45039:0:0:0:0:
329,192,45039,128,0,45120:0:0:0:0:
182,192,45039,1,0,0:0:0:0:
109,192,45039,1,0,0:0:0:0:
36,192,45039,1,0,0:0:0:0:
36,192,45200,1,0,0:0:0:0:
109,192,45200,1,0,0:0:0:0:
182,192,45200,1,0,0:0:0:0:
329,192,45200,1,0,0:0:0:0:
402,192,45200,1,0,0:0:0:0:
475,192,45200,1,0,0:0:0:0:
256,192,45362,1,0,0:0:0:0:
109,192,45523,1,0,0:0:0:0:
36,192,45684,1,0,0:0:0:0:
256,192,45684,1,0,0:0:0:0:
475,192,45684,1,0,0:0:0:0:
475,192,45846,1,0,0:0:0:0:
329,192,46007,1,0,0:0:0:0:
182,192,46168,1,0,0:0:0:0:
256,192,46168,1,0,0:0:0:0:
329,192,46168,1,0,0:0:0:0:
36,192,46329,1,0,0:0:0:0:
256,192,46491,128,0,47136:0:0:0:0:
402,192,46491,1,0,0:0:0:0:
329,192,46652,1,0,0:0:0:0:
182,192,46813,1,0,0:0:0:0:
109,192,46975,1,0,0:0:0:0:
475,192,47136,1,0,0:0:0:0:
182,192,47297,1,0,0:0:0:0:
256,192,47378,1,0,0:0:0:0:
329,192,47459,1,0,0:0:0:0:
256,192,47539,1,0,0:0:0:0:
182,192,47620,1,0,0:0:0:0:
109,192,47781,1,0,0:0:0:0:
256,192,47942,1,0,0:0:0:0:
402,192,48104,1,0,0:0:0:0:
109,192,48265,1,0,0:0:0:0:
256,192,48426,1,0,0:0:0:0:
109,192,48588,1,0,0:0:0:0:
402,192,48749,1,0,0:0:0:0:
256,192,48910,1,0,0:0:0:0:
109,192,49071,1,0,0:0:0:0:
475,192,49071,1,0,0:0:0:0:
329,192,49233,1,0,0:0:0:0:
36,192,49394,1,0,0:0:0:0:
182,192,49555,1,0,0:0:0:0:
475,192,49717,1,0,0:0:0:0:
329,192,49878,1,0,0:0:0:0:
36,192,50039,1,0,0:0:0:0:
182,192,50200,1,0,0:0:0:0:
402,192,50362,1,0,0:0:0:0:
256,192,50362,1,0,0:0:0:0:
109,192,50362,1,0,0:0:0:0:
402,192,50523,1,0,0:0:0:0:
109,192,50684,1,0,0:0:0:0:
402,192,50846,1,0,0:0:0:0:
109,192,50846,1,0,0:0:0:0:
256,192,50846,1,0,0:0:0:0:
256,192,51007,1,0,0:0:0:0:
402,192,51168,1,0,0:0:0:0:
402,192,51329,1,0,0:0:0:0:
256,192,51329,1,0,0:0:0:0:
109,192,51329,1,0,0:0:0:0:
109,192,51491,1,0,0:0:0:0:
36,192,51652,1,0,0:0:0:0:
182,192,51652,128,0,52297:0:0:0:0:
329,192,51652,128,0,52297:0:0:0:0:
402,192,51813,1,0,0:0:0:0:
109,192,51975,1,0,0:0:0:0:
475,192,52136,1,0,0:0:0:0:
36,192,52297,1,0,0:0:0:0:
256,192,52459,1,0,0:0:0:0:
109,192,52620,1,0,0:0:0:0:
402,192,52781,1,0,0:0:0:0:
256,192,52942,1,0,0:0:0:0:
402,192,53104,1,0,0:0:0:0:
475,192,53265,1,0,0:0:0:0:
329,192,53265,128,0,53346:0:0:0:0:
182,192,53265,128,0,53346:0:0:0:0:
182,192,53426,128,0,53507:0:0:0:0:
329,192,53426,128,0,53507:0:0:0:0:
402,192,53426,1,0,0:0:0:0:
182,192,53588,128,0,53749:0:0:0:0:
329,192,53588,128,0,53749:0:0:0:0:
36,192,53588,1,0,0:0:0:0:
109,192,53749,1,0,0:0:0:0:
182,192,53910,128,0,54071:0:0:0:0:
329,192,53910,128,0,54071:0:0:0:0:
256,192,53910,1,0,0:0:0:0:
402,192,54071,1,0,0:0:0:0:
182,192,54233,128,0,54555:0:0:0:0:
329,192,54233,128,0,54555:0:0:0:0:
36,192,54233,1,0,0:0:0:0:
475,192,54394,1,0,0:0:0:0:
109,192,54555,1,0,0:0:0:0:
402,192,54555,1,0,0:0:0:0:
36,192,54717,1,0,0:0:0:0:
109,192,54743,1,0,0:0:0:0:
182,192,54770,1,0,0:0:0:0:
256,192,54797,1,0,0:0:0:0:
329,192,54824,1,0,0:0:0:0:
402,192,54851,1,0,0:0:0:0:
475,192,54878,1,0,0:0:0:0:
36,192,54878,1,0,0:0:0:0:
109,192,54878,1,0,0:0:0:0:
182,192,54932,1,0,0:0:0:0:
256,192,54932,1,0,0:0:0:0:
329,192,54985,1,0,0:0:0:0:
402,192,54985,1,0,0:0:0:0:
475,192,55039,1,0,0:0:0:0:
36,192,55039,1,0,0:0:0:0:
109,192,55093,1,0,0:0:0:0:
182,192,55093,1,0,0:0:0:0:
256,192,55147,1,0,0:0:0:0:
329,192,55147,1,0,0:0:0:0:
402,192,55200,1,0,0:0:0:0:
475,192,55200,1,0,0:0:0:0:
182,192,55200,1,0,0:0:0:0:
109,192,55200,1,0,0:0:0:0:
36,192,55200,1,0,0:0:0:0:
256,192,55362,1,0,0:0:0:0:
329,192,55523,1,0,0:0:0:0:
402,192,55523,1,0,0:0:0:0:
475,192,55523,1,0,0:0:0:0:
256,192,55523,1,0,0:0:0:0:
182,192,55684,128,0,55846:0:0:0:0:
256,192,56007,1,0,0:0:0:0:
329,192,56007,1,0,0:0:0:0:
475,192,56007,1,0,0:0:0:0:
402,192,56007,1,0,0:0:0:0:
182,192,56168,128,0,56329:0:0:0:0:
256,192,56491,1,0,0:0:0:0:
329,192,56491,1,0,0:0:0:0:
402,192,56491,1,0,0:0:0:0:
475,192,56491,1,0,0:0:0:0:
182,192,56652,128,0,56813:0:0:0:0:
256,192,56975,1,0,0:0:0:0:
329,192,56975,1,0,0:0:0:0:
402,192,56975,1,0,0:0:0:0:
475,192,56975,1,0,0:0:0:0:
182,192,57136,128,0,57297:0:0:0:0:
329,192,57297,1,0,0:0:0:0:
402,192,57297,1,0,0:0:0:0:
475,192,57297,1,0,0:0:0:0:
109,192,57378,1,0,0:0:0:0:
256,192,57378,1,0,0:0:0:0:
36,192,57378,1,0,0:0:0:0:
329,192,57459,1,0,0:0:0:0:
402,192,57459,1,0,0:0:0:0:
475,192,57459,1,0,0:0:0:0:
182,192,57459,1,0,0:0:0:0:
402,192,57620,1,0,0:0:0:0:
475,192,57620,1,0,0:0:0:0:
329,192,57620,1,0,0:0:0:0:
256,192,57781,1,0,0:0:0:0:
182,192,57781,1,0,0:0:0:0:
109,192,57781,1,0,0:0:0:0:
36,192,57781,1,0,0:0:0:0:
329,192,57942,128,0,58104:0:0:0:0:
256,192,58104,1,0,0:0:0:0:
182,192,58104,1,0,0:0:0:0:
36,192,58104,1,0,0:0:0:0:
109,192,58104,1,0,0:0:0:0:
329,192,58265,128,0,58426:0:0:0:0:
36,192,58588,1,0,0:0:0:0:
109,192,58588,1,0,0:0:0:0:
182,192,58588,1,0,0:0:0:0:
256,192,58588,1,0,0:0:0:0:
329,192,58749,128,0,58910:0:0:0:0:
36,192,59071,1,0,0:0:0:0:
109,192,59071,1,0,0:0:0:0:
182,192,59071,1,0,0:0:0:0:
256,192,59071,1,0,0:0:0:0:
329,192,59233,128,0,59394:0:0:0:0:
36,192,59555,1,0,0:0:0:0:
109,192,59555,1,0,0:0:0:0:
182,192,59555,1,0,0:0:0:0:
256,192,59555,1,0,0:0:0:0:
329,192,59717,128,0,59878:0:0:0:0:
36,192,59878,1,0,0:0:0:0:
109,192,59878,1,0,0:0:0:0:
182,192,59878,1,0,0:0:0:0:
402,192,59959,1,0,0:0:0:0:
475,192,59959,1,0,0:0:0:0:
256,192,59959,1,0,0:0:0:0:
329,192,60039,1,0,0:0:0:0:
109,192,60039,1,0,0:0:0:0:
36,192,60039,1,0,0:0:0:0:
182,192,60039,1,0,0:0:0:0:
36,192,60200,1,0,0:0:0:0:
109,192,60200,1,0,0:0:0:0:
182,192,60200,1,0,0:0:0:0:
256,192,60200,128,0,60281:0:0:0:0:
182,192,60362,1,0,0:0:0:0:
109,192,60362,1,0,0:0:0:0:
36,192,60362,1,0,0:0:0:0:
256,192,60362,128,0,60684:0:0:0:0:
109,192,60684,1,0,0:0:0:0:
36,192,60684,1,0,0:0:0:0:
402,192,60684,1,0,0:0:0:0:
475,192,60684,1,0,0:0:0:0:
256,192,60846,128,0,61007:0:0:0:0:
36,192,61168,1,0,0:0:0:0:
109,192,61168,1,0,0:0:0:0:
402,192,61168,1,0,0:0:0:0:
475,192,61168,1,0,0:0:0:0:
256,192,61329,128,0,61491:0:0:0:0:
36,192,61652,1,0,0:0:0:0:
109,192,61652,1,0,0:0:0:0:
402,192,61652,1,0,0:0:0:0:
475,192,61652,1,0,0:0:0:0:
256,192,61813,128,0,61975:0:0:0:0:
109,192,62136,1,0,0:0:0:0:
36,192,62136,1,0,0:0:0:0:
402,192,62136,1,0,0:0:0:0:
475,192,62136,1,0,0:0:0:0:
256,192,62297,128,0,62459:0:0:0:0:
182,192,62459,1,0,0:0:0:0:
36,192,62459,1,0,0:0:0:0:
109,192,62459,1,0,0:0:0:0:
402,192,62539,1,0,0:0:0:0:
475,192,62539,1,0,0:0:0:0:
329,192,62539,1,0,0:0:0:0:
256,192,62620,1,0,0:0:0:0:
182,192,62620,1,0,0:0:0:0:
109,192,62620,1,0,0:0:0:0:
36,192,62620,1,0,0:0:0:0:
36,192,62781,1,0,0:0:0:0:
475,192,62781,1,0,0:0:0:0:
256,192,62781,1,0,0:0:0:0:
36,192,62942,1,0,0:0:0:0:
109,192,62942,1,0,0:0:0:0:
402,192,62942,1,0,0:0:0:0:
475,192,62942,1,0,0:0:0:0:
256,192,63104,128,0,63265:0:0:0:0:
36,192,63265,1,0,0:0:0:0:
109,192,63265,1,0,0:0:0:0:
402,192,63265,1,0,0:0:0:0:
475,192,63265,1,0,0:0:0:0:
256,192,63426,128,0,63588:0:0:0:0:
36,192,63749,1,0,0:0:0:0:
109,192,63749,1,0,0:0:0:0:
402,192,63749,1,0,0:0:0:0:
475,192,63749,1,0,0:0:0:0:
256,192,63910,128,0,64071:0:0:0:0:
475,192,64233,1,0,0:0:0:0:
402,192,64233,1,0,0:0:0:0:
109,192,64233,1,0,0:0:0:0:
36,192,64233,1,0,0:0:0:0:
256,192,64394,128,0,64555:0:0:0:0:
36,192,64717,1,0,0:0:0:0:
109,192,64717,1,0,0:0:0:0:
402,192,64717,1,0,0:0:0:0:
475,192,64717,1,0,0:0:0:0:
256,192,64878,128,0,65039:0:0:0:0:
36,192,65039,1,0,0:0:0:0:
109,192,65039,1,0,0:0:0:0:
402,192,65039,1,0,0:0:0:0:
475,192,65039,1,0,0:0:0:0:
329,192,65120,1,0,0:0:0:0:
182,192,65120,1,0,0:0:0:0:
36,192,65200,1,0,0:0:0:0:
109,192,65200,1,0,0:0:0:0:
402,192,65200,1,0,0:0:0:0:
475,192,65200,1,0,0:0:0:0:
256,192,65200,1,0,0:0:0:0:
182,192,65362,1,0,0:0:0:0:
109,192,65362,1,0,0:0:0:0:
329,192,65362,1,0,0:0:0:0:
402,192,65362,1,0,0:0:0:0:
109,192,65523,1,0,0:0:0:0:
36,192,65523,1,0,0:0:0:0:
402,192,65523,1,0,0:0:0:0:
475,192,65523,1,0,0:0:0:0:
256,192,65523,1,0,0:0:0:0:
182,192,65604,128,0,65846:0:0:0:0:
329,192,65604,128,0,65846:0:0:0:0:
402,192,65684,128,0,65846:0:0:0:0:
109,192,65684,128,0,65846:0:0:0:0:
475,192,65765,128,0,65846:0:0:0:0:
36,192,65765,128,0,65846:0:0:0:0:
256,192,65846,1,0,0:0:0:0:
182,192,66007,1,0,0:0:0:0:
109,192,66168,1,0,0:0:0:0:
36,192,66329,1,0,0:0:0:0:
109,192,66491,1,0,0:0:0:0:
329,192,66652,1,0,0:0:0:0:
475,192,66652,1,0,0:0:0:0:
256,192,66813,1,0,0:0:0:0:
475,192,66975,1,0,0:0:0:0:
402,192,66975,1,0,0:0:0:0:
329,192,67136,1,0,0:0:0:0:
256,192,67297,1,0,0:0:0:0:
109,192,67459,1,0,0:0:0:0:
36,192,67620,1,0,0:0:0:0:
182,192,67700,1,0,0:0:0:0:
256,192,67781,1,0,0:0:0:0:
402,192,67862,1,0,0:0:0:0:
475,192,67942,1,0,0:0:0:0:
329,192,68023,1,0,0:0:0:0:
402,192,68104,1,0,0:0:0:0:
329,192,68184,1,0,0:0:0:0:
256,192,68265,1,0,0:0:0:0:
182,192,68346,1,0,0:0:0:0:
109,192,68426,128,0,68588:0:0:0:0:
36,192,68426,128,0,68588:0:0:0:0:
182,192,68588,1,0,0:0:0:0:
256,192,68668,1,0,0:0:0:0:
182,192,68749,1,0,0:0:0:0:
256,192,68829,1,0,0:0:0:0:
329,192,68910,1,0,0:0:0:0:
402,192,68991,1,0,0:0:0:0:
475,192,69071,128,0,69233:0:0:0:0:
36,192,69071,128,0,69233:0:0:0:0:
402,192,69233,1,0,0:0:0:0:
329,192,69394,1,0,0:0:0:0:
256,192,69475,1,0,0:0:0:0:
182,192,69555,1,0,0:0:0:0:
109,192,69636,1,0,0:0:0:0:
36,192,69717,128,0,69878:0:0:0:0:
256,192,69717,128,0,69878:0:0:0:0:
475,192,69717,128,0,69878:0:0:0:0:
182,192,69878,1,0,0:0:0:0:
402,192,69878,1,0,0:0:0:0:
109,192,69959,1,0,0:0:0:0:
329,192,69959,1,0,0:0:0:0:
36,192,70039,1,0,0:0:0:0:
256,192,70039,1,0,0:0:0:0:
109,192,70120,1,0,0:0:0:0:
329,192,70120,1,0,0:0:0:0:
182,192,70200,1,0,0:0:0:0:
402,192,70200,1,0,0:0:0:0:
475,192,70281,1,0,0:0:0:0:
256,192,70281,1,0,0:0:0:0:
329,192,70362,128,0,71007:0:0:0:0:
402,192,70362,128,0,71007:0:0:0:0:
109,192,70362,128,0,70684:0:0:0:0:
36,192,70362,128,0,70684:0:0:0:0:
182,192,70684,128,0,71007:0:0:0:0:
256,192,70684,128,0,71007:0:0:0:0:
36,192,71007,1,0,0:0:0:0:
109,192,71007,1,0,0:0:0:0:
475,192,71007,1,0,0:0:0:0:
109,192,71168,1,0,0:0:0:0:
182,192,71168,1,0,0:0:0:0:
329,192,71168,1,0,0:0:0:0:
402,192,71168,1,0,0:0:0:0:
329,192,71329,1,0,0:0:0:0:
402,192,71329,1,0,0:0:0:0:
36,192,71329,1,0,0:0:0:0:
182,192,71329,1,0,0:0:0:0:
109,192,71491,1,0,0:0:0:0:
36,192,71491,1,0,0:0:0:0:
256,192,71491,1,0,0:0:0:0:
475,192,71491,1,0,0:0:0:0:
402,192,71652,1,0,0:0:0:0:
475,192,71652,1,0,0:0:0:0:
182,192,71652,1,0,0:0:0:0:
36,192,71652,1,0,0:0:0:0:
182,192,71813,1,0,0:0:0:0:
329,192,71813,1,0,0:0:0:0:
402,192,71813,1,0,0:0:0:0:
475,192,71813,1,0,0:0:0:0:
256,192,71975,1,0,0:0:0:0:
36,192,71975,1,0,0:0:0:0:
109,192,71975,1,0,0:0:0:0:
475,192,71975,1,0,0:0:0:0:
329,192,71975,1,0,0:0:0:0:
402,192,72055,1,0,0:0:0:0:
329,192,72136,1,0,0:0:0:0:
256,192,72136,1,0,0:0:0:0:
109,192,72136,1,0,0:0:0:0:
36,192,72136,1,0,0:0:0:0:
182,192,72217,1,0,0:0:0:0:
36,192,72297,1,0,0:0:0:0:
109,192,72297,1,0,0:0:0:0:
329,192,72297,1,0,0:0:0:0:
402,192,72297,1,0,0:0:0:0:
475,192,72297,1,0,0:0:0:0:
256,192,72297,1,0,0:0:0:0:
182,192,72378,1,0,0:0:0:0:
109,192,72459,1,0,0:0:0:0:
402,192,72459,1,0,0:0:0:0:
475,192,72459,1,0,0:0:0:0:
329,192,72459,1,0,0:0:0:0:
256,192,72539,1,0,0:0:0:0:
182,192,72620,1,0,0:0:0:0:
109,192,72620,1,0,0:0:0:0:
36,192,72620,1,0,0:0:0:0:
475,192,72620,1,0,0:0:0:0:
402,192,72700,1,0,0:0:0:0:
329,192,72781,1,0,0:0:0:0:
256,192,72781,1,0,0:0:0:0:
182,192,72781,1,0,0:0:0:0:
36,192,72781,1,0,0:0:0:0:
109,192,72862,1,0,0:0:0:0:
182,192,72942,1,0,0:0:0:0:
256,192,72942,1,0,0:0:0:0:
36,192,72942,1,0,0:0:0:0:
475,192,72942,1,0,0:0:0:0:
402,192,73023,1,0,0:0:0:0:
329,192,73104,1,0,0:0:0:0:
182,192,73104,1,0,0:0:0:0:
109,192,73104,1,0,0:0:0:0:
36,192,73104,1,0,0:0:0:0:
256,192,73184,1,0,0:0:0:0:
329,192,73265,1,0,0:0:0:0:
402,192,73265,1,0,0:0:0:0:
475,192,73265,1,0,0:0:0:0:
182,192,73265,1,0,0:0:0:0:
109,192,73346,1,0,0:0:0:0:
36,192,73426,1,0,0:0:0:0:
329,192,73426,1,0,0:0:0:0:
402,192,73426,1,0,0:0:0:0:
475,192,73426,1,0,0:0:0:0:
256,192,73507,1,0,0:0:0:0:
182,192,73588,1,0,0:0:0:0:
109,192,73588,1,0,0:0:0:0:
36,192,73588,1,0,0:0:0:0:
402,192,73668,1,0,0:0:0:0:
475,192,73668,1,0,0:0:0:0:
329,192,73668,1,0,0:0:0:0:
36,192,73749,1,0,0:0:0:0:
109,192,73749,1,0,0:0:0:0:
182,192,73749,1,0,0:0:0:0:
256,192,73829,1,0,0:0:0:0:
402,192,73829,1,0,0:0:0:0:
475,192,73829,1,0,0:0:0:0:
329,192,73910,1,0,0:0:0:0:
109,192,73910,1,0,0:0:0:0:
36,192,73910,1,0,0:0:0:0:
402,192,73991,1,0,0:0:0:0:
475,192,73991,1,0,0:0:0:0:
182,192,73991,1,0,0:0:0:0:
256,192,74071,1,0,0:0:0:0:
109,192,74071,1,0,0:0:0:0:
36,192,74071,1,0,0:0:0:0:
329,192,74152,1,0,0:0:0:0:
402,192,74152,1,0,0:0:0:0:
475,192,74152,1,0,0:0:0:0:
36,192,74233,1,0,0:0:0:0:
109,192,74233,1,0,0:0:0:0:
182,192,74253,1,0,0:0:0:0:
402,192,74313,1,0,0:0:0:0:
475,192,74313,1,0,0:0:0:0:
329,192,74334,1,0,0:0:0:0:
182,192,74394,1,0,0:0:0:0:
36,192,74394,1,0,0:0:0:0:
109,192,74414,1,0,0:0:0:0:
402,192,74475,1,0,0:0:0:0:
256,192,74475,1,0,0:0:0:0:
475,192,74495,1,0,0:0:0:0:
329,192,74555,1,0,0:0:0:0:
36,192,74555,1,0,0:0:0:0:
109,192,74575,1,0,0:0:0:0:
182,192,74636,1,0,0:0:0:0:
475,192,74636,1,0,0:0:0:0:
402,192,74656,1,0,0:0:0:0:
36,192,74717,1,0,0:0:0:0:
109,192,74717,1,0,0:0:0:0:
256,192,74737,1,0,0:0:0:0:
475,192,74797,1,0,0:0:0:0:
402,192,74797,1,0,0:0:0:0:
329,192,74817,1,0,0:0:0:0:
36,192,74878,1,0,0:0:0:0:
109,192,74878,1,0,0:0:0:0:
182,192,74878,1,0,0:0:0:0:
256,192,74959,1,0,0:0:0:0:
329,192,74959,1,0,0:0:0:0:
402,192,74959,1,0,0:0:0:0:
182,192,75039,1,0,0:0:0:0:
109,192,75039,1,0,0:0:0:0:
36,192,75039,1,0,0:0:0:0:
329,192,75120,1,0,0:0:0:0:
475,192,75120,1,0,0:0:0:0:
402,192,75120,1,0,0:0:0:0:
256,192,75200,1,0,0:0:0:0:
182,192,75200,1,0,0:0:0:0:
109,192,75200,1,0,0:0:0:0:
36,192,75200,1,0,0:0:0:0:
329,192,75281,1,0,0:0:0:0:
109,192,75362,1,0,0:0:0:0:
36,192,75362,1,0,0:0:0:0:
256,192,75362,1,0,0:0:0:0:
182,192,75362,1,0,0:0:0:0:
329,192,75442,1,0,0:0:0:0:
402,192,75442,1,0,0:0:0:0:
475,192,75442,1,0,0:0:0:0:
256,192,75523,1,0,0:0:0:0:
182,192,75523,1,0,0:0:0:0:
109,192,75523,1,0,0:0:0:0:
36,192,75523,1,0,0:0:0:0:
329,192,75604,1,0,0:0:0:0:
402,192,75684,1,0,0:0:0:0:
109,192,75684,1,0,0:0:0:0:
182,192,75765,1,0,0:0:0:0:
256,192,75846,1,0,0:0:0:0:
475,192,75846,1,0,0:0:0:0:
329,192,75846,1,0,0:0:0:0:
36,192,75846,1,0,0:0:0:0:
109,192,75926,1,0,0:0:0:0:
402,192,76007,1,0,0:0:0:0:
329,192,76007,1,0,0:0:0:0:
182,192,76007,1,0,0:0:0:0:
109,192,76088,1,0,0:0:0:0:
36,192,76168,1,0,0:0:0:0:
475,192,76168,1,0,0:0:0:0:
329,192,76168,1,0,0:0:0:0:
256,192,76168,128,0,77136:0:0:0:0:
182,192,76168,1,0,0:0:0:0:
182,192,76329,1,0,0:0:0:0:
329,192,76491,1,0,0:0:0:0:
402,192,76491,1,0,0:0:0:0:
475,192,76491,1,0,0:0:0:0:
109,192,76491,1,0,0:0:0:0:
182,192,76652,1,0,0:0:0:0:
36,192,76813,1,0,0:0:0:0:
109,192,76813,1,0,0:0:0:0:
182,192,76813,1,0,0:0:0:0:
402,192,76813,1,0,0:0:0:0:
475,192,76975,1,0,0:0:0:0:
329,192,77136,128,0,77459:0:0:0:0:
402,192,77136,1,0,0:0:0:0:
109,192,77136,1,0,0:0:0:0:
36,192,77136,1,0,0:0:0:0:
182,192,77136,1,0,0:0:0:0:
182,192,77297,1,0,0:0:0:0:
182,192,77378,1,0,0:0:0:0:
109,192,77459,128,0,77942:0:0:0:0:
402,192,77459,1,0,0:0:0:0:
475,192,77459,1,0,0:0:0:0:
36,192,77459,1,0,0:0:0:0:
256,192,77459,1,0,0:0:0:0:
329,192,77620,1,0,0:0:0:0:
256,192,77781,1,0,0:0:0:0:
182,192,77781,1,0,0:0:0:0:
402,192,77781,1,0,0:0:0:0:
475,192,77781,1,0,0:0:0:0:
36,192,77942,128,0,78426:0:0:0:0:
329,192,77942,1,0,0:0:0:0:
329,192,78023,1,0,0:0:0:0:
256,192,78104,1,0,0:0:0:0:
182,192,78104,1,0,0:0:0:0:
109,192,78104,1,0,0:0:0:0:
475,192,78104,1,0,0:0:0:0:
402,192,78184,1,0,0:0:0:0:
329,192,78265,1,0,0:0:0:0:
402,192,78426,128,0,78749:0:0:0:0:
256,192,78426,1,0,0:0:0:0:
182,192,78426,1,0,0:0:0:0:
109,192,78426,1,0,0:0:0:0:
329,192,78426,1,0,0:0:0:0:
109,192,78588,1,0,0:0:0:0:
182,192,78668,1,0,0:0:0:0:
329,192,78749,128,0,79233:0:0:0:0:
256,192,78749,1,0,0:0:0:0:
36,192,78749,1,0,0:0:0:0:
109,192,78749,1,0,0:0:0:0:
475,192,78749,1,0,0:0:0:0:
182,192,78910,1,0,0:0:0:0:
256,192,79071,1,0,0:0:0:0:
182,192,79071,1,0,0:0:0:0:
109,192,79071,1,0,0:0:0:0:
36,192,79071,1,0,0:0:0:0:
256,192,79233,128,0,79313:0:0:0:0:
475,192,79233,1,0,0:0:0:0:
182,192,79313,128,0,79394:0:0:0:0:
402,192,79313,1,0,0:0:0:0:
109,192,79394,128,0,79717:0:0:0:0:
475,192,79394,1,0,0:0:0:0:
36,192,79394,1,0,0:0:0:0:
256,192,79394,1,0,0:0:0:0:
329,192,79394,1,0,0:0:0:0:
402,192,79555,1,0,0:0:0:0:
36,192,79717,128,0,80523:0:0:0:0:
182,192,79717,1,0,0:0:0:0:
256,192,79717,1,0,0:0:0:0:
402,192,79717,1,0,0:0:0:0:
475,192,79717,1,0,0:0:0:0:
182,192,79878,1,0,0:0:0:0:
182,192,79959,1,0,0:0:0:0:
109,192,80039,1,0,0:0:0:0:
256,192,80039,1,0,0:0:0:0:
402,192,80039,1,0,0:0:0:0:
475,192,80039,1,0,0:0:0:0:
329,192,80200,1,0,0:0:0:0:
256,192,80362,1,0,0:0:0:0:
182,192,80362,1,0,0:0:0:0:
329,192,80362,1,0,0:0:0:0:
402,192,80362,1,0,0:0:0:0:
475,192,80523,128,0,80604:0:0:0:0:
402,192,80604,128,0,80684:0:0:0:0:
36,192,80684,1,0,0:0:0:0:
329,192,80684,1,0,0:0:0:0:
109,192,80684,1,0,0:0:0:0:
182,192,80684,128,0,80765:0:0:0:0:
256,192,80765,128,0,80846:0:0:0:0:
329,192,80846,128,0,80926:0:0:0:0:
402,192,80846,1,0,0:0:0:0:
36,192,80926,128,0,81007:0:0:0:0:
402,192,81007,1,0,0:0:0:0:
475,192,81007,1,0,0:0:0:0:
109,192,81007,128,0,81088:0:0:0:0:
182,192,81007,1,0,0:0:0:0:
256,192,81088,128,0,81168:0:0:0:0:
329,192,81168,128,0,81249:0:0:0:0:
402,192,81249,128,0,81329:0:0:0:0:
475,192,81329,128,0,81975:0:0:0:0:
36,192,81329,1,0,0:0:0:0:
182,192,81329,1,0,0:0:0:0:
256,192,81329,1,0,0:0:0:0:
109,192,81329,1,0,0:0:0:0:
329,192,81491,1,0,0:0:0:0:
402,192,81652,1,0,0:0:0:0:
36,192,81652,1,0,0:0:0:0:
109,192,81652,1,0,0:0:0:0:
182,192,81652,1,0,0:0:0:0:
256,192,81813,1,0,0:0:0:0:
402,192,81894,1,0,0:0:0:0:
182,192,81975,1,0,0:0:0:0:
109,192,81975,1,0,0:0:0:0:
36,192,81975,1,0,0:0:0:0:
329,192,81975,1,0,0:0:0:0:
402,192,82136,128,0,82297:0:0:0:0:
36,192,82136,1,0,0:0:0:0:
256,192,82297,128,0,82459:0:0:0:0:
182,192,82297,1,0,0:0:0:0:
329,192,82297,1,0,0:0:0:0:
475,192,82297,1,0,0:0:0:0:
109,192,82459,128,0,83265:0:0:0:0:
402,192,82459,1,0,0:0:0:0:
402,192,82539,1,0,0:0:0:0:
475,192,82620,1,0,0:0:0:0:
182,192,82620,1,0,0:0:0:0:
256,192,82620,1,0,0:0:0:0:
329,192,82620,1,0,0:0:0:0:
256,192,82781,1,0,0:0:0:0:
256,192,82942,1,0,0:0:0:0:
329,192,82942,1,0,0:0:0:0:
402,192,82942,1,0,0:0:0:0:
475,192,82942,1,0,0:0:0:0:
329,192,83104,1,0,0:0:0:0:
329,192,83184,1,0,0:0:0:0:
402,192,83265,1,0,0:0:0:0:
475,192,83265,1,0,0:0:0:0:
256,192,83265,1,0,0:0:0:0:
36,192,83265,1,0,0:0:0:0:
109,192,83426,128,0,83588:0:0:0:0:
329,192,83426,1,0,0:0:0:0:
256,192,83588,128,0,83749:0:0:0:0:
329,192,83588,1,0,0:0:0:0:
182,192,83588,1,0,0:0:0:0:
36,192,83588,1,0,0:0:0:0:
475,192,83588,1,0,0:0:0:0:
402,192,83749,128,0,84555:0:0:0:0:
182,192,83749,1,0,0:0:0:0:
109,192,83829,1,0,0:0:0:0:
36,192,83910,1,0,0:0:0:0:
329,192,83910,1,0,0:0:0:0:
256,192,83910,1,0,0:0:0:0:
182,192,83910,1,0,0:0:0:0:
182,192,84071,1,0,0:0:0:0:
256,192,84233,1,0,0:0:0:0:
329,192,84233,1,0,0:0:0:0:
36,192,84233,1,0,0:0:0:0:
109,192,84233,1,0,0:0:0:0:
36,192,84394,1,0,0:0:0:0:
109,192,84555,1,0,0:0:0:0:
36,192,84555,1,0,0:0:0:0:
475,192,84555,1,0,0:0:0:0:
182,192,84555,128,0,84609:0:0:0:0:
256,192,84609,128,0,84663:0:0:0:0:
329,192,84663,128,0,84717:0:0:0:0:
475,192,84717,128,0,85200:0:0:0:0:
109,192,84717,1,0,0:0:0:0:
36,192,84878,1,0,0:0:0:0:
182,192,84878,1,0,0:0:0:0:
329,192,84878,1,0,0:0:0:0:
402,192,84878,1,0,0:0:0:0:
256,192,85039,1,0,0:0:0:0:
256,192,85120,1,0,0:0:0:0:
402,192,85200,128,0,85684:0:0:0:0:
329,192,85200,1,0,0:0:0:0:
182,192,85200,1,0,0:0:0:0:
109,192,85200,1,0,0:0:0:0:
36,192,85200,1,0,0:0:0:0:
256,192,85362,1,0,0:0:0:0:
182,192,85523,1,0,0:0:0:0:
109,192,85523,1,0,0:0:0:0:
36,192,85523,1,0,0:0:0:0:
329,192,85523,1,0,0:0:0:0:
256,192,85684,128,0,86168:0:0:0:0:
329,192,85684,1,0,0:0:0:0:
402,192,85765,1,0,0:0:0:0:
475,192,85846,1,0,0:0:0:0:
182,192,85846,1,0,0:0:0:0:
109,192,85846,1,0,0:0:0:0:
36,192,85846,1,0,0:0:0:0:
329,192,86007,1,0,0:0:0:0:
109,192,86168,128,0,86491:0:0:0:0:
329,192,86168,1,0,0:0:0:0:
402,192,86168,1,0,0:0:0:0:
475,192,86168,1,0,0:0:0:0:
182,192,86168,1,0,0:0:0:0:
256,192,86329,1,0,0:0:0:0:
36,192,86491,128,0,87781:0:0:0:0:
329,192,86491,1,0,0:0:0:0:
475,192,86491,1,0,0:0:0:0:
402,192,86491,1,0,0:0:0:0:
182,192,86491,1,0,0:0:0:0:
256,192,86652,128,0,86813:0:0:0:0:
182,192,86975,1,0,0:0:0:0:
329,192,86975,1,0,0:0:0:0:
475,192,86975,1,0,0:0:0:0:
402,192,86975,1,0,0:0:0:0:
256,192,87136,128,0,87297:0:0:0:0:
182,192,87459,1,0,0:0:0:0:
329,192,87459,1,0,0:0:0:0:
402,192,87459,1,0,0:0:0:0:
475,192,87459,1,0,0:0:0:0:
256,192,87620,128,0,87781:0:0:0:0:
182,192,87942,1,0,0:0:0:0:
329,192,87942,1,0,0:0:0:0:
402,192,87942,1,0,0:0:0:0:
475,192,87942,1,0,0:0:0:0:
256,192,88104,128,0,88265:0:0:0:0:
182,192,88265,1,0,0:0:0:0:
109,192,88265,1,0,0:0:0:0:
36,192,88265,1,0,0:0:0:0:
329,192,88346,1,0,0:0:0:0:
475,192,88346,1,0,0:0:0:0:
402,192,88346,1,0,0:0:0:0:
256,192,88426,1,0,0:0:0:0:
182,192,88426,1,0,0:0:0:0:
109,192,88426,1,0,0:0:0:0:
36,192,88426,1,0,0:0:0:0:
182,192,88588,1,0,0:0:0:0:
109,192,88588,1,0,0:0:0:0:
36,192,88588,1,0,0:0:0:0:
256,192,88749,1,0,0:0:0:0:
329,192,88749,1,0,0:0:0:0:
402,192,88749,1,0,0:0:0:0:
475,192,88749,1,0,0:0:0:0:
182,192,88749,128,0,89071:0:0:0:0:
109,192,88910,128,0,89071:0:0:0:0:
329,192,88910,1,0,0:0:0:0:
36,192,88991,128,0,89071:0:0:0:0:
256,192,89071,1,0,0:0:0:0:
329,192,89071,1,0,0:0:0:0:
402,192,89071,1,0,0:0:0:0:
475,192,89071,1,0,0:0:0:0:
182,192,89152,1,0,0:0:0:0:
109,192,89152,1,0,0:0:0:0:
256,192,89233,1,0,0:0:0:0:
329,192,89233,1,0,0:0:0:0:
402,192,89313,1,0,0:0:0:0:
475,192,89313,1,0,0:0:0:0:
329,192,89394,1,0,0:0:0:0:
256,192,89394,1,0,0:0:0:0:
182,192,89475,1,0,0:0:0:0:
109,192,89475,1,0,0:0:0:0:
329,192,89555,1,0,0:0:0:0:
475,192,89555,1,0,0:0:0:0:
402,192,89555,1,0,0:0:0:0:
36,192,89555,1,0,0:0:0:0:
256,192,89636,1,0,0:0:0:0:
182,192,89636,1,0,0:0:0:0:
109,192,89717,1,0,0:0:0:0:
36,192,89717,1,0,0:0:0:0:
182,192,89797,1,0,0:0:0:0:
256,192,89797,1,0,0:0:0:0:
329,192,89878,1,0,0:0:0:0:
402,192,89878,1,0,0:0:0:0:
256,192,89959,1,0,0:0:0:0:
182,192,89959,1,0,0:0:0:0:
36,192,90039,1,0,0:0:0:0:
109,192,90039,1,0,0:0:0:0:
402,192,90039,1,0,0:0:0:0:
475,192,90039,1,0,0:0:0:0:
329,192,90120,1,0,0:0:0:0:
256,192,90120,1,0,0:0:0:0:
182,192,90200,1,0,0:0:0:0:
109,192,90200,1,0,0:0:0:0:
256,192,90281,1,0,0:0:0:0:
329,192,90281,1,0,0:0:0:0:
402,192,90362,1,0,0:0:0:0:
475,192,90362,1,0,0:0:0:0:
329,192,90442,1,0,0:0:0:0:
256,192,90442,1,0,0:0:0:0:
109,192,90523,1,0,0:0:0:0:
36,192,90523,1,0,0:0:0:0:
475,192,90523,1,0,0:0:0:0:
182,192,90523,1,0,0:0:0:0:
402,192,90604,1,0,0:0:0:0:
329,192,90604,1,0,0:0:0:0:
256,192,90684,1,0,0:0:0:0:
182,192,90684,1,0,0:0:0:0:
109,192,90765,1,0,0:0:0:0:
36,192,90765,1,0,0:0:0:0:
329,192,90846,1,0,0:0:0:0:
402,192,90846,1,0,0:0:0:0:
475,192,90846,1,0,0:0:0:0:
182,192,90926,1,0,0:0:0:0:
109,192,90926,1,0,0:0:0:0:
36,192,90926,1,0,0:0:0:0:
256,192,91007,1,0,0:0:0:0:
329,192,91007,1,0,0:0:0:0:
402,192,91007,1,0,0:0:0:0:
475,192,91007,1,0,0:0:0:0:
36,192,91088,1,0,0:0:0:0:
109,192,91088,1,0,0:0:0:0:
182,192,91168,1,0,0:0:0:0:
256,192,91168,1,0,0:0:0:0:
329,192,91168,1,0,0:0:0:0:
402,192,91168,1,0,0:0:0:0:
256,192,91329,1,0,0:0:0:0:
109,192,91329,1,0,0:0:0:0:
36,192,91329,1,0,0:0:0:0:
402,192,91329,1,0,0:0:0:0:
475,192,91329,1,0,0:0:0:0:
182,192,91491,1,0,0:0:0:0:
36,192,91491,1,0,0:0:0:0:
329,192,91491,1,0,0:0:0:0:
475,192,91491,1,0,0:0:0:0:
475,192,91652,1,0,0:0:0:0:
256,192,91652,1,0,0:0:0:0:
182,192,91652,1,0,0:0:0:0:
36,192,91652,1,0,0:0:0:0:
329,192,91813,1,0,0:0:0:0:
402,192,91975,1,0,0:0:0:0:
256,192,91975,1,0,0:0:0:0:
109,192,91975,1,0,0:0:0:0:
475,192,91975,1,0,0:0:0:0:
402,192,92136,1,0,0:0:0:0:
36,192,92136,1,0,0:0:0:0:
329,192,92217,1,0,0:0:0:0:
256,192,92297,1,0,0:0:0:0:
182,192,92297,1,0,0:0:0:0:
109,192,92459,1,0,0:0:0:0:
475,192,92459,1,0,0:0:0:0:
329,192,92459,1,0,0:0:0:0:
402,192,92459,1,0,0:0:0:0:
256,192,92620,1,0,0:0:0:0:
329,192,92620,1,0,0:0:0:0:
36,192,92620,1,0,0:0:0:0:
109,192,92620,1,0,0:0:0:0:
256,192,92781,1,0,0:0:0:0:
182,192,92781,1,0,0:0:0:0:
109,192,92862,1,0,0:0:0:0:
329,192,92942,1,0,0:0:0:0:
475,192,92942,1,0,0:0:0:0:
402,192,92942,1,0,0:0:0:0:
36,192,92942,1,0,0:0:0:0:
329,192,93104,1,0,0:0:0:0:
109,192,93104,1,0,0:0:0:0:
256,192,93265,1,0,0:0:0:0:
182,192,93265,1,0,0:0:0:0:
36,192,93265,1,0,0:0:0:0:
402,192,93265,1,0,0:0:0:0:
182,192,93426,1,0,0:0:0:0:
329,192,93426,1,0,0:0:0:0:
109,192,93507,1,0,0:0:0:0:
36,192,93588,1,0,0:0:0:0:
182,192,93588,1,0,0:0:0:0:
256,192,93668,1,0,0:0:0:0:
329,192,93749,1,0,0:0:0:0:
402,192,93749,1,0,0:0:0:0:
475,192,93749,1,0,0:0:0:0:
109,192,93749,1,0,0:0:0:0:
182,192,93910,1,0,0:0:0:0:
256,192,93910,1,0,0:0:0:0:
329,192,93910,1,0,0:0:0:0:
36,192,93910,1,0,0:0:0:0:
475,192,94071,1,0,0:0:0:0:
256,192,94071,1,0,0:0:0:0:
402,192,94152,1,0,0:0:0:0:
182,192,94233,1,0,0:0:0:0:
109,192,94233,1,0,0:0:0:0:
36,192,94233,1,0,0:0:0:0:
329,192,94233,1,0,0:0:0:0:
256,192,94394,1,0,0:0:0:0:
475,192,94555,1,0,0:0:0:0:
402,192,94555,1,0,0:0:0:0:
109,192,94555,1,0,0:0:0:0:
36,192,94555,1,0,0:0:0:0:
402,192,94717,1,0,0:0:0:0:
182,192,94717,1,0,0:0:0:0:
329,192,94797,1,0,0:0:0:0:
109,192,94878,1,0,0:0:0:0:
475,192,95039,1,0,0:0:0:0:
182,192,95039,1,0,0:0:0:0:
256,192,95039,1,0,0:0:0:0:
329,192,95039,1,0,0:0:0:0:
329,192,95200,1,0,0:0:0:0:
182,192,95200,1,0,0:0:0:0:
36,192,95200,1,0,0:0:0:0:
402,192,95200,1,0,0:0:0:0:
109,192,95362,1,0,0:0:0:0:
256,192,95442,1,0,0:0:0:0:
329,192,95523,1,0,0:0:0:0:
475,192,95523,1,0,0:0:0:0:
402,192,95523,1,0,0:0:0:0:
36,192,95523,1,0,0:0:0:0:
402,192,95684,1,0,0:0:0:0:
109,192,95684,1,0,0:0:0:0:
475,192,95846,1,0,0:0:0:0:
329,192,95846,1,0,0:0:0:0:
182,192,95846,1,0,0:0:0:0:
256,192,95846,1,0,0:0:0:0:
182,192,96007,1,0,0:0:0:0:
402,192,96007,1,0,0:0:0:0:
109,192,96088,1,0,0:0:0:0:
36,192,96168,1,0,0:0:0:0:
402,192,96329,1,0,0:0:0:0:
182,192,96329,1,0,0:0:0:0:
109,192,96329,1,0,0:0:0:0:
475,192,96329,1,0,0:0:0:0:
329,192,96491,1,0,0:0:0:0:
256,192,96491,1,0,0:0:0:0:
36,192,96491,1,0,0:0:0:0:
402,192,96491,1,0,0:0:0:0:
329,192,96652,1,0,0:0:0:0:
182,192,96652,1,0,0:0:0:0:
256,192,96813,1,0,0:0:0:0:
402,192,96813,1,0,0:0:0:0:
475,192,96813,1,0,0:0:0:0:
109,192,96813,1,0,0:0:0:0:
182,192,96975,1,0,0:0:0:0:
256,192,97136,1,0,0:0:0:0:
329,192,97136,1,0,0:0:0:0:
402,192,97136,1,0,0:0:0:0:
475,192,97136,1,0,0:0:0:0:
36,192,97297,1,0,0:0:0:0:
402,192,97297,1,0,0:0:0:0:
109,192,97378,1,0,0:0:0:0:
182,192,97459,1,0,0:0:0:0:
329,192,97620,1,0,0:0:0:0:
256,192,97620,1,0,0:0:0:0:
402,192,97620,1,0,0:0:0:0:
109,192,97620,1,0,0:0:0:0:
475,192,97781,1,0,0:0:0:0:
182,192,97781,1,0,0:0:0:0:
109,192,97781,1,0,0:0:0:0:
36,192,97781,1,0,0:0:0:0:
182,192,97942,1,0,0:0:0:0:
256,192,98023,1,0,0:0:0:0:
329,192,98104,1,0,0:0:0:0:
402,192,98104,1,0,0:0:0:0:
182,192,98104,1,0,0:0:0:0:
109,192,98104,1,0,0:0:0:0:
256,192,98265,1,0,0:0:0:0:
475,192,98265,1,0,0:0:0:0:
402,192,98426,1,0,0:0:0:0:
329,192,98426,1,0,0:0:0:0:
109,192,98426,1,0,0:0:0:0:
36,192,98426,1,0,0:0:0:0:
182,192,98588,1,0,0:0:0:0:
109,192,98668,1,0,0:0:0:0:
329,192,98749,1,0,0:0:0:0:
402,192,98829,1,0,0:0:0:0:
475,192,98910,1,0,0:0:0:0:
329,192,98910,1,0,0:0:0:0:
182,192,98910,1,0,0:0:0:0:
36,192,98910,1,0,0:0:0:0:
182,192,99071,1,0,0:0:0:0:
109,192,99071,1,0,0:0:0:0:
402,192,99071,1,0,0:0:0:0:
475,192,99071,1,0,0:0:0:0:
182,192,99233,1,0,0:0:0:0:
256,192,99233,1,0,0:0:0:0:
109,192,99313,1,0,0:0:0:0:
329,192,99394,1,0,0:0:0:0:
402,192,99394,1,0,0:0:0:0:
36,192,99394,1,0,0:0:0:0:
475,192,99394,1,0,0:0:0:0:
329,192,99555,128,0,99636:0:0:0:0:
109,192,99555,1,0,0:0:0:0:
402,192,99636,128,0,99717:0:0:0:0:
475,192,99717,128,0,99797:0:0:0:0:
36,192,99717,1,0,0:0:0:0:
182,192,99717,1,0,0:0:0:0:
256,192,99717,1,0,0:0:0:0:
256,192,99878,1,0,0:0:0:0:
109,192,99878,1,0,0:0:0:0:
329,192,99959,1,0,0:0:0:0:
402,192,100039,1,0,0:0:0:0:
329,192,100200,1,0,0:0:0:0:
182,192,100200,1,0,0:0:0:0:
109,192,100200,1,0,0:0:0:0:
475,192,100200,1,0,0:0:0:0:
182,192,100362,1,0,0:0:0:0:
109,192,100362,1,0,0:0:0:0:
329,192,100362,1,0,0:0:0:0:
402,192,100362,1,0,0:0:0:0:
36,192,100523,1,0,0:0:0:0:
402,192,100523,1,0,0:0:0:0:
475,192,100523,1,0,0:0:0:0:
182,192,100523,128,0,100604:0:0:0:0:
256,192,100604,128,0,100684:0:0:0:0:
329,192,100684,128,0,100765:0:0:0:0:
256,192,100846,1,0,0:0:0:0:
182,192,100846,1,0,0:0:0:0:
329,192,100846,1,0,0:0:0:0:
475,192,100846,1,0,0:0:0:0:
402,192,101007,1,0,0:0:0:0:
329,192,101007,1,0,0:0:0:0:
36,192,101007,1,0,0:0:0:0:
182,192,101007,1,0,0:0:0:0:
182,192,101168,1,0,0:0:0:0:
109,192,101168,1,0,0:0:0:0:
36,192,101168,1,0,0:0:0:0:
329,192,101249,1,0,0:0:0:0:
402,192,101249,1,0,0:0:0:0:
475,192,101249,1,0,0:0:0:0:
256,192,101329,1,0,0:0:0:0:
182,192,101329,1,0,0:0:0:0:
109,192,101329,1,0,0:0:0:0:
36,192,101329,1,0,0:0:0:0:
182,192,101491,1,0,0:0:0:0:
109,192,101491,1,0,0:0:0:0:
329,192,101491,1,0,0:0:0:0:
402,192,101491,1,0,0:0:0:0:
475,192,101491,1,0,0:0:0:0:
475,192,101813,1,0,0:0:0:0:
402,192,101813,1,0,0:0:0:0:
256,192,101813,1,0,0:0:0:0:
36,192,101813,1,0,0:0:0:0:
109,192,101813,1,0,0:0:0:0:
329,192,101975,1,0,0:0:0:0:
402,192,101975,1,0,0:0:0:0:
256,192,101975,1,0,0:0:0:0:
36,192,101975,1,0,0:0:0:0:
182,192,101975,1,0,0:0:0:0:
329,192,102136,1,0,0:0:0:0:
475,192,102297,1,0,0:0:0:0:
402,192,102297,1,0,0:0:0:0:
109,192,102297,1,0,0:0:0:0:
256,192,102297,1,0,0:0:0:0:
36,192,102459,1,0,0:0:0:0:
329,192,102459,1,0,0:0:0:0:
109,192,102539,1,0,0:0:0:0:
182,192,102620,1,0,0:0:0:0:
402,192,102620,1,0,0:0:0:0:
329,192,102781,1,0,0:0:0:0:
475,192,102781,1,0,0:0:0:0:
36,192,102781,1,0,0:0:0:0:
256,192,102781,1,0,0:0:0:0:
36,192,102942,1,0,0:0:0:0:
109,192,102942,1,0,0:0:0:0:
402,192,102942,1,0,0:0:0:0:
329,192,102942,1,0,0:0:0:0:
475,192,103104,1,0,0:0:0:0:
256,192,103104,1,0,0:0:0:0:
182,192,103184,1,0,0:0:0:0:
109,192,103265,1,0,0:0:0:0:
329,192,103265,1,0,0:0:0:0:
402,192,103265,1,0,0:0:0:0:
36,192,103265,1,0,0:0:0:0:
329,192,103426,1,0,0:0:0:0:
256,192,103426,1,0,0:0:0:0:
402,192,103588,1,0,0:0:0:0:
475,192,103588,1,0,0:0:0:0:
182,192,103588,1,0,0:0:0:0:
109,192,103588,1,0,0:0:0:0:
329,192,103749,1,0,0:0:0:0:
182,192,103749,1,0,0:0:0:0:
109,192,103829,1,0,0:0:0:0:
36,192,103910,1,0,0:0:0:0:
256,192,103910,1,0,0:0:0:0:
182,192,103991,1,0,0:0:0:0:
109,192,104071,1,0,0:0:0:0:
329,192,104071,1,0,0:0:0:0:
402,192,104071,1,0,0:0:0:0:
475,192,104071,1,0,0:0:0:0:
329,192,104233,1,0,0:0:0:0:
402,192,104233,1,0,0:0:0:0:
36,192,104233,1,0,0:0:0:0:
182,192,104233,1,0,0:0:0:0:
256,192,104394,1,0,0:0:0:0:
109,192,104394,1,0,0:0:0:0:
182,192,104475,1,0,0:0:0:0:
329,192,104555,1,0,0:0:0:0:
402,192,104555,1,0,0:0:0:0:
109,192,104555,1,0,0:0:0:0:
36,192,104555,1,0,0:0:0:0:
256,192,104717,1,0,0:0:0:0:
475,192,104878,1,0,0:0:0:0:
329,192,104878,1,0,0:0:0:0:
109,192,104878,1,0,0:0:0:0:
182,192,104878,1,0,0:0:0:0:
402,192,105039,1,0,0:0:0:0:
36,192,105039,1,0,0:0:0:0:
329,192,105120,1,0,0:0:0:0:
256,192,105200,1,0,0:0:0:0:
109,192,105362,1,0,0:0:0:0:
329,192,105362,1,0,0:0:0:0:
475,192,105362,1,0,0:0:0:0:
182,192,105362,1,0,0:0:0:0:
402,192,105523,1,0,0:0:0:0:
256,192,105523,1,0,0:0:0:0:
182,192,105523,1,0,0:0:0:0:
36,192,105523,1,0,0:0:0:0:
329,192,105684,1,0,0:0:0:0:
256,192,105765,1,0,0:0:0:0:
182,192,105846,1,0,0:0:0:0:
36,192,105846,1,0,0:0:0:0:
109,192,105846,1,0,0:0:0:0:
329,192,105846,1,0,0:0:0:0:
475,192,106007,1,0,0:0:0:0:
402,192,106007,1,0,0:0:0:0:
256,192,106168,1,0,0:0:0:0:
182,192,106168,1,0,0:0:0:0:
109,192,106168,1,0,0:0:0:0:
36,192,106168,1,0,0:0:0:0:
256,192,106329,1,0,0:0:0:0:
36,192,106329,128,0,106410:0:0:0:0:
475,192,106329,1,0,0:0:0:0:
329,192,106410,1,0,0:0:0:0:
109,192,106410,128,0,106491:0:0:0:0:
402,192,106491,1,0,0:0:0:0:
182,192,106491,128,0,106571:0:0:0:0:
329,192,106652,1,0,0:0:0:0:
256,192,106652,1,0,0:0:0:0:
36,192,106652,1,0,0:0:0:0:
475,192,106652,1,0,0:0:0:0:
329,192,106813,1,0,0:0:0:0:
256,192,106813,1,0,0:0:0:0:
109,192,106813,1,0,0:0:0:0:
402,192,106813,1,0,0:0:0:0:
182,192,106975,1,0,0:0:0:0:
36,192,106975,1,0,0:0:0:0:
109,192,107136,1,0,0:0:0:0:
329,192,107136,1,0,0:0:0:0:
475,192,107136,1,0,0:0:0:0:
256,192,107136,1,0,0:0:0:0:
182,192,107297,1,0,0:0:0:0:
109,192,107459,1,0,0:0:0:0:
36,192,107459,1,0,0:0:0:0:
402,192,107459,1,0,0:0:0:0:
475,192,107459,1,0,0:0:0:0:
256,192,107620,1,0,0:0:0:0:
182,192,107781,1,0,0:0:0:0:
402,192,107781,1,0,0:0:0:0:
109,192,107862,1,0,0:0:0:0:
256,192,107942,1,0,0:0:0:0:
329,192,107942,1,0,0:0:0:0:
475,192,107942,1,0,0:0:0:0:
182,192,107942,1,0,0:0:0:0:
109,192,108104,1,0,0:0:0:0:
36,192,108104,1,0,0:0:0:0:
256,192,108104,1,0,0:0:0:0:
329,192,108104,1,0,0:0:0:0:
182,192,108265,1,0,0:0:0:0:
256,192,108346,1,0,0:0:0:0:
329,192,108426,1,0,0:0:0:0:
475,192,108426,1,0,0:0:0:0:
109,192,108426,1,0,0:0:0:0:
36,192,108426,1,0,0:0:0:0:
402,192,108588,1,0,0:0:0:0:
329,192,108668,1,0,0:0:0:0:
256,192,108749,1,0,0:0:0:0:
109,192,108749,1,0,0:0:0:0:
182,192,108749,1,0,0:0:0:0:
36,192,108749,1,0,0:0:0:0:
475,192,108910,1,0,0:0:0:0:
402,192,108991,1,0,0:0:0:0:
329,192,109071,1,0,0:0:0:0:
109,192,109071,1,0,0:0:0:0:
256,192,109233,1,0,0:0:0:0:
182,192,109233,1,0,0:0:0:0:
36,192,109233,1,0,0:0:0:0:
475,192,109233,1,0,0:0:0:0:
475,192,109394,1,0,0:0:0:0:
402,192,109394,1,0,0:0:0:0:
329,192,109394,1,0,0:0:0:0:
256,192,109394,1,0,0:0:0:0:
329,192,109555,1,0,0:0:0:0:
109,192,109555,1,0,0:0:0:0:
182,192,109636,1,0,0:0:0:0:
256,192,109717,1,0,0:0:0:0:
402,192,109717,1,0,0:0:0:0:
475,192,109717,1,0,0:0:0:0:
36,192,109717,1,0,0:0:0:0:
329,192,109878,1,0,0:0:0:0:
182,192,110039,1,0,0:0:0:0:
36,192,110039,1,0,0:0:0:0:
402,192,110039,1,0,0:0:0:0:
475,192,110039,1,0,0:0:0:0:
109,192,110200,1,0,0:0:0:0:
256,192,110200,1,0,0:0:0:0:
329,192,110362,1,0,0:0:0:0:
402,192,110523,1,0,0:0:0:0:
475,192,110523,1,0,0:0:0:0:
256,192,110523,1,0,0:0:0:0:
109,192,110523,1,0,0:0:0:0:
329,192,110684,1,0,0:0:0:0:
182,192,110684,1,0,0:0:0:0:
109,192,110684,1,0,0:0:0:0:
36,192,110684,1,0,0:0:0:0:
329,192,110846,1,0,0:0:0:0:
402,192,110846,1,0,0:0:0:0:
475,192,110846,1,0,0:0:0:0:
182,192,110926,1,0,0:0:0:0:
36,192,110926,1,0,0:0:0:0:
109,192,110926,1,0,0:0:0:0:
256,192,111007,1,0,0:0:0:0:
329,192,111007,1,0,0:0:0:0:
402,192,111007,1,0,0:0:0:0:
182,192,111088,1,0,0:0:0:0:
109,192,111088,1,0,0:0:0:0:
36,192,111088,1,0,0:0:0:0:
256,192,111168,1,0,0:0:0:0:
329,192,111168,1,0,0:0:0:0:
402,192,111168,1,0,0:0:0:0:
182,192,111249,1,0,0:0:0:0:
36,192,111249,1,0,0:0:0:0:
109,192,111249,1,0,0:0:0:0:
256,192,111329,1,0,0:0:0:0:
329,192,111329,1,0,0:0:0:0:
402,192,111329,1,0,0:0:0:0:
475,192,111329,1,0,0:0:0:0:
182,192,111410,1,0,0:0:0:0:
329,192,111491,1,0,0:0:0:0:
402,192,111491,1,0,0:0:0:0:
475,192,111491,1,0,0:0:0:0:
256,192,111571,1,0,0:0:0:0:
182,192,111571,1,0,0:0:0:0:
109,192,111571,1,0,0:0:0:0:
36,192,111652,1,0,0:0:0:0:
329,192,111652,1,0,0:0:0:0:
402,192,111652,1,0,0:0:0:0:
475,192,111652,1,0,0:0:0:0:
109,192,111813,1,0,0:0:0:0:
36,192,111813,1,0,0:0:0:0:
182,192,111813,128,0,111894:0:0:0:0:
256,192,111975,128,0,112055:0:0:0:0:
329,192,112055,128,0,112136:0:0:0:0:
475,192,112136,128,0,112217:0:0:0:0:
329,192,112297,1,0,0:0:0:0:
402,192,112297,1,0,0:0:0:0:
36,192,112297,1,0,0:0:0:0:
109,192,112297,1,0,0:0:0:0:
182,192,112297,128,0,112378:0:0:0:0:
256,192,112459,128,0,112539:0:0:0:0:
329,192,112620,128,0,112700:0:0:0:0:
182,192,112781,128,0,112862:0:0:0:0:
109,192,112942,128,0,113023:0:0:0:0:
36,192,113104,128,0,113184:0:0:0:0:
182,192,113265,128,0,113346:0:0:0:0:
256,192,113426,128,0,113507:0:0:0:0:
329,192,113588,128,0,113668:0:0:0:0:
182,192,113749,128,0,113829:0:0:0:0:
256,192,113910,128,0,113991:0:0:0:0:
402,192,114071,128,0,114152:0:0:0:0:
475,192,114233,128,0,114313:0:0:0:0:
182,192,114394,128,0,114475:0:0:0:0:
402,192,114555,128,0,114636:0:0:0:0:
36,192,114717,1,0,0:0:0:0:
256,192,114717,1,0,0:0:0:0:
182,192,114717,1,0,0:0:0:0:
329,192,114717,1,0,0:0:0:0:
475,192,114717,1,0,0:0:0:0:
