osu file format v14

[General]
AudioFilename: audio.mp3
AudioLeadIn: 0
PreviewTime: 81498
Countdown: 0
SampleSet: Soft
StackLeniency: 0.4
Mode: 0
LetterboxInBreaks: 0
WidescreenStoryboard: 0

[Editor]
Bookmarks: 1499,12165,21498,29498,40165,50832,61498,72165,82832,93498,104165,109498,113498
DistanceSpacing: 0.2
BeatDivisor: 6
GridSize: 4
TimelineZoom: 6.400002

[Metadata]
Title:Ultimate Fate
TitleUnicode:Ultimate Fate
Artist:Jun Kuroda + AAAA
ArtistUnicode:Jun Kuroda + ああああ
Creator:Kloyd
Version:Collab Expert with Muya
Source:
Tags:wring scaltinof aramaking paradogi muya callionet featured artist electronic instrumental fa sunday deadline compilation classic classical
BeatmapID:2992174
BeatmapSetID:1455698

[Difficulty]
HPDrainRate:7
CircleSize:5
OverallDifficulty:9
ApproachRate:9.4
SliderMultiplier:2
SliderTickRate:1

[Events]
//Background and Video events
0,0,"jr-korpa-9XngoIpxcEo-unsplash.jpg",0,0
//Break Periods
//Storyboard Layer 0 (Background)
//Storyboard Layer 1 (Fail)
//Storyboard Layer 2 (Pass)
//Storyboard Layer 3 (Foreground)
//Storyboard Layer 4 (Overlay)
//Storyboard Sound Samples

[TimingPoints]
1499,333.333333333333,4,2,1,62,1,0
12165,-133.333333333333,4,2,1,62,0,0
12832,-100,4,2,1,62,0,0
13498,-133.333333333333,4,2,1,62,0,0
14165,-100,4,2,1,62,0,0
29498,-133.333333333333,4,2,1,62,0,0
39498,-100,4,2,1,62,0,0
40498,-83.3333333333333,4,2,1,62,0,0
40748,-100,4,2,1,62,0,0
40998,-83.3333333333333,4,2,1,62,0,0
41165,-66.6666666666667,4,2,1,62,0,0
41332,-83.3333333333333,4,2,1,62,0,0
41498,-100,4,2,1,62,0,0
41832,-83.3333333333333,4,2,1,62,0,0
42165,-100,4,2,1,62,0,0
42665,-66.6666666666667,4,2,1,62,0,0
42832,-100,4,2,1,62,0,0
43165,-83.3333333333333,4,2,1,62,0,0
43415,-100,4,2,1,62,0,0
43665,-83.3333333333333,4,2,1,62,0,0
43832,-66.6666666666667,4,2,1,62,0,0
43998,-83.3333333333333,4,2,1,62,0,0
44165,-100,4,2,1,62,0,0
44498,-83.3333333333333,4,2,1,62,0,0
44665,-66.6666666666667,4,2,1,62,0,0
45332,-83.3333333333333,4,2,1,62,0,0
45498,-100,4,2,1,62,0,0
45832,-83.3333333333333,4,2,1,62,0,0
46082,-100,4,2,1,62,0,0
46332,-83.3333333333333,4,2,1,62,0,0
46498,-66.6666666666667,4,2,1,62,0,0
46665,-83.3333333333333,4,2,1,62,0,0
46832,-100,4,2,1,62,0,0
47165,-83.3333333333333,4,2,1,62,0,0
47498,-100,4,2,1,62,0,0
47998,-66.6666666666667,4,2,1,62,0,0
48498,-100,4,2,1,62,0,0
50832,-133.333333333333,4,2,2,62,0,0
50943,-133.333333333333,4,2,0,62,0,0
58832,-250,4,2,0,62,0,0
60332,-100,4,2,0,62,0,0
61498,-55.5555555555556,4,2,1,62,0,0
61832,-83.3333333333333,4,2,1,62,0,0
62165,-55.5555555555556,4,2,1,62,0,0
62415,-83.3333333333333,4,2,1,62,0,0
62582,-55.5555555555556,4,2,1,62,0,0
62832,-66.6666666666667,4,2,1,62,0,0
62998,-40,4,2,1,62,0,0
63165,-83.3333333333333,4,2,1,62,0,0
63498,-55.5555555555556,4,2,1,62,0,0
63832,-50,4,2,1,62,0,0
64165,-40,4,2,1,62,0,0
64498,-50,4,2,1,62,0,0
64832,-55.5555555555556,4,2,1,62,0,0
65082,-66.6666666666667,4,2,1,62,0,0
65248,-50,4,2,1,62,0,0
65498,-83.3333333333333,4,2,1,62,0,0
65665,-40,4,2,1,62,0,0
65832,-83.3333333333333,4,2,1,62,0,0
66387,-50,4,2,1,62,0,0
66832,-40,4,2,1,62,0,0
67498,-50,4,2,1,62,0,0
67665,-55.5555555555556,4,2,1,62,0,0
67832,-66.6666666666667,4,2,1,62,0,0
68165,-50,4,2,1,62,0,0
68498,-66.6666666666667,4,2,1,62,0,0
68832,-40,4,2,1,62,0,0
69498,-50,4,2,1,62,0,0
69665,-40,4,2,1,62,0,0
69832,-50,4,2,1,62,0,0
70165,-55.5555555555556,4,2,1,62,0,0
70498,-50,4,2,1,62,0,0
70665,-83.3333333333333,4,2,1,62,0,0
70832,-40,4,2,1,62,0,0
71248,-33.3333333333333,4,2,1,62,0,0
71498,-66.6666666666667,4,2,1,62,0,0
71832,-50,4,2,1,62,0,0
72498,-100,4,2,1,62,0,0
72832,-66.6666666666667,4,2,1,62,0,0
73498,-50,4,2,1,62,0,0
73998,-100,4,2,1,62,0,0
77498,-133.333333333333,4,2,1,62,0,0
77943,-107.52688172043,4,2,1,62,0,0
80165,-100,4,2,1,62,0,0
82832,-83.3333333333333,4,2,1,62,0,0
96165,-166.666666666667,4,2,1,62,0,0
97498,-111.111111111111,4,2,1,62,0,0
98832,-100,4,2,1,62,0,0
113498,-250,4,2,2,62,0,0

[Colours]
Combo1 : 0,0,166
Combo2 : 255,159,159
Combo3 : 215,174,255
Combo4 : 119,119,255
Combo5 : 103,0,206
Combo6 : 255,94,94
Combo7 : 104,180,255

[HitObjects]
16,156,1499,5,4,3:1:0:0:
8,172,1582,1,0,0:0:0:0:
0,188,1665,1,0,0:0:0:0:
12,200,1748,1,2,0:0:0:0:
24,212,1832,1,2,0:0:0:0:
80,296,1998,1,0,0:0:0:0:
96,291,2082,1,2,0:0:0:0:
112,287,2165,1,2,0:0:0:0:
212,280,2332,1,0,0:0:0:0:
216,264,2415,1,2,0:0:0:0:
220,248,2498,1,2,0:0:0:0:
256,144,2665,5,0,0:0:0:0:
268,156,2748,1,2,0:0:0:0:
280,168,2832,1,2,0:0:0:0:
168,69,2998,1,0,0:0:0:0:
184,65,3082,1,2,0:0:0:0:
200,60,3165,1,2,0:0:0:0:
60,108,3332,1,0,0:0:0:0:
64,92,3415,1,2,0:0:0:0:
68,76,3498,1,2,0:0:0:0:
24,212,3665,1,0,0:0:0:0:
12,200,3748,1,2,0:0:0:0:
0,188,3832,1,2,0:0:0:0:
28,176,3915,1,2,0:0:0:0:
56,180,3998,1,2,0:0:0:0:
80,200,4082,1,2,0:0:0:0:
92,228,4165,5,0,0:0:0:0:
120,256,4248,1,2,0:0:0:0:
160,260,4332,1,2,0:0:0:0:
196,240,4415,1,2,0:0:0:0:
212,204,4498,5,2,0:0:0:0:
240,164,4582,1,2,0:0:0:0:
288,152,4665,1,0,0:0:0:0:
332,172,4748,1,2,0:0:0:0:
356,216,4832,5,0,0:0:0:0:
356,256,4915,1,2,0:0:0:0:
332,288,4998,1,0,0:0:0:0:
344,284,5082,5,2,0:0:0:0:
324,320,5165,1,2,0:0:0:0:
332,360,5248,1,2,0:0:0:0:
368,380,5332,1,0,0:0:0:0:
408,380,5415,1,2,0:0:0:0:
440,356,5498,5,2,0:0:0:0:
448,328,5582,1,0,0:0:0:0:
444,300,5665,1,2,0:0:0:0:
428,276,5748,1,0,0:0:0:0:
420,248,5832,1,2,0:0:0:0:
420,220,5915,1,0,0:0:0:0:
428,192,5998,1,2,0:0:0:0:
444,164,6082,1,0,0:0:0:0:
468,148,6165,5,2,0:0:0:0:
482,134,6248,1,2,0:0:0:0:
491,116,6332,1,0,0:0:0:0:
492,96,6415,1,2,0:0:0:0:
487,76,6498,5,2,0:0:0:0:
479,82,6582,1,2,0:0:0:0:
470,87,6665,1,0,0:0:0:0:
460,90,6748,1,0,0:0:0:0:
452,92,6832,6,0,L|392:88,3,50,2|0|2|2,0:0|0:0|0:0|0:0,0:0:0:0:
336,128,7165,2,0,L|276:124,3,50,2|2|2|2,0:0|0:0|0:0|0:0,0:0:0:0:
232,72,7498,1,2,0:0:0:0:
220,36,7582,1,0,0:0:0:0:
256,44,7665,1,2,0:0:0:0:
236,52,7748,1,2,0:0:0:0:
236,52,7832,1,2,0:0:0:0:
0,192,8165,6,0,L|60:188,3,50,2|0|2|2,0:0|0:0|0:0|0:0,0:0:0:0:
116,228,8498,2,0,L|176:224,3,50,2|0|2|2,0:0|0:0|0:0|0:0,0:0:0:0:
240,192,8832,1,2,0:0:0:0:
232,228,8915,1,2,0:0:0:0:
252,204,8998,1,2,0:0:0:0:
244,240,9082,1,2,0:0:0:0:
256,228,9165,1,2,0:0:0:0:
504,312,9498,5,2,0:0:0:0:
488,320,9610,1,0,0:0:0:0:
472,328,9721,1,0,0:0:0:0:
416,368,9832,5,2,0:0:0:0:
392,356,9943,1,0,0:0:0:0:
368,344,10054,1,0,0:0:0:0:
316,304,10165,5,2,0:0:0:0:
276,296,10276,1,0,0:0:0:0:
240,316,10387,1,0,0:0:0:0:
204,372,10498,5,2,0:0:0:0:
152,384,10610,1,2,0:0:0:0:
108,352,10721,1,2,0:0:0:0:
88,288,10832,5,0,0:0:0:0:
80,272,10915,1,2,0:0:0:0:
92,256,10998,1,0,0:0:0:0:
84,240,11082,1,2,0:0:0:0:
64,204,11165,5,0,0:0:0:0:
68,192,11221,1,2,0:0:0:0:
72,180,11276,1,0,0:0:0:0:
76,168,11332,1,2,0:0:0:0:
68,128,11415,5,2,0:0:0:0:
92,96,11498,1,2,0:0:0:0:
92,96,11832,5,0,0:0:0:0:
124,120,11915,1,2,0:0:0:0:
156,144,11998,1,2,0:0:0:0:
188,168,12082,1,2,0:0:0:0:
220,192,12165,6,0,B|200:75|200:75|238:47|238:47|222:70,1,187.500007152558,4|0,3:1|0:0,0:0:0:0:
83,35,12665,2,0,B|105:40|105:40|94:33,1,37.5000014305115,2|2,0:0|0:0,0:0:0:0:
98,11,12832,6,0,L|126:165,1,150.000005722046,8|2,0:0|0:0,0:0:0:0:
152,188,13165,1,0,0:0:0:0:
112,187,13248,1,2,0:0:0:0:
75,204,13332,1,0,0:0:0:0:
56,239,13415,1,2,0:0:0:0:
54,278,13498,6,0,P|40:254|-2:232,1,75.0000028610231,0|2,3:0|0:0,0:0:0:0:
48,294,13748,1,2,0:0:0:0:
48,294,13832,2,0,P|69:276|116:269,1,75.0000028610231,0|2,3:0|0:0,0:0:0:0:
8,375,14082,1,2,0:0:0:0:
8,375,14165,6,0,L|58:365,1,50,8|0,0:0|0:0,0:0:0:0:
208,237,14332,5,2,0:0:0:0:
212,253,14415,1,2,0:0:0:0:
216,269,14498,5,0,0:0:0:0:
243,280,14582,1,2,0:0:0:0:
261,303,14665,1,0,0:0:0:0:
260,332,14748,1,2,0:0:0:0:
238,352,14832,5,0,3:0:0:0:
197,350,14915,1,2,0:0:0:0:
176,317,14998,1,2,0:0:0:0:
179,277,15082,1,2,0:0:0:0:
216,243,15165,5,2,0:0:0:0:
258,218,15248,1,2,0:0:0:0:
283,176,15332,1,0,0:0:0:0:
284,127,15415,1,2,0:0:0:0:
262,92,15498,5,8,0:0:0:0:
232,65,15582,1,2,0:0:0:0:
192,69,15665,1,0,0:0:0:0:
202,58,15748,5,2,0:0:0:0:
162,63,15832,1,2,0:0:0:0:
130,87,15915,1,2,0:0:0:0:
119,125,15998,1,0,0:0:0:0:
129,163,16082,1,0,0:0:0:0:
160,187,16165,5,0,3:0:0:0:
130,181,16248,1,2,0:0:0:0:
102,192,16332,1,0,0:0:0:0:
81,214,16415,1,2,0:0:0:0:
69,241,16498,5,0,3:0:0:0:
64,211,16582,1,2,0:0:0:0:
53,182,16665,1,0,0:0:0:0:
32,160,16748,1,2,0:0:0:0:
10,138,16832,5,8,0:0:0:0:
28,131,16915,1,2,0:0:0:0:
42,116,16998,1,0,0:0:0:0:
50,97,17082,1,2,0:0:0:0:
51,77,17165,5,2,0:0:0:0:
42,71,17248,1,2,0:0:0:0:
33,65,17332,1,0,0:0:0:0:
24,59,17415,1,2,0:0:0:0:
15,53,17498,6,0,L|63:16,3,50,0|2|0|2,3:0|0:0|0:0|0:0,0:0:0:0:
131,118,17832,2,0,L|138:57,3,50,0|2|2|2,3:0|0:0|0:0|0:0,0:0:0:0:
275,8,18165,5,8,0:0:0:0:
251,36,18248,1,2,0:0:0:0:
239,0,18332,1,0,0:0:0:0:
255,16,18415,1,2,0:0:0:0:
255,16,18498,2,0,B|263:64|263:64|245:95|245:95|257:167,1,150,0|2,3:0|0:0,0:0:0:0:
357,260,18832,6,0,L|348:210,3,50,0|2|0|2,3:0|0:0|0:0|0:0,0:0:0:0:
446,141,19165,2,0,L|493:158,3,50,0|2|2|2,3:0|0:0|0:0|0:0,0:0:0:0:
504,277,19498,2,0,L|465:309,3,50,8|2|0|2,0:0|0:0|0:0|0:0,0:0:0:0:
438,226,19832,1,0,3:0:0:0:
438,226,19915,1,2,0:0:0:0:
438,226,19998,1,2,0:0:0:0:
438,226,20082,1,2,0:0:0:0:
438,226,20165,5,0,3:0:0:0:
74,158,20332,1,0,3:0:0:0:
287,41,20498,1,0,3:0:0:0:
235,274,20665,1,0,3:0:0:0:
261,158,20832,1,8,0:2:0:0:
369,94,20998,5,0,3:0:0:0:
378,163,21082,1,0,3:0:0:0:
403,98,21165,1,8,0:0:0:0:
261,158,21332,1,0,3:0:0:0:
511,117,21498,5,4,3:2:0:0:
512,312,21832,1,0,0:0:0:0:
504,284,21915,1,2,0:0:0:0:
480,268,21998,1,2,0:0:0:0:
452,268,22082,1,2,0:0:0:0:
424,284,22165,1,2,0:0:0:0:
440,364,22332,1,0,0:0:0:0:
320,384,22498,1,2,0:0:0:0:
336,264,22665,1,2,0:0:0:0:
400,124,22832,6,0,L|388:200,1,50,2|0,0:0|0:0,0:0:0:0:
384,180,22998,2,0,L|376:124,1,50,2|0,0:0|0:0,0:0:0:0:
316,88,23165,6,0,L|304:12,1,50,2|0,0:0|0:0,0:0:0:0:
300,32,23332,2,0,L|292:88,1,50,2|0,0:0|0:0,0:0:0:0:
212,124,23498,6,0,L|200:200,1,50,2|0,0:0|0:0,0:0:0:0:
192,244,23665,2,0,L|180:168,1,50,2|0,0:0|0:0,0:0:0:0:
132,152,23832,2,0,L|120:76,1,50,2|0,0:0|0:0,0:0:0:0:
152,32,23998,2,0,L|140:108,1,50,2|0,0:0|0:0,0:0:0:0:
60,140,24165,5,2,0:0:0:0:
36,160,24248,1,0,0:0:0:0:
28,188,24332,1,2,0:0:0:0:
32,216,24415,1,2,0:0:0:0:
48,240,24498,5,2,0:0:0:0:
64,252,24582,1,0,0:0:0:0:
76,268,24665,1,2,0:0:0:0:
84,288,24748,1,2,0:0:0:0:
84,308,24832,5,2,0:0:0:0:
83,317,24915,1,0,0:0:0:0:
80,326,24998,1,2,0:0:0:0:
76,335,25082,1,2,0:0:0:0:
69,342,25165,1,2,0:0:0:0:
87,333,25248,1,0,0:0:0:0:
116,328,25332,1,2,0:0:0:0:
155,334,25415,1,2,0:0:0:0:
196,364,25498,5,0,0:0:0:0:
204,332,25582,1,2,0:0:0:0:
204,368,25665,1,0,0:0:0:0:
212,336,25748,1,2,0:0:0:0:
216,360,25832,5,0,0:0:0:0:
220,344,25887,1,0,0:0:0:0:
220,362,25943,1,0,0:0:0:0:
224,346,25998,1,2,0:0:0:0:
244,348,26082,5,2,0:0:0:0:
236,380,26165,1,2,0:0:0:0:
300,372,26276,1,0,0:0:0:0:
364,364,26387,1,2,0:0:0:0:
368,352,26498,1,2,0:0:0:0:
432,344,26610,1,0,0:0:0:0:
496,336,26721,1,2,0:0:0:0:
500,324,26832,1,2,0:0:0:0:
494,177,26998,5,2,0:0:0:0:
462,137,27082,1,2,0:0:0:0:
417,130,27165,1,0,0:0:0:0:
381,148,27248,1,2,0:0:0:0:
369,181,27332,1,0,0:0:0:0:
378,209,27415,1,2,0:0:0:0:
399,222,27498,1,0,0:0:0:0:
418,224,27582,1,2,0:0:0:0:
432,218,27665,1,2,0:0:0:0:
438,210,27748,1,2,0:0:0:0:
438,205,27832,1,0,0:0:0:0:
438,200,27915,1,2,0:0:0:0:
434,196,27998,1,2,0:0:0:0:
429,193,28082,1,2,0:0:0:0:
424,192,28165,5,0,0:0:0:0:
408,188,28248,1,2,0:0:0:0:
389,198,28332,1,2,0:0:0:0:
378,219,28415,1,2,0:0:0:0:
379,248,28498,1,0,0:0:0:0:
361,278,28582,1,2,0:0:0:0:
324,296,28665,1,2,0:0:0:0:
279,289,28748,1,2,0:0:0:0:
242,253,28832,1,4,1:0:0:0:
256,132,28998,5,0,1:0:0:0:
218,117,29082,1,0,1:0:0:0:
179,123,29165,1,0,1:0:0:0:
153,151,29248,1,0,1:0:0:0:
138,188,29332,1,0,1:0:0:0:
106,209,29415,1,0,1:0:0:0:
69,206,29498,6,0,B|41:59|41:59|116:37,1,225.000008583069,4|2,3:2|0:0,0:0:0:0:
113,37,30082,1,2,0:0:0:0:
113,37,30165,1,8,0:0:0:0:
143,114,30332,1,2,0:0:0:0:
173,190,30498,1,0,0:0:0:0:
224,125,30665,1,2,0:0:0:0:
280,64,30832,6,0,B|314:44|314:44|355:54,1,75.0000028610231,0|0,3:0|0:0,0:0:0:0:
476,100,31165,2,0,B|441:119|441:119|406:110,1,75.0000028610231,0|2,3:0|0:0,0:0:0:0:
349,53,31498,5,8,0:0:0:0:
507,25,31665,1,2,0:0:0:0:
507,25,31721,1,2,0:0:0:0:
507,25,31776,1,2,0:0:0:0:
507,25,31832,1,2,0:0:0:0:
452,175,31998,1,2,0:0:0:0:
439,94,32165,5,0,3:0:0:0:
376,148,32332,1,2,0:0:0:0:
388,229,32498,1,0,0:0:0:0:
452,175,32665,1,2,0:0:0:0:
312,202,32832,5,8,0:0:0:0:
326,281,32998,1,2,0:0:0:0:
341,360,33165,1,0,0:0:0:0:
464,256,33332,1,2,0:0:0:0:
312,202,33498,6,0,B|271:191|271:191|251:262,1,112.500004291535,0|0,3:0|0:0,0:0:0:0:
274,384,33832,2,0,B|301:355|301:355|294:316,1,75.0000028610231,0|2,3:0|0:0,0:0:0:0:
224,324,34082,1,2,0:0:0:0:
224,324,34165,2,0,B|167:335|167:335|151:363|151:363|86:378,1,150.000005722046,8|0,0:0|0:0,0:0:0:0:
38,158,34665,1,2,0:0:0:0:
38,158,34748,1,2,0:0:0:0:
38,158,34832,6,0,B|95:169|95:169|111:197|111:197|100:298,1,187.500007152558,4|2,3:2|0:0,0:0:0:0:
72,319,35332,1,0,0:0:0:0:
38,303,35415,1,2,0:0:0:0:
28,266,35498,1,8,0:0:0:0:
47,233,35582,1,2,0:0:0:0:
83,223,35665,1,0,0:0:0:0:
113,244,35748,1,2,0:0:0:0:
121,280,35832,5,2,0:0:0:0:
135,297,35915,1,2,0:0:0:0:
156,304,35998,1,0,0:0:0:0:
178,302,36082,1,2,0:0:0:0:
198,294,36165,5,0,3:0:0:0:
262,158,36332,1,2,0:0:0:0:
262,158,36415,1,2,0:0:0:0:
262,158,36498,5,0,3:0:0:0:
329,178,36610,1,2,0:0:0:0:
369,121,36721,1,2,0:0:0:0:
328,66,36832,6,0,L|270:78,1,50.0000019073487,8|0,0:0|0:0,0:0:0:0:
388,227,37054,2,0,P|400:207|403:174,1,50.0000019073487,2|0,0:0|0:0,0:0:0:0:
194,23,37276,2,0,P|182:43|179:76,1,50.0000019073487,2|0,0:0|0:0,0:0:0:0:
274,226,37498,5,0,3:0:0:0:
259,156,37610,1,2,0:0:0:0:
201,195,37721,1,2,0:0:0:0:
209,264,37832,5,0,0:0:0:0:
123,251,37943,1,2,0:0:0:0:
44,239,38054,1,2,0:0:0:0:
44,239,38165,6,0,P|43:263|52:287,1,50.0000019073487,8|2,0:0|0:0,0:0:0:0:
173,203,38387,1,2,0:0:0:0:
173,203,38498,2,0,P|173:178|164:154,1,50.0000019073487,0|2,0:0|0:0,0:0:0:0:
5,33,38721,1,2,0:0:0:0:
0,18,38832,6,0,P|17:35|39:46,1,50.0000019073487,0|2,3:0|0:0,0:0:0:0:
103,105,39054,1,2,0:0:0:0:
98,90,39165,2,0,P|115:107|137:118,1,50.0000019073487,0|2,3:0|0:0,0:0:0:0:
201,177,39387,1,2,0:0:0:0:
195,161,39498,6,0,P|214:161|242:148,1,50,8|0,0:0|0:0,0:0:0:0:
99,328,39665,1,0,3:0:0:0:
117,332,39748,1,0,3:0:0:0:
87,339,39832,5,8,0:0:0:0:
94,289,39915,1,2,0:0:0:0:
127,253,39998,1,2,0:0:0:0:
175,240,40082,1,2,0:0:0:0:
224,252,40165,6,0,B|256:284|256:284|360:272,1,150,4|0,3:2|1:0,0:0:0:0:
444,212,40498,2,0,P|419:157|364:162,1,119.999996337891,8|0,0:0|1:0,0:0:0:0:
316,208,40748,6,0,B|292:192|292:192|276:104,1,100,0|0,3:0|0:0,0:0:0:0:
324,64,40998,2,0,B|308:-24,1,59.9999981689454,0|0,3:0|0:0,0:0:0:0:
420,24,41165,2,0,P|418:60|394:88,1,75.0000028610231,8|0,0:0|1:0,0:0:0:0:
279,121,41332,2,0,L|219:113,1,59.9999981689454,0|0,3:0|1:0,0:0:0:0:
176,56,41498,6,0,B|136:72|136:72|128:184,1,150,0|0,3:0|1:0,0:0:0:0:
68,304,41832,2,0,P|100:252|152:264,1,119.999996337891,8|0,0:0|1:0,0:0:0:0:
212,300,42082,5,0,3:0:0:0:
220,284,42165,2,0,L|212:232,1,50,0|0,1:0|1:0,0:0:0:0:
224,80,42332,1,0,3:0:0:0:
200,64,42415,1,0,1:0:0:0:
176,48,42498,1,8,0:0:0:0:
148,60,42582,1,8,0:0:0:0:
120,72,42665,2,0,L|110:171,1,75.0000028610231,0|0,1:0|1:0,0:0:0:0:
150,262,42832,6,0,B|190:246|190:246|198:134,1,150,0|0,3:0|1:0,0:0:0:0:
248,20,43165,2,0,P|288:64|276:120,1,119.999996337891,8|0,0:0|1:0,0:0:0:0:
308,240,43415,6,0,B|328:264|328:264|408:256,1,100,0|0,3:0|0:0,0:0:0:0:
465,163,43665,2,0,P|493:172|512:196,1,59.9999981689454,0|0,3:0|1:0,0:0:0:0:
456,284,43832,6,0,P|434:313|398:322,1,75.0000028610231,8|0,0:0|0:0,0:0:0:0:
356,192,43998,2,0,L|360:128,1,59.9999981689454,0|0,1:0|1:0,0:0:0:0:
400,32,44165,6,0,B|432:48|432:48|312:64,1,150,0|0,3:0|1:0,0:0:0:0:
276,119,44498,2,0,L|181:108,1,59.9999981689454,8|0,0:0|0:0,0:0:0:0:
72,48,44665,5,0,3:0:0:0:
48,52,44748,2,0,P|24:80|32:128,1,75.0000028610231,0|0,3:0|1:0,0:0:0:0:
156,176,44915,2,0,P|157:139|133:111,1,75.0000028610231,0|0,3:0|0:0,0:0:0:0:
80,200,45082,1,0,1:0:0:0:
80,200,45165,1,8,0:0:0:0:
80,200,45248,1,8,0:0:0:0:
80,200,45332,2,0,L|88:272,1,59.9999981689454,0|0,3:0|1:0,0:0:0:0:
48,344,45498,6,0,B|24:316|24:316|144:344,1,150,4|0,3:2|1:0,0:0:0:0:
252,376,45832,2,0,P|295:340|276:287,1,119.999996337891,8|0,0:0|1:0,0:0:0:0:
208,304,46082,6,0,B|176:288|176:288|168:220,1,100,0|0,3:0|1:0,0:0:0:0:
232,108,46332,2,0,B|224:48,1,59.9999981689454,0|0,3:0|0:0,0:0:0:0:
180,144,46498,6,0,P|208:168|244:170,1,75.0000028610231,8|0,0:0|1:0,0:0:0:0:
296,84,46665,2,0,L|356:68,1,59.9999981689454,0|0,3:0|1:0,0:0:0:0:
448,48,46832,6,0,B|424:8|424:8|416:120,1,150,0|0,3:0|1:0,0:0:0:0:
500,172,47165,2,0,P|400:212|388:180,1,119.999996337891,8|0,0:0|1:0,0:0:0:0:
324,160,47415,5,0,1:0:0:0:
312,172,47498,2,0,L|320:232,1,50,0|0,3:0|1:0,0:0:0:0:
428,312,47665,1,0,3:0:0:0:
392,292,47748,1,0,3:0:0:0:
352,292,47832,1,8,0:0:0:0:
316,308,47915,1,8,0:0:0:0:
292,340,47998,2,0,L|216:352,1,75.0000028610231,0|0,3:0|1:0,0:0:0:0:
160,320,48165,1,4,1:2:0:0:
8,104,48498,5,8,0:0:0:0:
0,144,48582,1,2,0:0:0:0:
24,116,48665,5,0,3:0:0:0:
19,139,48749,1,2,0:0:0:0:
40,112,48832,5,8,0:0:0:0:
32,152,48916,1,2,0:0:0:0:
56,124,48999,5,0,3:0:0:0:
51,147,49083,1,2,0:0:0:0:
76,124,49165,5,8,0:0:0:0:
68,164,49249,1,2,0:0:0:0:
92,136,49332,5,0,3:0:0:0:
87,159,49416,1,2,0:0:0:0:
100,148,49499,5,0,3:0:0:0:
136,128,49582,1,2,1:2:0:0:
176,132,49665,1,0,1:0:0:0:
204,160,49748,1,2,1:2:0:0:
212,200,49832,5,2,1:2:0:0:
232,244,49915,1,0,1:0:0:0:
280,264,49998,1,2,1:2:0:0:
328,252,50082,1,2,1:2:0:0:
360,212,50165,5,0,1:0:0:0:
364,172,50248,1,2,1:2:0:0:
348,136,50332,1,0,1:0:0:0:
312,116,50415,1,2,1:2:0:0:
272,108,50498,5,8,0:0:0:0:
254,97,50582,1,2,0:0:0:0:
241,81,50665,1,0,3:0:0:0:
233,62,50748,1,2,0:0:0:0:
229,42,50832,5,4,1:2:0:0:
247,33,50943,1,2,0:0:0:0:
265,25,51054,1,2,0:0:0:0:
329,49,51165,5,0,3:0:0:0:
353,51,51276,1,2,0:0:0:0:
375,41,51387,1,2,0:0:0:0:
446,1,51498,2,0,P|458:24|456:56,1,50.0000019073487,0|2,3:0|0:0,0:0:0:0:
458,47,51721,1,2,0:0:0:0:
372,177,51832,2,0,P|361:199|361:224,1,50.0000019073487,0|2,3:0|3:2,0:0:0:0:
416,268,52054,1,2,3:2:0:0:
416,268,52165,6,0,B|498:266|512:212|502:174|471:190|475:235,2,150.000005722046,0|0|0,3:0|3:0|3:0,0:0:0:0:
381,114,52943,1,2,3:2:0:0:
401,127,53054,1,2,3:2:0:0:
408,150,53165,5,0,3:0:0:0:
372,177,53276,1,2,3:2:0:0:
328,165,53387,1,2,3:2:0:0:
232,76,53498,5,0,3:0:0:0:
276,68,53610,1,2,0:0:0:0:
240,96,53721,1,2,0:0:0:0:
200,73,53832,2,0,L|211:12,2,50.0000019073487,0|2|2,3:0|0:2|3:2,0:0:0:0:
179,251,54165,5,0,3:0:0:0:
179,206,54276,1,2,0:2:0:0:
160,247,54387,1,2,0:2:0:0:
157,202,54498,2,0,L|146:141,1,50.0000019073487,0|2,3:0|0:2,0:0:0:0:
132,78,54721,1,2,3:2:0:0:
43,119,54832,5,2,3:2:0:0:
15,154,54943,1,0,0:0:0:0:
29,196,55054,1,2,0:0:0:0:
88,249,55165,5,0,3:0:0:0:
101,275,55276,1,2,0:2:0:0:
99,304,55387,1,2,3:2:0:0:
44,363,55498,5,0,3:0:0:0:
24,357,55610,1,2,0:2:0:0:
12,340,55721,1,2,0:2:0:0:
12,320,55832,5,0,3:0:0:0:
15,310,55943,1,2,0:2:0:0:
25,306,56054,1,2,3:2:0:0:
83,346,56165,5,4,1:2:0:0:
83,346,56498,5,0,0:0:0:0:
153,339,56610,1,2,0:0:0:0:
222,332,56721,1,2,0:0:0:0:
291,325,56832,1,2,0:0:0:0:
291,325,57498,5,0,1:0:0:0:
291,325,57832,5,2,0:0:0:0:
250,268,57944,1,2,0:0:0:0:
209,212,58055,1,2,0:0:0:0:
169,156,58165,5,2,0:0:0:0:
157,182,58276,1,0,0:0:0:0:
146,207,58387,1,2,0:0:0:0:
173,276,58498,5,2,0:0:0:0:
215,293,58610,1,2,0:0:0:0:
250,268,58721,1,2,0:0:0:0:
315,311,58832,6,0,B|365:212|468:200|468:200|479:272|414:281,1,300,4|0,0:1|0:0,0:0:0:0:
423,279,60165,5,0,1:0:0:0:
292,136,60332,1,2,0:0:0:0:
335,143,60415,1,2,0:0:0:0:
378,130,60499,1,0,0:0:0:0:
404,116,60582,1,2,0:0:0:0:
424,93,60665,1,2,0:0:0:0:
431,74,60749,1,2,0:0:0:0:
435,54,60832,1,2,0:0:0:0:
435,54,60998,5,0,1:0:0:0:
416,60,61082,1,0,1:0:0:0:
414,45,61165,5,4,1:0:0:0:
391,64,61248,1,2,1:2:0:0:
393,33,61332,1,2,1:2:0:0:
371,53,61415,1,2,1:2:0:0:
372,20,61498,6,0,B|336:0|336:0|360:160|360:160|368:152|368:152|384:256,1,299.999990844727,4|0,3:1|0:0,0:0:0:0:
324,304,61832,2,0,B|292:344|292:344|316:176,1,179.999994506836,0|0,1:0|1:0,0:0:0:0:
288,112,62165,6,0,B|252:84|252:84|184:112,1,119.999996337891,10|0,0:1|0:0,0:0:0:0:
180,124,62332,1,0,1:0:0:0:
224,180,62415,2,0,P|232:200|240:256,1,59.9999981689454,0|0,1:0|0:0,0:0:0:0:
288,112,62582,6,0,B|252:84|252:84|184:112,1,119.999996337891,2|0,1:0|0:0,0:0:0:0:
180,124,62748,1,0,1:0:0:0:
120,200,62832,6,0,P|88:212|44:172,1,100.000003814697,0|0,3:0|0:0,0:0:0:0:
48,168,62998,2,0,B|53:213|101:217|120:200|132:180|132:180|108:168|104:144|104:128,1,166.666666666667,0|0,1:0|0:0,0:0:0:0:
108,128,63165,6,0,L|120:40,1,79.9999975585938,0|0,3:0|0:0,0:0:0:0:
72,0,63332,5,0,1:0:0:0:
72,0,63415,1,0,1:0:0:0:
72,0,63498,2,0,B|40:28|40:88|76:132|144:116|144:116|216:100|252:144,1,299.999990844727,8|0,0:0|0:0,0:0:0:0:
200,212,63832,2,0,B|184:248|244:252|256:168|204:124|132:140|92:192|100:264|152:280|140:260|176:284|168:360|104:376,1,333.333333333333,0|0,1:0|0:0,0:0:0:0:
64,332,64165,6,0,B|36:300|36:300|216:332|216:332|196:344|196:344|380:320,1,416.666666666667,0|0,3:0|0:0,0:0:0:0:
436,316,64498,2,0,B|480:336|480:336|328:184|328:184|356:248,1,333.333333333333,4|0,1:0|0:0,0:0:0:0:
436,316,64832,6,0,L|468:199,1,119.999996337891,10|0,0:1|0:0,0:0:0:0:
495,104,64998,1,0,1:0:0:0:
495,104,65082,2,0,L|462:220,1,100.000003814697,0|0,1:0|0:0,0:0:0:0:
356,248,65248,2,0,L|304:128,1,100,2|0,1:0|1:0,0:0:0:0:
376,92,65415,1,0,1:0:0:0:
381,111,65498,6,0,P|362:151|327:163,1,79.9999975585938,0|0,3:0|0:0,0:0:0:0:
180,128,65665,2,0,P|168:194|256:172,1,166.666666666667,0|0,1:0|0:0,0:0:0:0:
252,180,65832,2,0,L|244:100,1,79.9999975585938,0|0,3:0|0:0,0:0:0:0:
148,68,65998,2,0,L|142:8,2,59.9999981689454,0|0|8,1:0|1:0|0:0,0:0:0:0:
148,68,66387,6,0,L|170:289,2,200,2|2|2,0:3|0:3|0:3,0:0:0:0:
76,152,66832,6,0,P|4:128|52:64,1,125,4|0,3:2|0:0,0:0:0:0:
40,32,66998,1,8,0:0:0:0:
48,24,67082,2,0,B|104:-12|148:36|136:96|136:56|104:128|184:180|240:120,1,250,0|8,3:0|0:0,0:0:0:0:
272,72,67332,1,0,1:0:0:0:
280,64,67415,1,0,1:0:0:0:
288,56,67498,6,0,B|328:88|328:88|320:136,1,100,8|0,0:0|0:0,0:0:0:0:
272,264,67665,2,0,L|268:356,1,89.9999972534181,0|0,1:0|0:0,0:0:0:0:
184,232,67832,2,0,P|208:204|244:200,1,75.0000028610231,0|0,1:0|0:0,0:0:0:0:
336,244,67998,1,0,1:0:0:0:
344,252,68082,1,0,1:0:0:0:
352,260,68165,6,0,B|456:304|516:200|468:96|368:108|364:176|384:196,1,300,0|0,3:0|0:0,0:0:0:0:
384,196,68498,2,0,B|421:216|467:188|484:147|475:99|441:70|393:74,1,225.000008583069,0|0,1:0|0:0,0:0:0:0:
332,108,68832,6,0,B|304:136|304:136|220:124,1,125,10|0,1:0|0:0,0:0:0:0:
154,161,68998,1,0,1:0:0:0:
152,172,69082,2,0,P|192:212|252:196,1,125,0|0,1:0|1:0,0:0:0:0:
332,108,69248,6,0,B|304:136|304:136|220:124,1,125,2|0,1:0|0:0,0:0:0:0:
100,216,69415,1,0,1:0:0:0:
88,220,69498,6,0,P|60:188|72:124,1,100,0|0,3:0|0:0,0:0:0:0:
108,0,69665,2,0,B|144:28|144:28|120:132,1,125,0|0,1:0|0:0,0:0:0:0:
88,320,69832,2,0,B|104:288|104:288|168:280,1,100,0|0,1:0|0:0,0:0:0:0:
274,268,69998,1,0,1:0:0:0:
282,272,70082,1,0,1:0:0:0:
290,276,70165,6,0,B|322:276|334:232|322:192|274:180|246:200|246:200|214:224|162:212|150:168,1,269.999991760254,8|0,0:0|1:0,0:0:0:0:
208,144,70498,2,0,P|236:104|240:48,1,100,0|0,1:0|1:0,0:0:0:0:
344,0,70665,2,0,P|360:24|364:54,1,59.9999981689454,0|0,1:0|1:0,0:0:0:0:
339,119,70832,6,0,B|291:99|279:31|331:-29|411:-41|459:19|451:111|435:83|403:95|383:115|383:183|439:227|507:219|551:183|544:128|520:104|480:108,1,500,4|0,3:1|0:0,0:0:0:0:
484,108,71248,2,0,P|360:204|380:360,1,300.000011444092,8|0,0:0|3:0,0:0:0:0:
436,340,71498,6,0,L|468:380,1,50.0000019073487,8|2,0:0|0:0,0:0:0:0:
468,324,71610,2,0,L|476:374,1,50.0000019073487,2|2,0:0|0:0,0:0:0:0:
504,326,71722,2,0,L|486:373,1,50.0000019073487,2|2,0:0|0:0,0:0:0:0:
510,310,71832,6,0,L|483:382,1,66.6666666666667,0|2,3:0|0:0,0:0:0:0:
466,307,71943,2,0,L|479:385,1,66.6666666666667,2|2,0:0|0:0,0:0:0:0:
426,326,72054,2,0,L|470:380,1,66.6666666666667,2|2,0:0|0:0,0:0:0:0:
364,298,72165,6,0,B|312:332|312:332|348:225|348:225|364:217|364:217|359:138|359:138|338:118,1,300,0|0,3:0|0:0,0:0:0:0:
287,69,72498,6,0,B|295:11|295:11|257:49|257:49|253:86,1,150,0|0,3:0|0:0,0:0:0:0:
136,173,72832,6,0,B|236:148|236:148|275:177,1,150.000005722046,8|0,3:2|0:0,0:0:0:0:
256,241,73082,2,0,B|226:281|226:281|228:256,1,75.0000028610231,0|0,0:0|3:0,0:0:0:0:
273,175,73248,6,0,B|173:200|173:200|134:171,1,150.000005722046
141,9,73498,6,0,P|166:51|163:101,1,100,0|0,3:0|0:0,0:0:0:0:
173,91,73665,2,0,P|177:42|152:0,1,100,8|0,0:0|0:0,0:0:0:0:
53,28,73832,2,0,P|49:77|74:119,1,100,0|0,3:0|0:0,0:0:0:0:
304,40,73998,6,0,L|311:6,1,25,0|0,1:0|0:0,0:0:0:0:
298,46,74082,2,0,L|323:69,1,25,0|0,1:0|0:0,0:0:0:0:
295,37,74165,2,0,L|262:47,1,25,0|0,3:0|0:0,0:0:0:0:
81,217,74332,1,0,1:0:0:0:
81,217,74415,1,0,1:0:0:0:
81,217,74498,2,0,P|105:209|146:207,1,50,0|0,3:0|1:0,0:0:0:0:
147,326,74665,2,0,P|123:334|99:337,1,50,12|0,1:2|1:0,0:0:0:0:
34,281,74832,5,4,3:1:0:0:
129,206,75082,1,4,1:2:0:0:
147,326,75332,1,4,1:2:0:0:
147,326,75498,5,4,3:1:0:0:
54,207,75748,1,4,1:2:0:0:
0,348,75998,1,4,1:2:0:0:
207,350,76165,6,0,P|235:335|244:303,1,66.6666666666667,0|2,3:0|0:0,0:0:0:0:
129,332,76387,2,0,P|130:299|108:276,1,66.6666666666667,2|0,1:2|3:0,0:0:0:0:
58,357,76610,2,0,P|30:339|0:347,1,66.6666666666667,2|2,0:0|1:2,0:0:0:0:
196,240,76832,6,0,P|233:240|275:252,1,66.6666666666667,0|2,3:0|0:0,0:0:0:0:
64,209,77054,2,0,P|27:221|-15:226,1,66.6666666666667,2|0,1:2|3:0,0:0:0:0:
173,128,77276,2,0,P|207:112|250:104,1,66.6666666666667,2|2,1:2|1:2,0:0:0:0:
77,30,77498,6,0,B|52:31|34:8|34:8|70:0|91:36,1,100.000003814697,4|2,1:2|0:0,0:0:0:0:
77,30,77943,6,0,B|93:121|234:227|281:34|162:32,1,310.000009696961,2|0,0:0|0:0,0:0:0:0:
178,48,78582,1,0,0:0:0:0:
196,50,78665,1,2,0:0:0:0:
213,45,78748,1,2,0:0:0:0:
229,35,78832,5,2,0:0:0:0:
230,190,79054,1,2,0:0:0:0:
175,43,79276,6,0,B|167:29|167:29|321:4|257:132|399:131|393:-1|296:33,1,310.000009696961,2|0,0:0|0:0,0:0:0:0:
286,52,79915,1,2,0:0:0:0:
281,79,79998,1,2,0:0:0:0:
289,105,80082,1,2,0:0:0:0:
311,120,80165,6,0,L|345:113,2,33.3333333333333,0|2|2,0:0|0:0|0:0,0:0:0:0:
266,187,80332,2,0,L|233:193,2,33.3333333333333,0|2|2,0:0|0:0|0:0,0:0:0:0:
330,233,80498,5,2,0:0:0:0:
362,230,80553,1,2,0:0:0:0:
393,242,80609,1,2,0:0:0:0:
415,267,80664,1,0,0:0:0:0:
424,299,80720,1,2,0:0:0:0:
417,331,80775,1,2,0:0:0:0:
399,360,80832,6,0,L|363:351,2,33.3333333333333,0|2|2,0:0|0:0|0:0,0:0:0:0:
393,242,80998,2,0,L|382:206,2,33.3333333333333,2|2|2,0:0|0:0|0:0,0:0:0:0:
481,157,81165,1,0,0:0:0:0:
475,144,81220,1,2,0:0:0:0:
481,131,81276,1,2,0:0:0:0:
476,122,81331,1,0,0:0:0:0:
465,116,81387,1,2,0:0:0:0:
472,105,81442,1,2,0:0:0:0:
478,91,81498,5,4,3:1:0:0:
256,192,81748,1,4,3:2:0:0:
41,31,81998,5,4,3:2:0:0:
318,147,82248,1,4,3:2:0:0:
79,328,82498,1,4,3:2:0:0:
48,264,82665,1,4,3:2:0:0:
16,108,82832,6,0,B|86:124|86:124|99:163|99:163|165:179,1,179.999994506836,4|0,3:2|1:0,0:0:0:0:
224,216,83165,2,0,B|256:192|256:192|248:112,1,119.999996337891,8|2,0:0|0:0,0:0:0:0:
312,36,83498,5,0,1:0:0:0:
160,100,83665,1,0,3:0:0:0:
212,24,83832,1,8,0:0:0:0:
340,128,83998,1,2,0:0:0:0:
472,56,84165,6,0,B|432:8|432:8|452:156,1,179.999994506836,0|0,3:0|1:0,0:0:0:0:
408,184,84498,1,8,0:0:0:0:
420,192,84554,2,0,P|440:232|448:280,1,79.9999975585938,0|2,0:0|0:0,0:0:0:0:
384,344,84721,2,0,L|392:280,1,39.9999987792969
352,248,84832,2,0,P|296:263|250:228,1,119.999996337891,0|0,1:0|3:0,0:0:0:0:
120,360,85165,2,0,P|175:375|221:340,1,119.999996337891,8|2,0:0|0:0,0:0:0:0:
324,164,85498,5,0,3:0:0:0:
164,300,85665,1,0,1:0:0:0:
192,184,85832,1,8,0:0:0:0:
332,328,85998,1,2,0:0:0:0:
448,164,86165,5,0,1:0:0:0:
256,260,86332,1,0,3:0:0:0:
284,72,86498,5,8,0:0:0:0:
380,264,86665,1,2,0:0:0:0:
496,96,86832,6,0,B|512:56|512:56|376:128,1,179.999994506836,0|0,1:0|1:0,0:0:0:0:
344,176,87165,2,0,L|224:168,1,119.999996337891,8|2,0:0|0:0,0:0:0:0:
204,156,87415,1,2,0:0:0:0:
184,144,87498,1,0,1:0:0:0:
116,352,87665,1,0,3:0:0:0:
0,320,87832,2,0,P|-9:263|34:227,1,119.999996337891,8|2,0:0|0:0,0:0:0:0:
48,236,88054,1,2,0:0:0:0:
60,244,88110,1,2,0:0:0:0:
72,252,88165,6,0,L|192:248,1,119.999996337891,0|0,3:0|1:0,0:0:0:0:
252,208,88415,1,0,0:0:0:0:
276,212,88498,2,0,L|356:224,1,59.9999981689454,8|0,0:0|0:0,0:0:0:0:
416,192,88665,5,2,0:0:0:0:
456,168,88748,1,2,0:0:0:0:
464,120,88832,1,0,1:0:0:0:
448,88,88915,1,2,0:0:0:0:
416,76,88998,1,0,3:0:0:0:
380,84,89082,1,2,0:0:0:0:
360,112,89165,1,8,0:0:0:0:
348,132,89248,1,2,0:0:0:0:
332,148,89332,1,2,0:0:0:0:
308,152,89415,1,2,0:0:0:0:
284,144,89498,6,0,P|232:132|172:192,1,119.999996337891,0|0,1:0|1:0,0:0:0:0:
120,208,89748,1,0,0:0:0:0:
100,224,89832,1,8,0:0:0:0:
88,144,89943,1,2,0:0:0:0:
76,64,90054,1,2,0:0:0:0:
32,112,90165,6,0,P|100:124|136:88,1,119.999996337891,0|0,1:0|3:0,0:0:0:0:
128,24,90415,2,0,B|156:0|156:0|220:12,1,99.9999969482423,2|0,0:0|0:0,0:0:0:0:
264,56,90610,2,0,L|252:176,1,119.999996337891
196,204,90832,6,0,P|184:268|236:300,1,119.999996337891,0|0,3:0|0:0,0:0:0:0:
264,248,91082,5,2,0:0:0:0:
272,256,91165,1,8,0:0:0:0:
320,208,91248,5,2,0:0:0:0:
328,216,91331,1,0,0:0:0:0:
336,288,91415,5,2,0:0:0:0:
344,296,91498,1,0,1:0:0:0:
392,248,91581,5,2,0:0:0:0:
400,256,91664,1,0,3:0:0:0:
408,320,91748,5,2,0:0:0:0:
416,328,91831,1,8,0:0:0:0:
472,288,91914,5,2,0:0:0:0:
488,352,91997,5,0,1:0:0:0:
480,368,92082,1,2,0:0:0:0:
472,384,92165,1,0,3:0:0:0:
256,360,92332,5,2,0:0:0:0:
220,328,92415,1,0,0:0:0:0:
212,280,92498,1,8,0:0:0:0:
240,240,92582,1,2,0:0:0:0:
288,228,92665,1,2,0:0:0:0:
332,248,92748,1,2,0:0:0:0:
380,248,92832,1,0,1:0:0:0:
416,216,92915,1,2,0:0:0:0:
432,172,92998,1,0,3:0:0:0:
412,128,93082,1,2,0:0:0:0:
372,100,93165,5,8,0:0:0:0:
360,108,93221,1,2,0:0:0:0:
348,116,93276,1,2,0:0:0:0:
336,124,93332,5,2,0:0:0:0:
288,136,93415,1,2,0:0:0:0:
256,100,93498,6,0,L|447:124,1,179.999994506836,4|0,3:2|1:0,0:0:0:0:
496,159,93832,2,0,B|513:188|513:188|496:102,1,119.999996337891,8|2,0:0|0:0,0:0:0:0:
485,81,94082,1,0,0:0:0:0:
467,65,94165,1,0,1:0:0:0:
359,184,94332,1,0,3:0:0:0:
430,354,94498,2,0,B|480:319|468:262|468:262|422:237|402:289,1,179.999994506836,8|0,0:0|0:0,0:0:0:0:
331,269,94832,6,0,P|344:297|346:326,1,59.9999981689454,0|0,3:0|0:0,0:0:0:0:
278,343,94998,2,0,P|265:315|263:286,1,59.9999981689454,0|0,0:0|1:0,0:0:0:0:
325,185,95165,2,0,P|382:196|414:245,1,119.999996337891,8|2,0:0|0:0,0:0:0:0:
418,269,95415,1,0,0:0:0:0:
415,292,95498,1,0,1:0:0:0:
218,145,95665,6,0,P|222:115|237:90,1,59.9999981689454,0|0,3:0|0:0,0:0:0:0:
246,262,95832,2,0,P|270:281|284:307,1,59.9999981689454,8|0,0:0|0:0,0:0:0:0:
281,197,95998,1,0,0:0:0:0:
281,197,96082,1,0,0:0:0:0:
281,197,96165,6,0,P|311:185|374:198,2,89.9999972534181,4|4|4,3:1|3:2|3:2,0:0:0:0:
212,331,96832,5,4,3:1:0:0:
218,145,97082,1,4,3:2:0:0:
54,233,97332,1,4,3:2:0:0:
154,243,97498,6,0,P|184:245|212:256,1,59.9999981689454,0|2,3:0|0:0,0:0:0:0:
117,304,97721,2,0,P|130:330|134:360,1,59.9999981689454,2|8,0:0|0:0,0:0:0:0:
51,301,97943,2,0,P|35:326|11:344,1,59.9999981689454,2|2,0:0|0:0,0:0:0:0:
0,124,98165,6,0,P|25:139|43:163,1,59.9999981689454,0|2,0:0|0:0,0:0:0:0:
138,80,98387,2,0,P|136:109|125:137,1,59.9999981689454,2|8,0:0|0:0,0:0:0:0:
245,177,98610,2,0,P|218:190|188:194,1,59.9999981689454,2|2,0:0|0:0,0:0:0:0:
0,124,98832,5,4,3:2:0:0:
154,358,99165,1,0,3:0:0:0:
425,284,99498,1,0,3:0:0:0:
439,4,99832,1,0,3:0:0:0:
160,134,100165,6,0,P|107:120|53:113,1,100,4|0,3:2|0:0,0:0:0:0:
352,250,100498,2,0,P|405:264|459:271,1,100,0|0,3:0|0:0,0:0:0:0:
192,285,100832,2,0,P|178:338|171:392,1,100,0|0,3:0|0:0,0:0:0:0:
320,99,101165,2,0,P|334:46|341:-8,1,100,0|0,3:0|0:0,0:0:0:0:
148,38,101498,6,0,L|156:90,1,50,0|0,3:0|0:0,0:0:0:0:
168,48,101665,2,0,L|176:100,1,50,0|0,3:0|0:0,0:0:0:0:
332,124,101832,6,0,L|324:176,1,50,0|0,3:0|0:0,0:0:0:0:
312,134,101999,2,0,L|304:186,1,50,0|0,3:0|0:0,0:0:0:0:
179,193,102165,6,0,L|187:245,1,50,0|0,3:0|0:0,0:0:0:0:
324,254,102332,2,0,L|316:306,1,50,0|0,3:0|0:0,0:0:0:0:
241,372,102498,5,0,3:0:0:0:
267,372,102554,5,2,0:0:0:0:
247,383,102609,5,2,0:0:0:0:
261,360,102665,5,2,3:2:0:0:
261,384,102720,5,2,0:0:0:0:
247,360,102776,5,2,0:0:0:0:
253,374,102832,5,0,3:0:0:0:
220,174,102998,1,0,1:0:0:0:
246,159,103082,1,0,1:0:0:0:
272,145,103165,5,0,1:0:0:0:
256,192,103248,1,0,1:0:0:0:
240,239,103332,1,0,1:0:0:0:
266,224,103415,1,0,1:0:0:0:
292,210,103498,5,8,0:0:0:0:
148,258,103665,1,0,3:0:0:0:
148,258,103748,1,0,3:0:0:0:
148,258,103832,2,0,B|135:233|135:233|137:211,1,50,8|0,0:0|0:0,0:0:0:0:
364,126,103998,2,0,B|376:150|376:150|374:172,1,50,0|0,3:0|0:0,0:0:0:0:
256,192,104165,5,4,1:0:0:0:
156,36,104332,1,2,1:2:0:0:
136,32,104415,1,2,0:0:0:0:
116,28,104498,1,0,3:0:0:0:
88,36,104582,1,2,0:0:0:0:
68,60,104665,1,2,1:2:0:0:
64,88,104748,1,2,0:0:0:0:
76,116,104832,1,0,3:0:0:0:
104,128,104915,1,2,0:0:0:0:
132,128,104998,1,2,1:2:0:0:
160,116,105082,1,2,0:0:0:0:
184,100,105165,1,0,3:0:0:0:
212,92,105248,1,2,0:0:0:0:
244,96,105332,1,2,1:2:0:0:
272,108,105415,1,2,0:0:0:0:
292,96,105498,5,0,3:0:0:0:
286,130,105582,1,2,0:0:0:0:
316,112,105665,1,2,1:2:0:0:
323,140,105748,1,2,0:0:0:0:
344,120,105832,1,0,3:0:0:0:
361,137,105915,1,2,0:0:0:0:
372,116,105998,1,2,1:2:0:0:
391,122,106082,1,2,0:0:0:0:
400,104,106165,5,0,3:0:0:0:
440,112,106248,1,2,0:0:0:0:
464,144,106332,1,2,1:2:0:0:
468,184,106415,1,2,0:0:0:0:
444,216,106498,1,0,3:0:0:0:
404,228,106582,1,2,0:0:0:0:
364,220,106665,1,2,1:2:0:0:
324,224,106748,1,2,0:0:0:0:
296,252,106832,5,0,3:0:0:0:
432,336,106998,1,2,1:2:0:0:
420,352,107082,1,2,0:0:0:0:
408,368,107165,1,0,3:0:0:0:
380,380,107248,1,2,0:0:0:0:
348,380,107332,1,2,1:2:0:0:
320,364,107415,1,2,0:0:0:0:
300,340,107498,1,0,3:0:0:0:
272,324,107582,1,2,0:0:0:0:
244,320,107665,1,2,1:2:0:0:
216,328,107748,1,2,0:0:0:0:
192,344,107832,1,0,3:0:0:0:
164,348,107915,1,2,0:0:0:0:
136,336,107998,1,2,1:2:0:0:
116,312,108082,1,2,0:0:0:0:
100,300,108165,5,0,3:0:0:0:
134,291,108248,1,2,0:0:0:0:
104,272,108332,1,2,1:2:0:0:
134,270,108415,1,2,0:0:0:0:
120,244,108498,1,0,3:0:0:0:
144,253,108582,1,2,0:0:0:0:
144,228,108665,1,2,1:2:0:0:
160,240,108748,1,2,0:0:0:0:
172,224,108832,5,0,3:0:0:0:
208,204,108915,1,2,0:0:0:0:
248,204,108998,1,2,1:2:0:0:
280,228,109082,1,2,0:0:0:0:
300,260,109165,1,0,3:0:0:0:
332,280,109248,1,2,0:0:0:0:
372,280,109332,1,2,1:2:0:0:
408,264,109415,1,2,0:0:0:0:
432,231,109498,6,0,P|456:233|477:247,1,50,0|2,3:0|0:0,0:0:0:0:
396,156,109665,2,0,P|409:135|432:124,1,50,0|2,3:0|0:0,0:0:0:0:
372,280,109832,2,0,P|382:302|380:326,1,50,0|2,3:0|0:0,0:0:0:0:
315,383,109998,1,0,3:0:0:0:
280,362,110082,1,2,0:0:0:0:
278,322,110165,5,0,3:0:0:0:
288,305,110248,1,2,0:0:0:0:
292,285,110332,1,0,3:0:0:0:
290,265,110415,1,2,0:0:0:0:
282,246,110498,5,0,3:0:0:0:
251,219,110582,1,2,0:0:0:0:
211,217,110665,1,0,3:0:0:0:
178,239,110748,1,2,0:0:0:0:
171,278,110832,5,0,3:0:0:0:
159,239,110915,1,0,1:0:0:0:
158,278,110998,1,0,1:0:0:0:
140,241,111082,1,0,1:0:0:0:
147,280,111165,1,0,1:0:0:0:
120,249,111248,1,0,1:0:0:0:
135,286,111332,1,0,1:0:0:0:
103,261,111415,1,0,1:0:0:0:
126,293,111498,5,0,1:0:0:0:
90,273,111582,1,0,1:0:0:0:
50,279,111665,1,0,1:0:0:0:
23,309,111748,1,0,1:0:0:0:
28,348,111832,5,0,1:0:0:0:
42,311,111915,1,0,1:0:0:0:
41,271,111998,1,0,1:0:0:0:
31,231,112082,1,0,1:0:0:0:
1,204,112165,5,4,1:0:0:0:
1,204,112498,5,0,0:0:0:0:
7,206,112554,1,2,0:0:0:0:
13,208,112610,1,2,0:0:0:0:
19,210,112665,1,2,0:0:0:0:
25,212,112721,1,2,0:0:0:0:
31,214,112776,1,2,0:0:0:0:
37,214,112832,6,0,L|75:207,2,33.3333333333333,0|2|2,0:0|0:0|0:0,0:0:0:0:
125,161,112998,2,0,L|163:168,2,33.3333333333333,2|2|2,0:0|0:0|0:0,0:0:0:0:
217,213,113165,6,0,P|228:200|233:185,2,33.3333333333333,0|2|0,0:0|0:0|0:0,0:0:0:0:
300,157,113332,2,0,P|294:141|284:128,2,33.3333333333333,2|0|2,0:0|0:0|0:0,0:0:0:0:
245,68,113498,6,0,B|238:111|258:162|258:162|251:153|251:153|233:200|233:200|251:245|251:245|257:234|257:234|242:302|273:340,1,320,4|0,1:2|0:0,0:0:0:0:
