osu file format v14

[General]
AudioFilename: Jun Kuroda & - Cygnus[FREE DL].mp3
AudioLeadIn: 0
PreviewTime: 62999
Countdown: 0
SampleSet: Soft
StackLeniency: 0.5
Mode: 0
LetterboxInBreaks: 1
WidescreenStoryboard: 1

[Editor]
Bookmarks: 11866,22358,32835,42030,53834,63014,64325,85309,106293,127276
DistanceSpacing: 1.6
BeatDivisor: 4
GridSize: 8
TimelineZoom: 1

[Metadata]
Title:Cygnus
TitleUnicode:Cygnus
Artist:Jun Kuroda & AAAA
ArtistUnicode:Jun Kuroda & ああああ
Creator:Rohit6
Version:HYPER
Source:
Tags:Drum&Bass dnb 夏 エモ 宮田守 Miyata Mamoru emo natsu Nerova Riuz GX ProfessionalBox Rizen
BeatmapID:788471
BeatmapSetID:358056

[Difficulty]
HPDrainRate:4
CircleSize:4
OverallDifficulty:7
ApproachRate:8
SliderMultiplier:1
SliderTickRate:1

[Events]
//Background and Video events
0,0,"7heaven_landscape_wallpaper_by_ivany86-d6t8496.jpg",0,0
//Break Periods
//Storyboard Layer 0 (Background)
//Storyboard Layer 1 (Fail)
//Storyboard Layer 2 (Pass)
//Storyboard Layer 3 (Foreground)
//Storyboard Sound Samples

[TimingPoints]
1360,327.868852459016,4,2,0,60,1,0
10868,-83.3333333333333,4,2,0,60,0,0
10950,-83.3333333333333,4,2,0,40,0,0
11032,-83.3333333333333,4,2,0,70,0,0
11114,-83.3333333333333,4,2,0,68,0,0
11196,-83.3333333333333,4,2,0,65,0,0
11278,-83.3333333333333,4,2,0,62,0,0
11359,-83.3333333333333,4,2,0,60,0,0
11441,-83.3333333333333,4,2,0,58,0,0
11523,-83.3333333333333,4,2,0,55,0,0
11605,-83.3333333333333,4,2,0,52,0,0
11687,-83.3333333333333,4,2,0,50,0,0
11769,-83.3333333333333,4,2,0,48,0,0
11851,-100,4,1,0,80,0,0
11933,-100,4,1,1,80,0,0
12097,-100,4,1,1,20,0,0
12179,-100,4,1,1,80,0,0
13081,-100,4,1,1,20,0,0
13163,-100,4,1,1,80,0,0
13327,-100,4,1,1,40,0,0
13491,-100,4,1,1,80,0,0
14310,-100,4,1,1,40,0,0
14474,-100,4,1,1,60,0,0
14638,-100,4,1,1,65,0,0
14802,-100,4,1,1,70,0,0
15212,-100,4,1,1,70,0,0
15294,-100,4,1,1,75,0,0
15458,-100,4,1,1,80,0,0
15622,-100,4,1,1,85,0,0
15786,-100,4,1,1,80,0,0
15950,-100,4,1,1,40,0,0
16114,-100,4,1,1,80,0,0
18245,-100,4,1,1,40,0,0
18409,-100,4,1,1,80,0,0
18573,-100,4,1,1,40,0,0
18737,-100,4,1,1,80,0,0
19638,-100,4,1,1,20,0,0
19720,-100,4,1,1,60,0,0
19884,-100,4,1,1,65,0,0
20048,-100,4,1,1,70,0,0
20458,-100,4,1,1,70,0,0
20540,-100,4,1,1,75,0,0
20704,-100,4,1,1,80,0,0
20868,-100,4,1,1,85,0,0
21032,-100,4,1,1,80,0,0
22261,-100,4,1,1,20,0,0
22343,-125,4,2,10,70,0,0
22671,-125,4,2,10,40,0,0
22835,-125,4,2,10,70,0,0
23163,-125,4,2,10,40,0,0
23327,-125,4,2,10,70,0,0
24638,-125,4,2,10,40,0,0
24802,-125,4,2,10,70,0,0
25048,-125,4,2,10,20,0,0
25130,-125,4,2,10,80,0,0
25294,-125,4,2,10,85,0,0
25458,-125,4,2,10,90,0,0
25704,-125,4,2,10,20,0,0
25786,-125,4,2,10,90,0,0
25950,-125,4,2,10,95,0,0
26114,-125,4,2,10,100,0,0
26605,-125,4,2,10,20,0,0
26769,-125,4,2,10,70,0,0
26933,-125,4,2,10,60,0,0
27097,-125,4,2,10,70,0,0
27261,-125,4,2,10,80,0,0
27425,-125,4,2,10,90,0,0
27589,-125,4,2,10,100,0,0
27835,-125,4,2,10,20,0,0
27917,-125,4,2,10,80,0,0
29310,-125,4,2,10,20,0,0
29392,-125,4,2,10,80,0,0
31114,-125,4,2,10,20,0,0
31196,-125,4,2,10,80,0,0
31605,-125,4,2,10,20,0,0
31687,-125,4,2,10,50,0,0
32671,-125,4,2,10,80,0,0
32835,-125,4,2,10,70,0,0
33163,-125,4,2,10,40,0,0
33327,-125,4,2,10,70,0,0
34228,-125,4,2,10,20,0,0
34310,-125,4,2,10,70,0,0
35458,-125,4,2,10,80,0,0
36196,-125,4,2,10,20,0,0
36278,-125,4,2,10,80,0,0
37097,-125,4,2,10,20,0,0
37261,-125,4,2,10,70,0,0
37425,-125,4,2,10,60,0,0
37589,-125,4,2,10,70,0,0
37753,-125,4,2,10,80,0,0
37917,-125,4,2,10,90,0,0
38081,-125,4,2,10,100,0,0
38327,-125,4,2,10,20,0,0
38409,-125,4,2,10,80,0,0
39474,-125,4,1,10,20,0,0
39556,-125,4,2,10,80,0,0
40704,-125,4,2,10,90,0,0
40950,-125,4,2,10,20,0,0
41032,-125,4,2,10,80,0,0
41196,-125,4,2,10,80,0,0
41441,-125,4,2,10,20,0,0
41523,-125,4,2,10,80,0,0
42015,-125,4,2,0,80,0,0
42671,-125,4,2,1,70,0,0
42999,-125,4,2,1,60,0,0
43327,-100,4,2,0,80,0,0
43491,-100,4,2,10,80,0,0
44720,-100,4,2,10,20,0,0
44802,-100,4,2,10,80,0,0
46196,-100,4,2,10,20,0,0
46278,-100,4,2,10,80,0,0
46523,-100,4,2,10,20,0,0
46605,-100,4,2,10,80,0,0
47425,-100,4,2,10,80,0,0
53245,-100,4,2,10,83,0,0
53327,-100,4,2,10,85,0,0
53409,-100,4,2,10,88,0,0
53491,-100,4,2,10,90,0,0
53573,-100,4,2,10,93,0,0
53655,-100,4,2,10,95,0,0
53737,-100,4,2,10,98,0,0
53819,-111.111111111111,4,2,10,100,0,0
53982,-111.111111111111,4,2,10,80,0,0
55212,-111.111111111111,4,2,10,20,0,0
55294,-111.111111111111,4,2,10,80,0,0
56687,-111.111111111111,4,2,10,20,0,0
56769,-111.111111111111,4,2,10,85,0,0
57015,-111.111111111111,4,2,10,20,0,0
57097,-111.111111111111,4,2,10,90,0,0
57343,-111.111111111111,4,2,10,20,0,0
57425,-111.111111111111,4,2,0,80,0,0
57835,-111.111111111111,4,2,10,20,0,0
57917,-111.111111111111,4,2,10,80,0,0
59474,-111.111111111111,4,2,10,20,0,0
59556,-111.111111111111,4,2,10,80,0,0
59884,-111.111111111111,4,2,10,100,0,0
60458,-111.111111111111,4,2,10,20,0,0
60540,-111.111111111111,4,2,10,80,0,0
61196,-111.111111111111,4,2,10,85,0,0
61359,-111.111111111111,4,2,10,90,0,0
61523,-111.111111111111,4,2,10,95,0,0
61687,-166.666666666667,4,2,0,80,0,0
62097,-166.666666666667,4,1,10,10,0,0
62179,-166.666666666667,4,2,10,80,0,0
62343,-166.666666666667,4,2,10,60,0,0
62671,-166.666666666667,4,2,10,80,0,0
62999,-166.666666666667,4,1,10,90,0,0
63982,-166.666666666667,4,1,15,90,0,0
64228,-166.666666666667,4,2,15,90,0,0
64310,-83.3333333333333,4,1,1,100,0,1
64474,-83.3333333333333,4,1,1,50,0,1
64638,-83.3333333333333,4,1,1,90,0,1
65458,-83.3333333333333,4,1,10,100,0,1
65622,-83.3333333333333,4,1,1,100,0,1
65786,-83.3333333333333,4,1,10,100,0,1
65950,-83.3333333333333,4,1,1,100,0,1
66114,-83.3333333333333,4,1,10,100,0,1
66278,-83.3333333333333,4,1,1,100,0,1
66441,-83.3333333333333,4,1,10,100,0,1
66605,-83.3333333333333,4,1,1,100,0,1
66769,-83.3333333333333,4,1,10,100,0,1
66933,-83.3333333333333,4,1,1,90,0,1
67261,-83.3333333333333,4,1,1,100,0,1
68245,-83.3333333333333,4,1,1,90,0,1
68737,-83.3333333333333,4,1,1,100,0,1
69802,-83.3333333333333,4,1,1,10,0,1
69884,-83.3333333333333,4,1,1,100,0,1
70294,-83.3333333333333,4,1,1,50,0,1
70376,-83.3333333333333,4,1,1,100,0,1
71605,-83.3333333333333,4,1,1,50,0,1
71687,-83.3333333333333,4,1,1,90,0,1
71851,-83.3333333333333,4,1,1,95,0,1
72015,-83.3333333333333,4,1,10,100,0,1
72179,-83.3333333333333,4,1,1,100,0,1
72425,-83.3333333333333,4,1,1,20,0,1
72507,-83.3333333333333,4,1,1,100,0,1
72917,-83.3333333333333,4,1,1,50,0,1
72999,-83.3333333333333,4,1,1,100,0,1
75950,-83.3333333333333,4,1,10,100,0,1
76114,-83.3333333333333,4,1,1,100,0,1
76278,-83.3333333333333,4,1,10,100,0,1
76442,-83.3333333333333,4,1,1,100,0,1
76605,-83.3333333333333,4,1,10,100,0,1
76769,-83.3333333333333,4,1,1,100,0,1
76933,-83.3333333333333,4,1,10,100,0,1
77097,-83.3333333333333,4,1,1,100,0,1
77261,-83.3333333333333,4,1,10,100,0,1
77425,-83.3333333333333,4,1,1,80,0,1
77753,-83.3333333333333,4,1,1,90,0,1
78081,-83.3333333333333,4,1,1,100,0,1
81196,-83.3333333333333,4,1,10,100,0,1
81360,-83.3333333333333,4,1,1,100,0,1
81523,-83.3333333333333,4,1,10,100,0,1
81687,-83.3333333333333,4,1,1,100,0,1
81851,-83.3333333333333,4,1,10,100,0,1
82015,-83.3333333333333,4,1,1,100,0,1
82179,-83.3333333333333,4,1,10,90,0,1
82343,-83.3333333333333,4,1,1,90,0,1
82507,-83.3333333333333,4,1,10,95,0,1
82671,-83.3333333333333,4,1,1,100,0,1
82917,-83.3333333333333,4,1,1,50,0,1
82999,-83.3333333333333,4,1,1,100,0,1
83409,-83.3333333333333,4,1,1,50,0,1
83491,-83.3333333333333,4,1,1,100,0,1
83982,-100,4,1,1,100,0,1
85212,-100,4,1,1,20,0,1
85294,-111.111111111111,4,2,0,90,0,0
86278,-111.111111111111,4,1,1,20,0,0
86441,-111.111111111111,4,2,0,90,0,0
87179,-111.111111111111,4,1,1,20,0,0
87261,-111.111111111111,4,2,1,90,0,0
87917,-111.111111111111,4,2,0,90,0,0
88900,-111.111111111111,4,1,1,20,0,0
89064,-111.111111111111,4,2,0,90,0,0
89720,-111.111111111111,4,1,1,20,0,0
89884,-111.111111111111,4,1,1,40,0,0
90212,-111.111111111111,4,1,1,60,0,0
90540,-111.111111111111,4,2,0,90,0,0
91523,-111.111111111111,4,1,1,20,0,0
91687,-111.111111111111,4,2,0,90,0,0
92507,-111.111111111111,4,1,1,20,0,0
92671,-111.111111111111,4,2,0,90,0,0
93081,-111.111111111111,4,1,1,20,0,0
93163,-111.111111111111,4,2,0,90,0,0
94146,-111.111111111111,4,1,1,20,0,0
94310,-111.111111111111,4,2,0,90,0,0
94966,-111.111111111111,4,1,1,20,0,0
95130,-111.111111111111,4,1,1,90,0,0
95786,-100,4,2,0,80,0,0
97753,-100,4,2,1,100,0,0
98327,-100,4,2,1,100,0,0
98409,-100,4,2,0,80,0,0
100376,-100,4,2,0,40,0,0
100704,-100,4,2,1,60,0,0
101032,-83.3333333333333,4,1,2,80,0,0
106278,-100,4,1,0,80,0,0
106605,-125,4,1,0,80,0,0
110622,-125,4,1,0,80,0,0
110704,-125,4,1,0,80,0,0
111769,-125,4,1,0,80,0,0
111851,-125,4,1,0,80,0,0
114146,-200,4,1,0,80,0,0
115130,-125,4,1,0,80,0,0
121196,-125,4,1,0,80,0,0
125950,-125,4,1,0,80,0,0
126114,-125,4,1,0,80,0,0
126278,-125,4,1,0,80,0,0
126441,-125,4,1,0,80,0,0
126605,-125,4,1,0,80,0,0
126769,-125,4,1,0,80,0,0
126933,-125,4,1,0,80,0,0
127097,-125,4,1,0,80,0,0

[Colours]
Combo1 : 102,255,255
Combo2 : 255,255,121
Combo3 : 26,140,255
Combo4 : 128,255,0

[HitObjects]
61,158,1360,6,0,L|50:228,2,50,4|0|2,0:0|0:0|0:0,0:0:0:0:
130,92,1851,2,0,L|137:42,2,50,0|0|2,0:0|0:0|0:0,0:0:0:0:
184,170,2343,2,0,L|176:219,2,50,0|0|2,0:0|0:0|0:0,0:0:0:0:
261,113,2835,2,0,L|268:63,2,50,0|0|2,0:0|0:0|0:0,0:0:0:0:
311,194,3327,2,0,L|294:292,1,100,2|0,0:0|0:0,0:0:0:0:
114,354,3982,6,0,P|91:352|62:336,2,50,0|0|2,0:0|0:0|0:0,0:0:0:0:
183,288,4474,2,0,P|206:284|234:266,2,50,0|0|2,0:0|0:0|0:0,0:0:0:0:
109,226,4966,2,0,P|85:219|65:204,2,50,0|0|2,0:0|0:0|0:0,0:0:0:0:
190,175,5458,2,0,P|213:166|231:149,2,50,0|0|2,0:0|0:0|0:0,0:0:0:0:
109,123,5950,2,0,P|85:97|77:29,1,100,2|0,0:0|0:0,0:0:0:0:
283,139,6605,6,0,L|287:198,2,50,0|0|2,0:0|0:0|0:0,0:0:0:0:
347,67,7097,2,0,L|343:8,2,50,0|0|2,0:0|0:0|0:0,0:0:0:0:
395,149,7589,2,0,L|399:208,2,50,0|0|2,0:0|0:0|0:0,0:0:0:0:
449,70,8081,2,0,L|445:11,2,50,0|0|2,0:0|0:0|0:0,0:0:0:0:
505,147,8573,2,0,L|512:253,1,100,2|0,0:0|0:0,0:0:0:0:
376,319,9228,6,0,P|384:345|381:383,2,50,0|0|2,0:0|0:0|0:0,0:0:0:0:
295,267,9720,2,0,P|312:248|333:235,2,50,0|0|2,0:0|0:0|0:0,0:0:0:0:
234,341,10212,2,0,P|256:353|281:359,2,50,0|0|2,0:0|0:0|0:0,0:0:0:0:
203,250,10704,1,0,0:0:0:0:
141,322,10868,5,0,0:0:0:0:
141,322,10950,1,0,0:0:0:0:
141,322,11032,2,0,B|52:271|61:350|-25:284|-25:284|28:254|15:184,1,269.999991760254,2|2,0:0|0:0,0:0:0:0:
21,211,11851,6,0,P|64:188|126:189,1,100,4|8,0:2|0:0,0:0:0:0:
183,227,12343,2,0,P|232:225|276:202,1,100,0|4,2:2|2:2,0:0:0:0:
338,151,12835,1,8,0:0:0:0:
398,203,12999,1,0,0:0:0:0:
462,155,13163,6,0,B|477:190|477:190|471:271,1,100,4|8,0:2|0:0,0:0:0:0:
415,309,13655,2,0,L|428:373,2,50,2|2|6,2:2|2:2|2:2,0:0:0:0:
357,254,14146,1,8,0:0:0:0:
310,318,14310,1,0,0:0:0:0:
246,268,14474,6,0,L|192:260,1,50,6|2,0:0|0:0,0:0:0:0:
123,294,14802,2,0,P|167:245|150:172,1,125,10|0,0:0|2:2,0:0:0:0:
161,189,15294,1,6,2:1:0:0:
109,128,15458,2,0,P|136:113|172:112,1,50,10|2,0:1|0:1,0:0:0:0:
229,145,15786,6,0,L|341:129,1,100,4|8,0:0|0:0,0:0:0:0:
393,179,16278,2,0,B|387:219|387:219|394:241|394:241|384:296,1,100,0|4,2:2|2:2,0:0:0:0:
369,354,16769,1,8,0:0:0:0:
290,338,16933,1,0,0:0:0:0:
215,366,17097,6,0,L|102:342,1,100,4|8,0:0|0:0,0:0:0:0:
45,381,17589,2,0,B|36:344|36:344|53:264,1,100,0|4,2:0|2:0,0:0:0:0:
100,221,18081,2,0,L|158:229,1,50,8|0,0:0|0:0,0:0:0:0:
219,188,18409,6,0,P|247:146|236:83,1,100,4|8,0:0|0:0,0:0:0:0:
188,40,18900,2,0,L|121:29,2,50,2|2|6,2:2|2:2|2:2,0:0:0:0:
266,22,19392,1,8,0:0:0:0:
398,111,19720,6,0,L|392:180,1,50,6|2,0:0|0:0,0:0:0:0:
335,215,20048,2,0,P|389:242|447:220,1,125,10|0,0:0|2:2,0:0:0:0:
447,220,20540,1,6,2:1:0:0:
402,316,20704,2,0,P|370:316|342:302,1,50,10|2,0:0|0:0,0:0:0:0:
279,277,21032,5,4,0:0:0:0:
204,307,21196,2,0,B|155:293|155:293|111:318|111:318|67:245|125:174,1,250,6|8,2:0|0:0,0:0:0:0:
299,75,22343,6,0,L|312:167,1,80,10|10,0:0|0:0,0:0:0:0:
386,165,22835,2,0,L|372:72,1,80,10|10,0:0|0:0,0:0:0:0:
435,40,23327,1,10,0:0:0:0:
435,40,24146,6,0,L|426:10,2,20,2|0|10,0:0|0:0|0:0,0:0:0:0:
481,101,24474,1,2,0:0:0:0:
425,152,24638,1,10,0:0:0:0:
459,219,24802,2,0,B|465:246|465:246|451:313,1,80,2|2,0:0|0:0,0:0:0:0:
401,352,25294,5,10,0:0:0:0:
334,315,25458,2,0,P|300:301|255:308,1,80,2|2,0:0|0:0,0:0:0:0:
191,344,25950,1,10,0:0:0:0:
129,299,26114,2,0,P|115:265|145:176,1,120,2|10,0:0|0:0,0:0:0:0:
200,149,26769,6,0,L|225:144,2,20,2|0|10,0:0|0:0|0:0,0:0:0:0:
141,99,27097,1,2,0:0:0:0:
76,138,27261,2,0,P|58:161|51:179,1,40,10|2,0:0|0:0,0:0:0:0:
47,247,27589,2,0,B|74:260|74:260|139:252,1,80,10|10,0:0|0:0,0:0:0:0:
199,246,28081,5,10,0:0:0:0:
329,323,28409,2,0,L|333:282,1,40,2|10,0:0|0:0,0:0:0:0:
340,207,28737,1,2,0:0:0:0:
340,207,29392,5,2,0:0:0:0:
286,152,29556,2,0,L|231:149,1,40,10|2,0:0|0:0,0:0:0:0:
181,108,29884,2,0,L|141:105,1,40,10|2,0:0|0:0,0:0:0:0:
83,55,30212,2,0,B|32:127|127:217|60:298,1,240,2|10,0:0|0:0,0:0:0:0:
18,344,31359,2,0,B|50:370|99:365|99:365|153:320|179:263|150:142,1,320,2|2,0:0|0:0,0:0:0:0:
198,88,32835,6,0,P|239:74|284:87,1,80,10|8,0:0|0:0,0:0:0:0:
318,143,33327,2,0,P|280:156|242:149,1,80,10|10,0:0|0:0,0:0:0:0:
158,22,33982,1,10,0:0:0:0:
350,70,34310,5,10,0:0:0:0:
350,70,34474,2,0,P|398:84|474:58,1,120,10|2,0:0|0:0,0:0:0:0:
495,135,35130,1,10,0:0:0:0:
428,172,35294,1,2,0:0:0:0:
459,241,35458,6,0,L|451:295,1,40,10|10,0:0|0:0,0:0:0:0:
400,335,35786,1,10,0:0:0:0:
329,308,35950,2,0,P|294:296|244:319,1,80,10|2,0:0|0:0,0:0:0:0:
196,358,36441,1,10,0:0:0:0:
161,290,36605,1,2,0:0:0:0:
161,290,37261,6,0,L|134:314,2,20,2|0|10,0:0|0:0|0:0,0:0:0:0:
214,235,37589,1,2,0:0:0:0:
176,168,37753,2,0,P|156:162|137:159,1,40,10|2,0:0|0:0,0:0:0:0:
97,224,38081,2,0,P|52:220|6:200,1,80,2|10,0:0|0:0,0:0:0:0:
6,132,38573,1,10,0:0:0:0:
141,63,38900,6,0,B|196:70,1,40,2|10,0:0|0:0,0:0:0:0:
250,36,39228,2,0,P|256:68|236:123,1,80,2|2,0:0|0:0,0:0:0:0:
173,146,39720,2,0,P|166:169|169:195,1,40,10|2,0:0|0:0,0:0:0:0:
237,213,40048,2,0,P|244:236|241:262,1,40,10|2,0:0|0:0,0:0:0:0:
175,286,40376,2,0,P|168:309|171:335,1,40,10|2,0:0|0:0,0:0:0:0:
231,367,40704,6,0,B|260:376|260:376|325:364,1,80,10|2,0:0|0:0,0:0:0:0:
376,294,41196,2,0,B|347:303|347:303|282:291,1,80,10|2,0:0|0:0,0:0:0:0:
221,233,41687,2,0,L|193:241,2,20,2|2|2,0:0|0:0|0:0,0:0:0:0:
355,174,42179,6,0,B|361:154|383:144|383:144|369:181|393:219|393:219|365:260|378:306,1,200,2|2,0:0|0:0,0:0:0:0:
272,381,43327,5,4,0:0:0:0:
193,348,43491,2,0,L|164:377,2,25,2|0|14,0:0|0:0|0:0,0:0:0:0:
194,262,43819,1,2,0:0:0:0:
123,215,43982,2,0,P|117:191|130:146,1,50,14|0,0:0|0:0,0:0:0:0:
180,105,44310,2,0,P|204:111|249:98,1,50,14|2,0:0|0:0,0:0:0:0:
243,104,44556,6,0,B|279:92|279:92|331:104,1,75,14|2,0:0|0:0,0:0:0:0:
315,100,44884,1,0,0:0:0:0:
315,100,44966,1,14,0:0:0:0:
389,169,45130,2,0,L|418:153,2,25,10|2|14,0:0|0:0|0:0,0:0:0:0:
328,229,45458,1,10,0:0:0:0:
249,196,45622,2,0,P|216:188|182:195,1,50,14|10,0:0|0:0,0:0:0:0:
126,232,45950,6,0,B|110:196|110:196|128:122,2,100,10|14|10,0:0|0:0|0:0,0:0:0:0:
161,309,46769,1,10,0:0:0:0:
245,297,46933,2,0,P|280:297|311:311,1,50,14|2,0:0|0:0,0:0:0:0:
306,309,47179,6,0,B|340:322|340:322|395:298,1,75,14|2,0:0|0:0,0:0:0:0:
457,282,47589,2,0,L|481:308,2,25,14|0|2,0:0|0:0|0:0,0:0:0:0:
455,196,47917,1,0,0:0:0:0:
374,168,48081,1,0,0:0:0:0:
374,168,48163,1,0,0:0:0:0:
374,168,48245,2,0,P|335:182|290:173,1,75,14|0,0:0|0:0,0:0:0:0:
295,185,48573,6,0,L|223:180,1,50,14|2,0:0|0:0,0:0:0:0:
179,235,48900,2,0,L|129:231,1,50,10|2,0:0|0:0,0:0:0:0:
98,151,49228,2,0,L|49:147,1,50,12|0,0:0|0:0,0:0:0:0:
8,222,49556,6,0,L|82:227,1,75,14|10,0:0|0:0,0:0:0:0:
102,230,49884,6,0,L|98:279,1,50,14|2,0:0|0:0,0:0:0:0:
177,313,50212,2,0,L|182:241,1,50,10|2,0:0|0:0,0:0:0:0:
266,263,50540,2,0,L|269:312,1,50,14|10,0:0|0:0,0:0:0:0:
348,280,50868,2,0,L|344:230,1,50,10|10,0:0|0:0,0:0:0:0:
277,177,51196,6,0,B|227:191|234:158|178:171,1,100,14|14,0:0|0:0,0:0:0:0:
129,240,51687,2,0,P|95:175|124:108,1,150,10|14,0:0|0:0,0:0:0:0:
239,233,52507,6,0,B|298:275|341:202|430:238|430:238|398:234|363:244|342:284,1,300,10|0,0:0|0:0,0:0:0:0:
200,345,53819,5,4,0:3:0:0:
277,366,53982,2,0,L|285:402,2,22.4999993133545,2|0|10,0:0|0:0|0:0,0:0:0:0:
313,293,54310,1,2,0:0:0:0:
262,229,54474,2,0,P|255:204|263:174,1,44.999998626709,10|2,0:0|0:0,0:0:0:0:
321,134,54802,2,0,P|328:109|323:85,1,44.999998626709,10|2,0:0|0:0,0:0:0:0:
321,82,55048,6,0,P|295:88|241:80,1,67.4999979400635,10|2,0:0|0:0,0:0:0:0:
254,84,55376,1,0,0:0:0:0:
254,84,55458,1,10,0:0:0:0:
194,138,55622,1,10,0:0:0:0:
115,116,55786,2,0,L|104:80,2,22.4999993133545,10|2|10,0:0|0:0|0:0,0:0:0:0:
98,195,56114,2,0,P|91:217|96:254,1,44.999998626709,10|10,0:0|0:0,0:0:0:0:
142,302,56441,5,2,0:0:0:0:
274,325,56769,1,10,0:0:0:0:
368,228,57097,1,10,0:0:0:0:
349,93,57425,1,4,0:0:0:0:
106,104,57917,6,0,L|101:133,2,22.4999993133545,2|0|10,0:0|0:0|0:0,0:0:0:0:
171,54,58245,2,0,L|178:20,2,22.4999993133545,2|2|10,0:0|0:0|0:0,0:0:0:0:
200,129,58573,1,2,0:0:0:0:
273,163,58737,2,0,P|279:185|278:209,1,44.999998626709,2|2,0:0|0:0,0:0:0:0:
213,255,59064,6,0,P|248:281|299:282,1,89.9999972534181,10|0,0:0|0:0,0:0:0:0:
382,293,59556,1,2,0:0:0:0:
382,293,59638,1,0,0:0:0:0:
382,293,59720,1,2,0:0:0:0:
392,206,59884,1,6,0:0:0:0:
472,211,60048,1,6,0:0:0:0:
496,133,60212,6,0,B|503:73|503:73|489:48,1,89.9999972534181,10|2,0:0|0:0,0:0:0:0:
413,15,60704,1,2,0:0:0:0:
344,58,60868,1,2,0:0:0:0:
268,29,61032,2,0,P|231:25|212:29,1,44.999998626709,2|2,0:0|0:0,0:0:0:0:
160,77,61359,2,0,P|137:78|115:74,1,44.999998626709,2|2,0:0|0:0,0:0:0:0:
50,31,61687,5,6,0:0:0:0:
256,192,61769,12,4,62999,0:3:0:0:
248,258,64310,6,0,L|265:130,1,119.999996337891,6|8,0:0|0:0,0:0:0:0:
216,68,64802,2,0,B|172:71|172:71|141:56|141:56|92:59,1,119.999996337891,0|6,0:0|0:0,0:0:0:0:
33,111,65294,1,10,0:0:0:0:
85,176,65458,2,0,L|80:249,1,59.9999981689454,14|4,0:2|0:1,0:0:0:0:
153,308,65786,2,0,L|158:235,1,59.9999981689454,14|8,0:2|0:0,0:0:0:0:
240,188,66114,2,0,L|235:261,1,59.9999981689454,14|0,0:2|0:0,0:0:0:0:
310,317,66441,2,0,L|315:244,1,59.9999981689454,14|8,0:2|0:0,0:0:0:0:
363,193,66769,1,14,0:2:0:0:
457,197,66933,6,0,P|491:172|503:134,1,59.9999981689454,6|2,0:1|0:2,0:0:0:0:
420,124,67261,2,0,P|436:85|428:46,1,59.9999981689454,10|2,0:0|0:2,0:0:0:0:
351,75,67589,1,2,0:1:0:0:
280,120,67753,2,0,L|287:167,2,29.9999990844727,2|0|8,0:0|0:0|0:0,0:0:0:0:
205,79,68081,1,2,0:1:0:0:
129,115,68245,2,0,P|113:145|148:245,1,119.999996337891,4|8,0:0|0:0,0:0:0:0:
200,270,68737,1,2,0:2:0:0:
238,195,68900,2,0,P|201:173|171:171,1,59.9999981689454,2|4,0:1|0:2,0:0:0:0:
100,170,69228,2,0,P|71:162|46:145,1,59.9999981689454,10|2,0:0|0:2,0:0:0:0:
52,61,69556,6,0,B|76:38|76:38|167:34,1,119.999996337891,6|8,0:0|0:0,0:0:0:0:
233,80,70048,2,0,L|341:72,1,89.9999972534181,2|0,0:0|0:0,0:0:0:0:
334,70,70376,2,0,P|362:78|398:67,1,59.9999981689454,6|8,0:0|0:0,0:0:0:0:
466,32,70704,1,2,0:0:0:0:
461,115,70868,2,0,B|447:163|459:176|474:190|452:243,1,119.999996337891,4|10,0:0|0:0,0:0:0:0:
405,300,71359,2,0,P|360:302|313:262,1,89.9999972534181,2|0,0:0|0:0,0:0:0:0:
313,271,71687,2,0,P|280:264|245:269,1,59.9999981689454,4|10,0:0|0:1,0:0:0:0:
175,296,72015,1,2,0:0:0:0:
189,213,72179,6,0,B|195:170|195:170|182:137|182:137|190:81,1,119.999996337891,6|10,0:0|0:0,0:0:0:0:
245,34,72671,2,0,P|269:28|321:41,1,59.9999981689454,2|0,0:0|0:0,0:0:0:0:
332,140,72999,2,0,P|309:122|281:113,1,59.9999981689454,6|8,0:0|0:0,0:0:0:0:
275,202,73327,1,2,0:0:0:0:
324,270,73491,2,0,L|411:263,2,59.9999981689454,4|4|8,0:0|0:0|0:0,0:0:0:0:
274,337,73982,1,4,0:0:0:0:
203,291,74146,2,0,P|164:278|133:290,1,59.9999981689454,0|2,0:0|0:0,0:0:0:0:
83,339,74474,2,0,P|54:330|35:307,1,59.9999981689454,10|0,0:0|0:0,0:0:0:0:
69,230,74802,6,0,B|96:197|96:197|83:103,1,119.999996337891,6|8,0:0|0:0,0:0:0:0:
132,50,75294,2,0,P|182:68|250:41,1,119.999996337891,0|4,0:0|0:0,0:0:0:0:
315,3,75786,1,10,0:0:0:0:
316,87,75950,2,0,P|308:115|323:160,1,59.9999981689454,14|4,0:2|0:0,0:0:0:0:
437,121,76278,2,0,P|409:113|364:128,1,59.9999981689454,14|8,0:2|0:0,0:0:0:0:
404,242,76605,2,0,P|412:214|397:169,1,59.9999981689454,14|0,0:2|0:0,0:0:0:0:
283,208,76933,2,0,P|311:216|356:201,1,59.9999981689454,14|8,0:2|0:0,0:0:0:0:
379,118,77261,1,14,0:2:0:0:
232,98,77425,6,0,P|199:92|163:64,1,59.9999981689454,6|0,0:0|0:0,0:0:0:0:
94,97,77753,2,0,P|109:122|132:141,1,59.9999981689454,10|0,0:0|0:0,0:0:0:0:
205,183,78081,1,2,0:0:0:0:
155,250,78245,1,2,0:0:0:0:
214,309,78409,2,0,L|206:346,2,29.9999990844727,8|0|2,0:0|0:0|0:0,0:0:0:0:
286,266,78737,2,0,P|336:249|424:276,1,119.999996337891,4|8,0:0|0:0,0:0:0:0:
466,313,79228,2,0,L|468:354,2,29.9999990844727,2|2|2,0:0|0:0|0:0,0:0:0:0:
503,237,79556,1,4,0:0:0:0:
461,164,79720,2,0,P|428:150|383:146,1,59.9999981689454,10|0,0:0|0:0,0:0:0:0:
323,170,80048,6,0,B|311:124|324:108|341:91|322:33,1,119.999996337891,6|8,0:0|0:0,0:0:0:0:
248,20,80540,2,0,P|209:43|131:38,1,119.999996337891,0|2,0:0|0:0,0:0:0:0:
56,13,81032,1,8,0:0:0:0:
24,90,81196,2,0,P|16:117|26:166,1,59.9999981689454,14|4,0:2|0:0,0:0:0:0:
115,180,81523,2,0,P|108:149|90:126,1,59.9999981689454,14|8,0:2|0:0,0:0:0:0:
49,220,81851,2,0,P|69:241|96:253,1,59.9999981689454,14|0,0:2|0:0,0:0:0:0:
184,261,82179,1,14,0:2:0:0:
232,183,82343,2,0,L|222:106,1,59.9999981689454,10|2,0:1|0:0,0:0:0:0:
280,60,82671,6,0,B|317:57|317:57|355:75|355:75|411:70,1,119.999996337891,6|8,0:0|0:0,0:0:0:0:
477,48,83163,2,0,B|480:85|480:85|462:123|462:123|467:179,1,119.999996337891,2|6,0:0|0:0,0:0:0:0:
482,246,83655,1,8,0:0:0:0:
399,229,83819,1,2,0:0:0:0:
399,229,83900,1,0,0:0:0:0:
399,229,83982,6,0,B|342:251|308:212|308:212|270:234|236:210|236:210|205:263|261:280|216:341,1,300,4|2,0:0|0:0,0:0:0:0:
88,352,85294,6,0,B|50:309|50:251|87:226|122:204|122:144|87:103,1,269.999991760254,4|0,1:2|0:0,0:0:0:0:
19,148,86441,2,0,P|48:174|166:85,1,224.999993133545,4|0,1:2|0:0,0:0:0:0:
165,84,87917,6,0,B|256:79|256:79|323:136|323:136|423:123,1,269.999991760254,4|0,1:2|0:0,0:0:0:0:
437,201,89064,2,0,B|303:218|303:218|223:156,1,224.999993133545,4|0,1:2|0:0,0:0:0:0:
231,162,90539,6,0,B|160:123|155:167|129:212|27:184|13:119|23:73,1,269.999991760254,4|0,1:2|0:0,0:0:0:0:
105,92,91687,2,0,B|125:180|125:180|107:223|107:223|130:316,1,224.999993133545,4|0,1:2|0:0,0:0:0:0:
128,308,93162,6,0,B|171:291|238:320|238:320|273:293|273:293|326:337|396:298,1,269.999991760254,4|0,1:2|0:0,0:0:0:0:
334,229,94310,2,0,B|307:180|342:122|342:122|414:140|428:196,1,224.999993133545,4|2,1:2|1:3,0:0:0:0:
426,189,95786,6,0,L|487:200,2,50,4|0|2,0:2|0:0|0:0,0:0:0:0:
353,150,96278,2,0,L|292:139,2,50,0|0|2,0:0|0:0|0:0,0:0:0:0:
420,107,96769,1,0,0:0:0:0:
357,57,96933,1,4,0:0:0:0:
277,67,97097,6,0,P|247:75|212:73,1,50,2|0,0:0|0:0,0:0:0:0:
150,54,97425,2,0,P|125:55|101:62,1,50,2|0,0:0|0:0,0:0:0:0:
53,127,97753,2,0,B|37:167|37:167|55:308,1,175,0|0,0:0|0:0,0:0:0:0:
55,307,98409,6,0,P|32:318|-5:315,2,50,4|0|2,0:0|0:0|0:0,0:0:0:0:
122,263,98900,2,0,P|145:274|182:271,2,50,0|0|2,0:0|0:0|0:0,0:0:0:0:
54,218,99392,1,0,0:0:0:0:
101,153,99556,1,6,0:0:0:0:
166,198,99720,6,0,P|199:196|223:180,1,50,2|0,0:0|0:0,0:0:0:0:
223,108,100048,2,0,P|198:107|175:117,1,50,2|0,0:0|0:0,0:0:0:0:
176,117,101032,5,0,0:0:0:0:
220,31,101196,1,0,0:0:0:0:
302,78,101359,2,0,P|333:84|374:76,1,59.9999981689454,0|0,0:0|0:0,0:0:0:0:
498,118,101687,2,0,P|467:112|426:120,1,59.9999981689454,0|0,0:0|0:0,0:0:0:0:
363,175,102015,1,0,0:0:0:0:
442,228,102179,1,4,0:2:0:0:
353,265,102343,6,0,P|317:271|277:263,1,59.9999981689454,0|0,0:0|0:0,0:0:0:0:
170,330,102671,2,0,P|206:324|246:332,1,59.9999981689454,0|0,0:0|0:0,0:0:0:0:
320,358,102999,1,0,0:0:0:0:
415,344,103163,1,0,0:0:0:0:
353,265,103327,2,0,P|347:229|355:189,1,59.9999981689454,0|0,0:0|0:0,0:0:0:0:
397,122,103655,5,4,0:2:0:0:
256,192,103819,12,4,106278,0:2:0:0:
