osu file format v14

[General]
AudioFilename: Jun Kuroda & - Cygnus[FREE DL].mp3
AudioLeadIn: 0
PreviewTime: 62999
Countdown: 0
SampleSet: Soft
StackLeniency: 0.4
Mode: 0
LetterboxInBreaks: 1
WidescreenStoryboard: 1

[Editor]
Bookmarks: 11851,22343,42015,53819,62999,64310,85294,106278,127261
DistanceSpacing: 1.3
BeatDivisor: 4
GridSize: 4
TimelineZoom: 2.1

[Metadata]
Title:Cygnus
TitleUnicode:Cygnus
Artist:Jun Kuroda & AAAA
ArtistUnicode:Jun Kuroda & ああああ
Creator:Rohit6
Version:BLACK ANOTHER
Source:
Tags:Drum&Bass dnb 夏 エモ 宮田守 Miyata Mamoru emo natsu Nerova Riuz GX ProfessionalBox Rizen
BeatmapID:888465
BeatmapSetID:358056

[Difficulty]
HPDrainRate:5.5
CircleSize:5
OverallDifficulty:8.5
ApproachRate:9.2
SliderMultiplier:1.4
SliderTickRate:1

[Events]
//Background and Video events
0,0,"7heaven_landscape_wallpaper_by_ivany86-d6t8496.jpg",0,0
//Break Periods
//Storyboard Layer 0 (Background)
//Storyboard Layer 1 (Fail)
//Storyboard Layer 2 (Pass)
//Storyboard Layer 3 (Foreground)
//Storyboard Sound Samples

[TimingPoints]
1360,327.868852459016,4,2,0,60,1,0
10950,-100,4,2,0,40,0,0
11032,-100,4,2,0,70,0,0
11114,-100,4,2,0,68,0,0
11196,-100,4,2,0,65,0,0
11278,-100,4,2,0,62,0,0
11359,-100,4,2,0,60,0,0
11441,-100,4,2,0,58,0,0
11523,-100,4,2,0,55,0,0
11605,-100,4,2,0,52,0,0
11687,-100,4,2,0,50,0,0
11769,-100,4,2,0,48,0,0
11851,-100,4,1,0,80,0,0
11933,-100,4,1,1,80,0,0
12097,-100,4,1,1,20,0,0
12179,-100,4,1,1,80,0,0
13081,-100,4,1,1,20,0,0
13163,-100,4,1,1,80,0,0
13327,-100,4,1,1,40,0,0
13491,-100,4,1,1,80,0,0
14310,-100,4,1,1,40,0,0
14474,-100,4,1,1,60,0,0
14638,-100,4,1,1,65,0,0
14802,-100,4,1,1,70,0,0
15294,-100,4,1,1,75,0,0
15458,-100,4,1,1,80,0,0
15622,-100,4,1,1,85,0,0
15786,-100,4,1,1,80,0,0
15950,-100,4,1,1,40,0,0
16114,-100,4,1,1,80,0,0
18245,-100,4,1,1,40,0,0
18409,-100,4,1,1,80,0,0
18573,-100,4,1,1,40,0,0
18737,-100,4,1,1,80,0,0
19638,-100,4,1,1,20,0,0
19720,-100,4,1,1,60,0,0
19884,-100,4,1,1,65,0,0
20048,-100,4,1,1,70,0,0
20540,-100,4,1,1,75,0,0
20704,-100,4,1,1,80,0,0
20868,-100,4,1,1,85,0,0
21032,-100,4,1,1,80,0,0
22261,-100,4,1,1,20,0,0
22343,-142.857142857143,4,2,10,70,0,0
22671,-142.857142857143,4,2,10,40,0,0
22835,-142.857142857143,4,2,10,70,0,0
23163,-142.857142857143,4,2,10,40,0,0
23327,-142.857142857143,4,2,10,70,0,0
24638,-142.857142857143,4,2,10,40,0,0
24802,-200,4,2,10,70,0,0
25048,-200,4,2,10,20,0,0
25130,-200,4,2,10,80,0,0
25294,-200,4,2,10,85,0,0
25458,-200,4,2,10,90,0,0
25704,-200,4,2,10,20,0,0
25786,-200,4,2,10,90,0,0
25950,-200,4,2,10,95,0,0
26114,-200,4,2,10,100,0,0
26605,-200,4,2,10,20,0,0
26769,-200,4,2,10,70,0,0
26933,-200,4,2,10,60,0,0
27097,-200,4,2,10,70,0,0
27261,-200,4,2,10,80,0,0
27425,-200,4,2,10,90,0,0
27589,-200,4,2,10,100,0,0
27835,-200,4,2,10,20,0,0
27917,-200,4,2,10,80,0,0
29310,-200,4,2,10,20,0,0
29392,-200,4,2,10,80,0,0
31114,-200,4,2,10,20,0,0
31196,-200,4,2,10,80,0,0
31605,-200,4,2,10,20,0,0
31687,-133.333333333333,4,2,10,50,0,0
32671,-133.333333333333,4,2,10,80,0,0
32835,-200,4,2,10,70,0,0
33163,-200,4,2,10,40,0,0
33327,-200,4,2,10,70,0,0
34228,-200,4,2,10,20,0,0
34310,-200,4,2,10,70,0,0
35458,-200,4,2,10,80,0,0
36196,-200,4,2,10,20,0,0
36278,-200,4,2,10,80,0,0
37097,-200,4,2,10,20,0,0
37261,-200,4,2,10,70,0,0
37425,-200,4,2,10,60,0,0
37589,-200,4,2,10,70,0,0
37753,-200,4,2,10,80,0,0
37917,-200,4,2,10,90,0,0
38081,-200,4,2,10,100,0,0
38327,-200,4,2,10,20,0,0
38409,-200,4,2,10,80,0,0
39474,-200,4,1,10,20,0,0
39556,-200,4,2,10,80,0,0
40704,-200,4,2,10,90,0,0
40950,-200,4,2,10,20,0,0
41032,-200,4,2,10,80,0,0
41441,-200,4,2,10,20,0,0
41523,-200,4,2,10,80,0,0
42015,-100,4,2,0,80,0,0
42671,-100,4,2,1,70,0,0
42999,-100,4,2,1,60,0,0
43327,-100,4,2,0,80,0,0
43491,-100,4,2,10,80,0,0
44720,-100,4,2,10,20,0,0
44802,-100,4,2,10,80,0,0
45950,-100,4,2,10,80,0,0
46196,-100,4,2,10,20,0,0
46278,-100,4,2,10,80,0,0
46523,-100,4,2,10,20,0,0
46605,-100,4,2,10,80,0,0
47343,-100,4,2,10,20,0,0
47425,-100,4,2,10,80,0,0
47999,-100,4,2,10,20,0,0
48081,-100,4,2,10,80,0,0
48737,-100,4,2,10,80,0,0
48900,-100,4,2,10,20,0,0
48982,-100,4,2,10,80,0,0
49146,-100,4,2,10,20,0,0
49228,-100,4,2,10,80,0,0
49392,-100,4,2,10,20,0,0
49474,-100,4,2,10,80,0,0
49966,-100,4,2,10,20,0,0
50048,-100,4,2,10,80,0,0
50212,-100,4,2,10,20,0,0
50294,-100,4,2,10,80,0,0
53163,-100,4,2,10,80,0,0
53245,-100,4,2,10,83,0,0
53327,-100,4,2,10,85,0,0
53409,-100,4,2,10,88,0,0
53491,-100,4,2,10,90,0,0
53573,-100,4,2,10,93,0,0
53655,-100,4,2,10,95,0,0
53737,-100,4,2,10,98,0,0
53819,-100,4,2,10,100,0,0
53982,-100,4,2,10,80,0,0
55212,-100,4,2,10,20,0,0
55294,-100,4,2,10,80,0,0
56687,-100,4,2,10,20,0,0
56769,-90.9090909090909,4,2,10,85,0,0
57015,-90.9090909090909,4,2,10,20,0,0
57097,-83.3333333333333,4,2,10,90,0,0
57343,-83.3333333333333,4,2,10,20,0,0
57425,-166.666666666667,4,2,0,80,0,0
57835,-166.666666666667,4,2,10,20,0,0
57917,-100,4,2,10,80,0,0
59064,-133.333333333333,4,2,10,80,0,0
59474,-133.333333333333,4,2,10,20,0,0
59556,-100,4,2,10,80,0,0
59884,-100,4,2,10,100,0,0
60458,-100,4,2,10,20,0,0
60540,-100,4,2,10,80,0,0
61032,-100,4,2,10,80,0,0
61196,-100,4,2,10,85,0,0
61359,-100,4,2,10,90,0,0
61523,-100,4,2,10,95,0,0
61687,-166.666666666667,4,2,0,80,0,0
62097,-166.666666666667,4,1,10,10,0,0
62179,-100,4,2,10,80,0,0
62343,-100,4,2,10,60,0,0
62671,-100,4,2,10,80,0,0
62999,-83.3333333333333,4,1,10,90,0,0
63982,-71.4285714285714,4,1,15,90,0,0
64228,-71.4285714285714,4,2,15,90,0,0
64310,-83.3333333333333,4,1,1,100,0,1
64474,-83.3333333333333,4,1,1,50,0,1
64638,-83.3333333333333,4,1,1,90,0,1
65458,-83.3333333333333,4,1,10,100,0,1
65622,-83.3333333333333,4,1,1,100,0,1
65786,-83.3333333333333,4,1,10,100,0,1
65950,-83.3333333333333,4,1,1,100,0,1
66114,-83.3333333333333,4,1,10,100,0,1
66278,-83.3333333333333,4,1,1,100,0,1
66441,-83.3333333333333,4,1,10,100,0,1
66605,-83.3333333333333,4,1,1,100,0,1
66769,-83.3333333333333,4,1,10,100,0,1
66933,-83.3333333333333,4,1,1,90,0,1
67261,-83.3333333333333,4,1,1,100,0,1
68245,-83.3333333333333,4,1,1,90,0,1
68737,-83.3333333333333,4,1,1,100,0,1
69802,-83.3333333333333,4,1,1,10,0,1
69884,-83.3333333333333,4,1,1,100,0,1
70294,-83.3333333333333,4,1,1,50,0,1
70376,-83.3333333333333,4,1,1,100,0,1
71605,-83.3333333333333,4,1,1,50,0,1
71687,-83.3333333333333,4,1,1,90,0,1
71851,-83.3333333333333,4,1,1,95,0,1
72015,-83.3333333333333,4,1,10,100,0,1
72179,-83.3333333333333,4,1,1,100,0,1
72425,-83.3333333333333,4,1,1,20,0,1
72507,-83.3333333333333,4,1,1,100,0,1
72917,-83.3333333333333,4,1,1,50,0,1
72999,-83.3333333333333,4,1,1,100,0,1
73327,-83.3333333333333,4,1,1,100,0,1
75950,-83.3333333333333,4,1,10,100,0,1
76114,-83.3333333333333,4,1,1,100,0,1
76278,-83.3333333333333,4,1,10,100,0,1
76442,-83.3333333333333,4,1,1,100,0,1
76605,-83.3333333333333,4,1,10,100,0,1
76769,-83.3333333333333,4,1,1,100,0,1
76933,-83.3333333333333,4,1,10,100,0,1
77097,-83.3333333333333,4,1,1,100,0,1
77261,-83.3333333333333,4,1,10,100,0,1
77425,-83.3333333333333,4,1,1,80,0,1
77753,-83.3333333333333,4,1,1,90,0,1
78081,-83.3333333333333,4,1,1,100,0,1
80048,-83.3333333333333,4,1,1,100,0,1
81196,-83.3333333333333,4,1,10,100,0,1
81360,-83.3333333333333,4,1,1,100,0,1
81523,-83.3333333333333,4,1,10,100,0,1
81687,-83.3333333333333,4,1,1,100,0,1
81851,-83.3333333333333,4,1,10,100,0,1
82015,-83.3333333333333,4,1,1,100,0,1
82179,-83.3333333333333,4,1,10,90,0,1
82343,-83.3333333333333,4,1,1,90,0,1
82507,-83.3333333333333,4,1,10,95,0,1
82671,-83.3333333333333,4,1,1,100,0,1
82917,-83.3333333333333,4,1,1,50,0,1
82999,-83.3333333333333,4,1,1,100,0,1
83409,-83.3333333333333,4,1,1,50,0,1
83491,-83.3333333333333,4,1,1,100,0,1
85212,-83.3333333333333,4,1,1,20,0,1
85294,-166.666666666667,4,2,0,90,0,0
86278,-166.666666666667,4,1,1,20,0,0
86441,-166.666666666667,4,2,0,90,0,0
87179,-166.666666666667,4,1,1,20,0,0
87261,-90.909090909091,4,2,1,90,0,0
87917,-166.666666666667,4,2,0,90,0,0
88900,-166.666666666667,4,1,1,20,0,0
89064,-166.666666666667,4,2,0,90,0,0
89720,-166.666666666667,4,1,1,20,0,0
89884,-166.666666666667,4,1,1,40,0,0
90212,-100,4,1,1,60,0,0
90540,-166.666666666667,4,2,0,90,0,0
91523,-166.666666666667,4,1,1,20,0,0
91687,-166.666666666667,4,2,0,90,0,0
92507,-166.666666666667,4,1,1,20,0,0
92671,-83.3333333333333,4,2,0,90,0,0
93081,-83.3333333333333,4,1,1,20,0,0
93163,-166.666666666667,4,2,0,90,0,0
94146,-166.666666666667,4,1,1,20,0,0
94310,-166.666666666667,4,2,0,90,0,0
94966,-166.666666666667,4,1,1,20,0,0
95130,-83.3333333333333,4,1,1,90,0,0
95786,-100,4,2,0,80,0,0
97753,-100,4,2,1,100,0,0
98409,-100,4,2,0,80,0,0
100376,-100,4,2,0,40,0,0
100704,-83.3333333333333,4,2,1,60,0,0
101032,-100,4,1,2,80,0,0
106278,-100,4,1,0,80,0,0

[Colours]
Combo1 : 102,255,255
Combo2 : 255,255,121
Combo3 : 26,140,255
Combo4 : 128,255,0

[HitObjects]
105,221,1360,6,0,L|175:210,1,70,4|0,0:0|0:0,0:0:0:0:
214,153,1688,1,2,0:0:0:0:
48,179,1851,2,0,L|105:221,1,70
174,210,2179,1,2,0:0:0:0:
38,109,2343,2,0,L|48:180,1,70
105,221,2671,1,2,0:0:0:0:
79,52,2835,2,0,L|37:110,1,70
48,179,3163,1,2,0:0:0:0:
151,38,3327,5,2,0:0:0:0:
167,39,3381,1,2,0:0:0:0:
183,40,3436,1,2,0:0:0:0:
199,41,3491,2,0,L|283:23,1,70,2|0,0:0|0:0,0:0:0:0:
202,110,3819,1,0,0:0:0:0:
306,161,3982,5,0,0:0:0:0:
374,140,4146,1,0,0:0:0:0:
393,72,4310,1,2,0:0:0:0:
287,229,4474,1,0,0:0:0:0:
355,208,4638,1,0,0:0:0:0:
374,140,4802,1,2,0:0:0:0:
268,297,4966,1,0,0:0:0:0:
336,276,5130,1,0,0:0:0:0:
355,208,5294,1,2,0:0:0:0:
249,365,5458,1,0,0:0:0:0:
317,344,5622,1,0,0:0:0:0:
336,276,5786,1,2,0:0:0:0:
141,321,5950,5,2,0:0:0:0:
125,316,6004,1,2,0:0:0:0:
109,311,6059,1,2,0:0:0:0:
93,306,6114,2,0,L|21:316,1,70,2|0,0:0|0:0,0:0:0:0:
100,236,6441,1,0,0:0:0:0:
212,231,6606,6,0,L|209:323,1,70
141,321,6934,1,2,0:0:0:0:
279,209,7097,2,0,L|276:301,1,70
210,301,7425,1,2,0:0:0:0:
346,187,7589,2,0,L|343:279,1,70
277,279,7917,1,2,0:0:0:0:
413,165,8081,2,0,L|410:257,1,70
344,257,8409,1,2,0:0:0:0:
467,118,8574,5,2,0:0:0:0:
470,102,8627,1,2,0:0:0:0:
473,85,8682,1,2,0:0:0:0:
476,68,8737,2,0,L|461:-5,1,70,2|0,0:0|0:0,0:0:0:0:
400,65,9064,1,0,0:0:0:0:
324,162,9228,5,0,0:0:0:0:
388,137,9392,1,0,0:0:0:0:
335,92,9556,1,2,0:0:0:0:
212,209,9720,1,0,0:0:0:0:
279,219,9884,1,0,0:0:0:0:
256,153,10048,1,2,0:0:0:0:
89,190,10212,1,0,0:0:0:0:
142,232,10376,1,0,0:0:0:0:
155,163,10540,1,2,0:0:0:0:
94,51,10704,5,0,0:0:0:0:
58,115,10868,1,8,0:0:0:0:
58,115,10950,1,8,0:0:0:0:
58,115,11032,5,2,0:0:0:0:
96,145,11114,1,2,0:0:0:0:
143,155,11196,1,2,0:0:0:0:
189,139,11278,1,2,0:0:0:0:
221,103,11359,1,2,0:0:0:0:
268,91,11441,1,2,0:0:0:0:
312,110,11523,1,2,0:0:0:0:
332,150,11605,1,2,0:0:0:0:
315,188,11687,1,2,0:0:0:0:
281,207,11769,1,2,0:0:0:0:
246,199,11851,6,0,L|259:311,1,105,4|0,0:2|0:0,0:0:0:0:
265,348,12179,1,8,0:0:0:0:
371,378,12343,1,0,2:2:0:0:
394,371,12425,1,0,2:2:0:0:
418,365,12507,1,0,2:2:0:0:
442,360,12589,1,0,2:2:0:0:
466,355,12671,1,4,2:2:0:0:
511,200,12835,2,0,B|435:173|435:173|456:215,1,105,8|0,0:0|0:0,0:0:0:0:
460,218,13163,6,0,L|483:128,1,70,4|0,0:2|0:0,0:0:0:0:
373,37,13491,1,8,0:0:0:0:
332,136,13655,1,2,2:2:0:0:
298,145,13737,1,2,2:2:0:0:
277,116,13819,1,2,2:2:0:0:
298,89,13900,1,2,2:2:0:0:
330,100,13982,1,6,2:2:0:0:
246,218,14146,2,0,L|153:204,1,70,8|0,0:0|0:0,0:0:0:0:
74,78,14474,5,6,0:0:0:0:
189,2,14638,1,2,0:0:0:0:
298,89,14802,1,10,0:0:0:0:
246,218,14966,1,0,2:2:0:0:
232,199,15048,1,0,2:2:0:0:
218,180,15130,1,0,2:2:0:0:
204,161,15212,1,0,2:2:0:0:
190,142,15294,1,6,2:1:0:0:
210,279,15458,1,10,0:1:0:0:
230,88,15622,1,2,0:1:0:0:
354,169,15786,6,0,L|362:253,1,70,4|0,0:0|0:0,0:0:0:0:
288,372,16114,1,8,0:0:0:0:
213,298,16278,1,0,2:2:0:0:
188,297,16359,1,0,2:2:0:0:
165,305,16441,1,0,2:2:0:0:
145,318,16523,1,0,2:2:0:0:
130,338,16605,1,4,2:2:0:0:
290,303,16769,1,8,0:0:0:0:
225,234,16933,1,0,0:0:0:0:
67,271,17097,5,4,0:0:0:0:
165,305,17261,1,0,0:0:0:0:
169,147,17425,1,8,0:0:0:0:
95,206,17589,1,0,2:0:0:0:
118,214,17670,1,0,2:0:0:0:
141,222,17752,1,0,2:0:0:0:
164,230,17834,1,0,2:0:0:0:
187,238,17916,1,4,2:0:0:0:
226,93,18081,2,0,L|157:69,1,70,8|0,0:0|0:0,0:0:0:0:
11,234,18409,6,0,P|2:266|21:323,1,70,4|0,0:0|0:0,0:0:0:0:
147,384,18737,1,8,0:0:0:0:
180,248,18900,1,2,2:2:0:0:
212,234,18982,1,2,2:2:0:0:
233,261,19064,1,2,2:2:0:0:
217,291,19145,1,2,2:2:0:0:
182,283,19227,1,6,2:2:0:0:
220,132,19392,2,0,B|251:117|251:117|337:128,1,105,8|0,0:0|0:0,0:0:0:0:
348,133,19720,5,6,0:0:0:0:
427,247,19884,1,2,0:0:0:0:
329,347,20048,1,10,0:0:0:0:
204,290,20212,1,0,2:2:0:0:
223,276,20294,1,0,2:2:0:0:
242,262,20376,1,0,2:2:0:0:
261,248,20458,1,0,2:2:0:0:
280,234,20540,1,6,2:1:0:0:
223,359,20704,1,10,0:0:0:0:
274,165,20868,1,2,0:0:0:0:
329,347,21032,5,4,0:0:0:0:
208,220,21196,1,6,2:0:0:0:
190,170,21278,1,0,2:0:0:0:
209,121,21359,1,8,2:1:0:0:
252,90,21441,1,8,2:1:0:0:
304,94,21523,1,6,2:0:0:0:
342,130,21605,1,8,2:1:0:0:
356,180,21687,5,0,2:0:0:0:
390,150,21769,1,4,2:0:0:0:
435,149,21851,1,6,2:0:0:0:
471,175,21933,1,0,2:0:0:0:
487,220,22015,6,2,B|506:259|481:304|481:304|463:282,1,105,10|0,0:0|0:0,0:0:0:0:
408,245,22343,6,0,B|368:252|368:252|349:245|349:245|303:254,1,97.9999970092774,10|10,0:0|0:0,0:0:0:0:
401,318,22835,2,0,B|361:325|361:325|342:318|342:318|296:327,1,97.9999970092774,10|10,0:0|0:0,0:0:0:0:
380,178,23327,1,10,0:0:0:0:
380,178,24145,5,2,0:0:0:0:
346,173,24228,1,0,0:0:0:0:
312,168,24310,1,10,0:0:0:0:
229,215,24474,1,2,0:0:0:0:
169,130,24638,1,10,0:0:0:0:
96,230,24802,6,0,P|87:253|90:280,1,52.5,2|0,0:0|0:0,0:0:0:0:
110,341,25130,1,2,0:0:0:0:
155,264,25294,1,10,0:0:0:0:
60,172,25458,2,0,B|68:105,1,52.5,2|0,0:0|0:0,0:0:0:0:
75,54,25786,5,2,0:0:0:0:
169,130,25950,1,10,0:0:0:0:
274,40,26114,2,0,P|340:21|381:40,1,105,2|10,0:0|0:0,0:0:0:0:
511,99,26769,5,2,0:0:0:0:
506,56,26851,1,0,0:0:0:0:
501,13,26934,1,10,0:0:0:0:
408,92,27097,1,2,0:0:0:0:
274,40,27261,1,10,0:0:0:0:
209,178,27425,1,2,0:0:0:0:
146,30,27589,6,0,P|119:15|85:18,1,52.5,10|0,0:0|0:0,0:0:0:0:
64,18,27917,1,10,0:0:0:0:
64,18,28081,1,10,0:0:0:0:
64,345,28408,5,2,0:0:0:0:
105,255,28572,1,10,0:0:0:0:
184,317,28737,2,0,B|261:300|233:335|312:316,1,122.5,2|0,0:0|0:0,0:0:0:0:
360,282,29392,5,2,0:0:0:0:
415,191,29556,1,10,0:0:0:0:
340,211,29720,1,2,0:0:0:0:
434,262,29884,1,10,0:0:0:0:
357,134,30048,1,2,0:0:0:0:
418,342,30212,6,0,P|462:336|494:208,1,192.5,2|0,0:0|0:0,0:0:0:0:
454,164,31196,1,10,0:0:0:0:
309,183,31359,1,2,0:0:0:0:
309,183,31441,2,0,L|301:230,1,35,10|0,0:0|0:0,0:0:0:0:
295,285,31687,5,2,0:0:0:0:
293,271,31768,1,0,0:0:0:0:
290,259,31850,1,2,0:0:0:0:
285,247,31932,1,0,0:0:0:0:
278,236,32014,1,2,0:0:0:0:
269,226,32096,1,0,0:0:0:0:
259,218,32178,1,2,0:0:0:0:
248,211,32260,1,0,0:0:0:0:
235,206,32342,1,2,0:0:0:0:
223,203,32424,1,0,0:0:0:0:
210,202,32506,1,2,0:0:0:0:
196,204,32588,1,0,0:0:0:0:
184,207,32670,1,2,0:0:0:0:
208,104,32835,6,0,L|195:35,1,70,10|8,0:0|0:0,0:0:0:0:
141,138,33327,2,0,L|128:70,1,70,10|10,0:0|0:0,0:0:0:0:
210,287,33982,2,0,L|151:279,1,52.5,10|0,0:0|0:0,0:0:0:0:
120,276,34310,1,10,0:0:0:0:
120,276,34474,1,10,0:0:0:0:
73,87,34965,5,2,0:0:0:0:
139,145,35130,1,10,0:0:0:0:
157,60,35294,1,2,0:0:0:0:
59,174,35458,1,10,0:0:0:0:
126,230,35622,1,10,0:0:0:0:
207,197,35786,1,10,0:0:0:0:
223,110,35950,2,0,L|285:82,1,52.5,10|0,0:0|0:0,0:0:0:0:
311,71,36278,5,2,0:0:0:0:
394,161,36441,1,10,0:0:0:0:
342,303,36605,2,0,P|277:285|239:305,1,105,2|0,0:0|0:0,0:0:0:0:
139,348,37260,5,2,0:0:0:0:
134,305,37343,1,0,0:0:0:0:
129,262,37425,1,10,0:0:0:0:
187,175,37589,1,2,0:0:0:0:
288,241,37753,1,10,0:0:0:0:
348,113,37917,1,2,0:0:0:0:
424,260,38081,6,0,L|416:326,1,52.5,2|0,0:0|0:0,0:0:0:0:
415,349,38409,1,10,0:0:0:0:
415,349,38573,1,10,0:0:0:0:
445,130,38900,1,2,0:0:0:0:
382,62,39064,1,10,0:0:0:0:
327,140,39228,2,0,P|300:149|263:145,1,52.5,2|0,0:0|0:0,0:0:0:0:
217,136,39556,5,2,0:0:0:0:
140,193,39721,1,10,0:0:0:0:
60,141,39884,1,2,0:0:0:0:
92,51,40048,1,10,0:0:0:0:
92,51,40212,1,2,0:0:0:0:
187,49,40376,1,10,0:0:0:0:
187,49,40540,1,2,0:0:0:0:
64,230,40704,6,0,L|60:295,1,52.5,10|0,0:0|0:0,0:0:0:0:
58,349,41032,1,2,0:0:0:0:
179,209,41196,2,0,L|183:144,1,52.5,10|0,0:0|0:0,0:0:0:0:
185,90,41524,1,2,0:0:0:0:
344,252,41687,1,2,0:0:0:0:
341,295,41768,1,2,0:0:0:0:
338,339,41851,1,2,0:0:0:0:
237,254,42015,1,0,0:0:0:0:
371,183,42179,5,2,0:0:0:0:
406,220,42261,1,2,0:0:0:0:
407,272,42343,1,2,0:0:0:0:
375,313,42425,1,2,0:0:0:0:
322,313,42507,1,2,0:0:0:0:
280,279,42589,1,2,0:0:0:0:
275,226,42671,5,2,0:0:0:0:
256,184,42753,1,2,0:0:0:0:
219,156,42835,1,2,0:0:0:0:
173,154,42917,1,2,0:0:0:0:
131,181,42999,5,2,0:0:0:0:
106,210,43081,1,2,0:0:0:0:
70,224,43163,1,2,0:0:0:0:
31,217,43245,1,2,0:0:0:0:
1,192,43327,5,4,0:0:0:0:
62,129,43491,2,0,L|59:82,2,35,2|0|14,0:0|0:0|0:0,0:0:0:0:
131,181,43819,1,2,0:0:0:0:
242,125,43982,2,0,P|285:127|316:150,1,70,14|0,0:0|0:0,0:0:0:0:
370,197,44310,1,14,0:0:0:0:
467,106,44474,1,2,0:0:0:0:
461,101,44556,2,0,B|447:122|447:122|455:191,1,70,14|0,0:0|0:0,0:0:0:0:
455,181,44802,6,0,L|450:226,1,35,2|0,0:0|0:0,0:0:0:0:
458,312,44966,1,14,0:0:0:0:
331,264,45130,1,10,0:0:0:0:
326,232,45212,1,2,0:0:0:0:
320,201,45294,1,14,0:0:0:0:
366,215,45376,1,2,0:0:0:0:
393,255,45458,1,10,0:0:0:0:
382,302,45540,1,2,0:0:0:0:
342,331,45622,5,14,0:0:0:0:
304,312,45704,1,2,0:0:0:0:
262,310,45786,1,10,0:0:0:0:
224,327,45868,1,2,0:0:0:0:
193,358,45950,6,0,P|142:358|93:307,1,105,10|0,0:0|0:0,0:0:0:0:
100,282,46278,2,0,P|107:231|82:186,1,105,14|0,0:0|0:0,0:0:0:0:
45,165,46605,1,10,0:0:0:0:
174,208,46769,1,10,0:0:0:0:
156,36,46933,1,14,0:0:0:0:
130,121,47097,1,2,0:0:0:0:
130,121,47179,2,0,B|165:127|165:127|201:115,1,70,14|0,0:0|0:0,0:0:0:0:
214,110,47425,5,2,0:0:0:0:
336,138,47589,1,14,0:0:0:0:
352,107,47671,1,0,0:0:0:0:
356,75,47753,2,0,P|325:98|320:172,1,105,2|0,0:0|0:0,0:0:0:0:
411,216,48081,2,0,L|351:214,1,35
298,356,48245,5,14,0:0:0:0:
343,337,48327,1,10,0:0:0:0:
338,288,48409,1,14,0:0:0:0:
289,278,48491,1,10,0:0:0:0:
263,319,48573,1,14,0:0:0:0:
419,299,48737,5,2,0:0:0:0:
419,299,48819,1,14,0:0:0:0:
512,216,48982,1,2,0:0:0:0:
512,216,49064,1,14,0:0:0:0:
442,109,49228,1,2,0:0:0:0:
442,109,49310,1,14,0:0:0:0:
336,230,49474,5,10,0:0:0:0:
309,192,49556,1,14,0:0:0:0:
335,156,49638,1,10,0:0:0:0:
378,170,49720,1,14,0:0:0:0:
377,215,49802,1,10,0:0:0:0:
336,230,49884,6,0,L|290:224,1,35,14|0,0:0|0:0,0:0:0:0:
227,171,50048,1,2,0:0:0:0:
227,171,50130,1,14,0:0:0:0:
247,292,50294,1,2,0:0:0:0:
247,292,50376,1,6,0:0:0:0:
170,244,50540,5,14,0:0:0:0:
121,322,50704,1,10,0:0:0:0:
47,273,50868,1,10,0:0:0:0:
93,195,51032,1,10,0:0:0:0:
228,317,51196,6,0,L|233:363,2,35,14|0|0,0:0|0:0|0:0,0:0:0:0:
307,256,51523,1,14,0:0:0:0:
303,161,51687,2,0,B|255:153|255:153|218:171|218:171|164:164,1,140,10|0,0:0|0:0,0:0:0:0:
64,67,52179,1,14,0:0:0:0:
156,71,52343,1,2,0:0:0:0:
41,156,52507,6,0,L|33:238,1,70,10|0,0:0|0:0,0:0:0:0:
124,327,52835,1,14,0:0:0:0:
128,293,52917,1,14,0:0:0:0:
133,259,52999,1,2,0:0:0:0:
256,192,53163,12,4,53819,0:3:0:0:
339,216,53982,6,0,L|344:251,2,35,2|0|10,0:0|0:0|0:0,0:0:0:0:
260,161,54310,1,2,0:0:0:0:
343,121,54474,1,10,0:0:0:0:
339,216,54638,1,2,0:0:0:0:
260,161,54802,1,10,0:0:0:0:
177,205,54966,1,2,0:0:0:0:
177,205,55048,2,0,L|90:187,1,70,10|0,0:0|0:0,0:0:0:0:
95,186,55294,6,0,L|88:238,1,35,2|0,0:0|0:0,0:0:0:0:
155,328,55458,1,10,0:0:0:0:
262,253,55622,1,10,0:0:0:0:
271,226,55704,1,2,0:0:0:0:
280,199,55786,1,10,0:0:0:0:
314,228,55868,1,2,0:0:0:0:
359,229,55950,1,10,0:0:0:0:
392,198,56032,1,2,0:0:0:0:
389,152,56114,1,10,0:0:0:0:
356,119,56196,1,2,0:0:0:0:
310,119,56278,1,10,0:0:0:0:
281,154,56359,1,2,0:0:0:0:
280,199,56441,6,0,B|303:231|293:282|293:282|265:250,1,105,2|0,0:0|0:0,0:0:0:0:
215,243,56769,2,0,B|190:276|201:330|201:330|230:297,1,115.50000352478,10|0,0:0|0:0,0:0:0:0:
293,282,57097,2,0,B|319:318|307:376|307:376|275:340,1,125.999996154785,10|0,0:0|0:0,0:0:0:0:
201,329,57425,6,0,B|166:318|166:318|129:328|129:328|88:312,1,104.999996795654,4|0,0:0|0:0,0:0:0:0:
88,312,57917,2,0,L|85:269,1,35,2|0,0:0|0:0,0:0:0:0:
53,198,58081,2,0,B|88:208|88:208|131:189,1,70,10|2,0:0|0:0,0:0:0:0:
156,174,58327,1,2,0:0:0:0:
192,152,58409,2,0,B|222:138|222:138|257:148,1,70,10|2,0:0|0:0,0:0:0:0:
298,161,58655,1,2,0:0:0:0:
336,163,58737,1,2,0:0:0:0:
367,148,58819,1,2,0:0:0:0:
383,121,58900,1,2,0:0:0:0:
384,93,58982,1,2,0:0:0:0:
375,76,59064,6,0,B|352:103|352:103|361:200,1,131.25000500679,10|0,0:0|0:0,0:0:0:0:
367,211,59556,2,0,L|373:259,1,35,2|0,0:0|0:0,0:0:0:0:
438,361,59720,1,2,0:0:0:0:
236,355,59884,5,6,0:0:0:0:
260,202,60048,1,6,0:0:0:0:
285,49,60212,1,10,0:0:0:0:
285,49,60294,2,0,P|255:29|199:51,1,70,10|0,0:0|0:0,0:0:0:0:
187,60,60540,5,2,0:0:0:0:
273,119,60704,1,2,0:0:0:0:
373,87,60868,1,2,0:0:0:0:
468,186,61032,1,2,0:0:0:0:
363,182,61196,1,2,0:0:0:0:
301,283,61359,1,2,0:0:0:0:
207,188,61523,1,2,0:0:0:0:
131,342,61687,6,0,B|63:358|63:358|29:345,1,104.999996795654,6|0,0:0|0:0,0:0:0:0:
15,334,62179,2,0,L|76:321,1,35,2|0,0:0|0:0,0:0:0:0:
206,356,62343,1,2,0:0:0:0:
253,345,62425,1,2,0:0:0:0:
281,304,62507,1,2,0:0:0:0:
283,255,62589,1,2,0:0:0:0:
263,210,62671,5,2,0:0:0:0:
314,231,62753,1,2,0:0:0:0:
368,216,62835,1,2,0:0:0:0:
390,164,62917,1,2,0:0:0:0:
371,99,62999,5,4,0:3:0:0:
371,99,63327,1,8,0:3:0:0:
278,39,63491,2,0,L|329:31,1,41.9999987182618,2|0,0:3|0:0,0:0:0:0:
480,24,63655,1,2,0:3:0:0:
505,51,63737,1,0,0:0:0:0:
507,88,63819,1,2,0:3:0:0:
487,119,63900,1,0,0:0:0:0:
454,133,63982,2,0,L|438:251,1,97.9999970092774,4|0,0:2|0:0,0:0:0:0:
422,253,64228,2,0,L|376:255,1,24.4999992523194,2|2,0:0|0:0,0:0:0:0:
432,283,64310,6,2,L|319:288,1,83.9999974365235,6|0,0:0|0:0,0:0:0:0:
194,216,64638,1,8,0:0:0:0:
315,190,64801,1,0,0:0:0:0:
250,332,64966,1,0,0:0:0:0:
154,198,65130,1,6,0:0:0:0:
348,286,65294,1,10,0:0:0:0:
164,297,65458,6,2,P|124:302|67:260,1,83.9999974365235,14|4,0:2|0:1,0:1:0:0:
261,222,65786,2,2,P|301:227|358:185,1,83.9999974365235,14|8,0:2|0:0,0:1:0:0:
171,157,66114,2,2,P|131:162|74:120,1,83.9999974365235,14|0,0:2|0:0,0:1:0:0:
262,98,66441,2,2,P|302:103|359:61,1,83.9999974365235,14|8,0:2|0:0,0:1:0:0:
216,11,66769,1,14,0:2:0:0:
27,152,66933,5,6,0:1:0:0:
46,38,67097,1,2,0:2:0:0:
216,11,67261,1,10,0:0:0:0:
187,194,67425,1,2,0:2:0:0:
367,133,67589,1,2,0:1:0:0:
252,102,67753,2,0,L|237:60,2,27.9999991455078,2|2|2,0:0|0:2|0:2,0:0:0:0:
284,191,67917,1,8,0:0:0:0:
335,42,68081,1,2,0:1:0:0:
441,202,68245,6,0,P|409:290|330:266,1,167.999994873047,4|8,0:0|0:0,0:0:0:0:
208,175,68737,1,2,0:2:0:0:
381,228,68900,1,2,0:1:0:0:
267,275,69064,1,4,0:2:0:0:
346,119,69228,1,10,0:0:0:0:
208,175,69392,1,2,0:2:0:0:
431,155,69556,6,2,P|434:84|387:40,1,125.999996154785,6|0,0:0|0:0,0:0:0:0:
359,31,69884,1,8,0:0:0:0:
266,207,70048,2,0,L|418:217,1,125.999996154785,2|0,0:0|0:0,0:0:0:0:
447,174,70376,2,2,B|457:217|457:217|440:274,1,83.9999974365235,6|8,0:0|0:0,0:0:0:0:
344,331,70704,1,2,0:0:0:0:
327,158,70868,5,4,0:0:0:0:
391,215,71032,1,2,0:2:0:0:
404,130,71196,1,10,0:0:0:0:
316,239,71359,2,0,P|260:270|192:231,1,125.999996154785,2|0,0:0|0:0,0:0:0:0:
256,198,71687,1,4,0:0:0:0:
435,267,71851,1,10,0:1:0:0:
269,65,72015,1,2,0:0:0:0:
336,304,72179,6,2,P|392:314|432:231,1,125.999996154785,6|0,0:0|0:0,0:0:0:0:
438,224,72507,1,10,0:0:0:0:
229,267,72671,2,2,P|177:265|142:182,1,125.999996154785,2|0,0:0|0:0,0:0:0:0:
209,201,72999,2,2,P|205:164|251:104,1,83.9999974365235,6|8,0:0|0:0,0:0:0:0:
372,251,73327,1,2,0:0:0:0:
206,333,73491,5,4,0:0:0:0:
276,215,73655,1,4,0:0:0:0:
393,321,73819,1,8,0:0:0:0:
436,297,73900,1,8,0:0:0:0:
449,248,73982,1,4,0:0:0:0:
426,202,74064,2,0,L|415:94,1,83.9999974365235,8|0,0:0|0:0,0:0:0:0:
349,56,74310,2,0,L|343:2,2,27.9999991455078,2|2|2,0:0|0:2|0:2,0:0:0:0:
309,136,74474,1,10,0:0:0:0:
457,34,74638,1,0,0:0:0:0:
374,250,74802,6,2,L|183:228,1,167.999994873047,6|8,0:0|0:0,0:0:0:0:
99,305,75294,1,0,0:0:0:0:
246,351,75458,1,0,0:0:0:0:
237,131,75622,1,4,0:0:0:0:
179,308,75786,1,10,0:0:0:0:
313,138,75950,6,2,L|297:47,1,83.9999974365235,14|4,0:2|0:0,0:0:0:0:
148,203,76278,2,2,L|164:112,1,83.9999974365235,14|8,0:2|0:0,0:0:0:0:
284,282,76605,2,2,L|268:191,1,83.9999974365235,14|0,0:2|0:0,0:0:0:0:
176,351,76933,2,2,L|192:260,1,83.9999974365235,14|8,0:2|0:0,0:0:0:0:
328,369,77261,1,14,0:2:0:0:
106,368,77425,5,6,0:0:0:0:
140,215,77589,1,0,0:0:0:0:
318,130,77753,1,10,0:0:0:0:
284,283,77917,1,0,0:0:0:0:
116,59,78081,1,2,0:0:0:0:
140,215,78245,1,2,0:0:0:0:
234,100,78409,2,0,P|210:101|182:111,1,41.9999987182618,8|0,0:0|0:0,0:0:0:0:
36,151,78573,1,2,0:0:0:0:
220,183,78737,6,0,L|405:137,1,167.999994873047,4|8,0:0|0:0,0:0:0:0:
221,366,79228,1,2,0:0:0:0:
209,316,79310,1,2,0:0:0:0:
197,266,79392,1,2,0:0:0:0:
381,334,79556,1,4,0:0:0:0:
277,248,79720,1,10,0:0:0:0:
299,351,79884,1,0,0:0:0:0:
344,209,80048,6,2,B|354:159|354:159|303:30,1,167.999994873047,6|8,0:0|0:0,0:0:0:0:
278,169,80540,1,0,0:0:0:0:
278,169,80868,1,2,0:0:0:0:
364,286,81032,1,8,0:0:0:0:
207,341,81196,6,2,P|172:315|121:319,1,83.9999974365235,14|4,0:2|0:0,0:0:0:0:
306,243,81523,2,2,P|341:217|392:221,1,83.9999974365235,14|8,0:2|0:0,0:0:0:0:
226,153,81851,2,2,P|191:127|140:131,1,83.9999974365235,14|0,0:2|0:0,0:0:0:0:
271,41,82179,1,14,0:2:0:0:
306,243,82343,1,10,0:1:0:0:
189,52,82507,1,2,0:0:0:0:
390,191,82671,6,2,B|406:218|406:218|393:334,1,125.999996154785,6|0,0:0|0:0,0:0:0:0:
386,380,82999,1,8,0:0:0:0:
324,157,83163,2,2,P|381:119|444:139,1,125.999996154785,2|0,0:0|0:0,0:0:0:0:
481,180,83491,1,6,0:0:0:0:
262,99,83655,1,8,0:0:0:0:
431,22,83819,2,0,L|435:84,1,41.9999987182618,2|0,0:0|0:0,0:0:0:0:
459,243,83982,5,4,0:0:0:0:
505,104,84146,1,4,0:0:0:0:
309,196,84310,1,8,0:0:0:0:
258,198,84392,1,8,0:0:0:0:
221,163,84474,1,4,0:0:0:0:
216,112,84556,2,0,L|238:74,1,41.9999987182618,8|0,0:0|0:0,0:0:0:0:
357,24,84720,1,4,0:0:0:0:
357,24,84802,2,0,L|335:62,1,41.9999987182618,4|0,0:0|0:0,0:0:0:0:
309,196,84966,2,2,P|345:220|319:181,1,125.999996154785,2|0,0:0|0:0,0:0:0:0:
334,202,85294,6,0,B|296:297|350:366|350:366|376:328|357:282,1,251.999992309571,4|0,1:2|0:0,0:0:0:0:
244,332,86441,2,0,B|151:362|192:305|106:336|106:336|131:326|144:294,1,188.999994232178,4|0,1:2|0:0,0:0:0:0:
184,241,87261,6,0,L|189:215,5,25.6666674499512
102,171,87589,2,0,L|108:197,5,25.6666674499512
194,118,87917,6,0,P|266:137|199:59,1,251.999992309571,4|0,1:2|0:0,0:0:0:0:
57,194,89064,2,0,B|75:231|75:231|159:245|159:245|189:216,1,167.999994873047,4|0,1:2|0:0,0:0:0:0:
290,204,89884,6,0,L|292:221,3,13.9999995727539
321,169,90130,1,2,0:2:0:0:
367,164,90212,2,0,L|377:113,1,35,2|0,0:2|0:0,0:0:0:0:
490,300,90376,2,0,L|495:265,1,35,2|0,0:2|0:0,0:0:0:0:
329,344,90540,6,0,B|241:373|254:312|163:349|163:349|134:307|163:259,1,251.999992309571,4|0,1:2|0:0,0:0:0:0:
240,92,91687,2,0,B|283:98|316:79|316:79|299:224,1,209.999993591309,4|0,1:2|0:0,0:0:0:0:
147,196,92671,6,2,B|161:94|161:94|185:125|185:125|204:90|252:92,1,209.999993591309,2|0,0:1|0:0,0:1:0:0:
251,173,93163,6,0,B|284:263|220:250|260:341|260:341|278:295|325:286,1,251.999992309571,4|0,1:2|0:0,0:0:0:0:
494,361,94310,2,0,B|436:373|436:373|387:350|387:350|334:364,1,167.999994873047,4|0,1:2|0:0,0:0:0:0:
455,147,95130,5,2,1:3:0:0:
455,147,95212,1,2,1:3:0:0:
455,147,95294,2,0,L|447:205,1,41.9999987182618,8|8,0:0|0:0,0:0:0:0:
367,283,95458,1,2,1:3:0:0:
367,283,95541,1,2,1:3:0:0:
367,283,95622,2,0,L|374:225,1,41.9999987182618,8|8,0:0|0:0,0:0:0:0:
281,158,95786,5,4,0:2:0:0:
198,173,95950,1,0,0:0:0:0:
115,188,96114,1,2,0:0:0:0:
230,106,96278,1,0,0:0:0:0:
147,121,96442,1,0,0:0:0:0:
64,136,96606,1,2,0:0:0:0:
179,52,96769,1,0,0:0:0:0:
166,240,96933,1,4,0:0:0:0:
13,82,97097,6,0,L|91:67,1,70,2|0,0:0|0:0,0:0:0:0:
243,112,97425,2,0,L|174:125,1,70,2|0,0:0|0:0,0:0:0:0:
34,258,97753,2,0,L|26:289,5,23.3333333333333
112,348,98082,2,0,L|106:325,5,23.3333333333333
181,273,98409,5,4,0:0:0:0:
111,211,98573,1,0,0:0:0:0:
197,179,98737,1,2,0:0:0:0:
357,232,98900,1,0,0:0:0:0:
263,237,99064,1,0,0:0:0:0:
301,154,99228,1,2,0:0:0:0:
459,84,99392,1,0,0:0:0:0:
413,304,99556,1,6,0:0:0:0:
358,72,99720,6,0,L|270:67,1,70,2|0,0:0|0:0,0:0:0:0:
165,126,100048,2,0,L|253:131,1,70,2|0,0:0|0:0,0:0:0:0:
330,247,100376,2,0,L|326:281,2,23.3333333333333
316,219,100540,2,0,L|322:173,1,35
443,244,100704,2,0,L|492:233,1,41.9999987182618,2|0,0:2|0:0,0:0:0:0:
213,205,100868,2,0,L|164:216,1,41.9999987182618,2|0,0:2|0:0,0:0:0:0:
343,350,101032,5,0,0:0:0:0:
378,148,101196,1,0,0:0:0:0:
328,330,101359,5,0,0:0:0:0:
291,128,101523,1,0,0:0:0:0:
308,318,101687,5,0,0:0:0:0:
204,140,101851,1,0,0:0:0:0:
282,313,102015,5,0,0:0:0:0:
123,181,102179,1,4,0:2:0:0:
37,377,102343,5,0,0:0:0:0:
204,270,102507,1,0,0:0:0:0:
21,288,102671,5,0,0:0:0:0:
214,244,102835,1,0,0:0:0:0:
35,200,102999,5,0,0:0:0:0:
231,224,103163,1,0,0:0:0:0:
78,121,103327,5,0,0:0:0:0:
253,210,103491,1,0,0:0:0:0:
417,51,103655,5,4,0:2:0:0:
459,68,103737,1,0,0:0:0:0:
471,111,103819,1,0,0:0:0:0:
453,152,103900,1,0,0:0:0:0:
410,167,103982,1,0,0:0:0:0:
369,146,104064,1,0,0:0:0:0:
327,127,104146,1,0,0:0:0:0:
282,135,104228,1,0,0:0:0:0:
252,169,104310,5,0,0:0:0:0:
250,214,104392,1,0,0:0:0:0:
271,254,104474,1,0,0:0:0:0:
314,268,104556,1,0,0:0:0:0:
358,256,104638,1,0,0:0:0:0:
387,220,104720,1,0,0:0:0:0:
378,175,104802,2,0,L|367:119,1,35,4|0,0:2|0:0,0:0:0:0:
291,44,104966,5,0,0:0:0:0:
259,11,105048,1,0,0:0:0:0:
213,15,105130,1,0,0:0:0:0:
183,50,105212,1,0,0:0:0:0:
192,94,105294,1,0,0:0:0:0:
232,113,105376,1,0,0:0:0:0:
271,135,105458,1,0,0:0:0:0:
287,177,105540,1,0,0:0:0:0:
273,220,105622,5,0,0:0:0:0:
234,243,105704,1,0,0:0:0:0:
190,231,105786,1,0,0:0:0:0:
171,189,105868,1,0,0:0:0:0:
135,160,105950,1,0,0:0:0:0:
89,161,106032,1,0,0:0:0:0:
55,192,106114,1,0,0:0:0:0:
54,237,106196,1,0,0:0:0:0:
90,264,106278,5,4,0:2:0:0:
