osu file format v14

[General]
AudioFilename: Jun Kuroda & - Cygnus[FREE DL].mp3
AudioLeadIn: 0
PreviewTime: 62999
Countdown: 0
SampleSet: Normal
StackLeniency: 0.5
Mode: 0
LetterboxInBreaks: 1
WidescreenStoryboard: 1

[Editor]
Bookmarks: 11866,22358,32850,43342,53834,64325,74817,85309,95801,106293,116784
DistanceSpacing: 1
BeatDivisor: 4
GridSize: 8
TimelineZoom: 1.2

[Metadata]
Title:Cygnus
TitleUnicode:Cygnus
Artist:Jun Kuroda & AAAA
ArtistUnicode:Jun Kuroda & ああああ
Creator:Rohit6
Version:BEGINNER effected by N/A
Source:
Tags:Drum&Bass dnb 夏 エモ 宮田守 Miyata Mamoru emo natsu Nerova Riuz GX ProfessionalBox Rizen
BeatmapID:790047
BeatmapSetID:358056

[Difficulty]
HPDrainRate:2
CircleSize:3
OverallDifficulty:3
ApproachRate:3
SliderMultiplier:0.9
SliderTickRate:1

[Events]
//Background and Video events
0,0,"7heaven_landscape_wallpaper_by_ivany86-d6t8496.jpg",0,0
//Break Periods
2,22543,31395
2,54019,57624
//Storyboard Layer 0 (Background)
//Storyboard Layer 1 (Fail)
//Storyboard Layer 2 (Pass)
//Storyboard Layer 3 (Foreground)
//Storyboard Sound Samples

[TimingPoints]
1360,327.868852459016,4,1,3,60,1,0
64310,-100,4,1,3,60,0,1
85294,-100,4,1,3,60,0,0

[Colours]
Combo1 : 102,255,255
Combo2 : 255,255,121
Combo3 : 26,140,255
Combo4 : 128,255,0

[HitObjects]
312,77,1360,6,0,L|402:91,2,90,2|0|0,0:0|0:0|0:0,0:0:0:0:
224,64,2343,1,0,0:0:0:0:
135,50,2671,2,0,P|133:89|97:146,1,90
33,182,3327,2,0,P|37:226|59:265,1,90
144,293,3982,6,0,P|111:337|61:354,2,90
215,238,4966,1,0,0:0:0:0:
290,287,5294,2,0,L|381:300,1,90
429,224,5950,2,0,L|339:211,1,90
278,145,6605,6,0,B|291:102|291:102|281:40,2,90
188,153,7589,1,0,0:0:0:0:
112,103,7917,2,0,B|99:146|99:146|109:208,1,90
162,261,8573,2,0,P|230:237|253:242,1,90
324,283,9228,6,0,P|383:298|424:287,2,90
324,192,10212,1,0,0:0:0:0:
256,132,10540,2,0,P|188:156|165:151,1,90
91,113,11196,2,0,P|82:166|101:208,1,90
150,269,11851,6,0,B|190:291|190:291|325:277,1,180,4|0,0:0|0:0,0:0:0:0:
366,197,12835,1,8,0:0:0:0:
415,272,13163,2,0,B|409:317|409:317|417:369,2,90,4|8|0,0:0|0:0|0:0,0:0:0:0:
456,191,14146,1,8,0:0:0:0:
416,109,14474,6,0,P|334:100|269:169,1,180,4|0,0:0|0:0,0:0:0:0:
237,249,15458,1,8,0:0:0:0:
188,324,15786,2,0,L|86:338,1,90,4|8,0:0|0:0,0:0:0:0:
56,256,16441,2,0,L|145:243,1,90,0|8,0:0|0:0,0:0:0:0:
237,249,17097,6,0,B|280:227|322:249|322:249|366:270|409:249,1,180,4|0,0:0|0:0,0:0:0:0:
455,170,18081,1,8,0:0:0:0:
409,92,18409,2,0,P|450:78|500:91,2,90,4|8|0,0:0|0:0|0:0,0:0:0:0:
365,172,19392,1,8,0:0:0:0:
276,154,19720,6,0,B|230:155|190:177|190:177|150:157|101:157,1,180,4|0,0:0|0:0,0:0:0:0:
33,214,20704,1,8,0:0:0:0:
73,294,21032,2,0,P|114:310|175:292,1,90,4|8,0:0|0:0,0:0:0:0:
230,249,21687,2,0,P|271:235|315:246,1,90,0|8,0:0|0:0,3:0:0:0:
383,306,22343,5,6,0:0:0:0:
350,78,32835,6,0,B|396:90|396:90|493:82,2,135,2|0|0,0:0|0:0|0:0,0:0:0:0:
264,48,34146,2,0,P|185:83|103:47,1,180
28,98,35130,1,0,0:0:0:0:
84,168,35458,6,0,B|65:208|65:208|74:301,2,135
154,224,36769,2,0,B|196:249|238:224|238:224|281:198|323:224,1,180
398,275,37753,1,0,0:0:0:0:
465,215,38081,6,0,B|478:171|478:171|462:82,2,135,2|0|0,0:0|0:0|0:0,0:0:0:0:
398,275,39392,2,0,L|309:290,1,90
225,324,40048,2,0,P|219:273|241:229,1,90
316,201,40704,6,0,L|449:178,2,135
241,150,42015,2,0,P|164:109|86:160,1,180
167,200,42999,1,0,0:0:0:0:
86,240,43327,6,0,B|70:282|70:282|75:341,1,90,2|0,0:0|0:0,0:0:0:0:
149,377,43982,2,0,B|163:333|163:333|158:274,1,90
167,200,44638,2,0,B|221:219|221:219|350:201,1,180
405,136,45622,1,0,0:0:0:0:
430,222,45950,6,0,B|436:268|436:268|428:320,2,90
342,202,46933,1,0,0:0:0:0:
271,257,47261,2,0,P|252:188|323:112,1,180
405,136,48245,1,0,0:0:0:0:
430,222,48573,6,0,L|416:317,1,90
328,291,49228,2,0,L|341:201,1,90
317,113,49884,2,0,P|246:132|172:60,1,180
261,43,50868,1,0,0:0:0:0:
348,29,51196,6,0,B|392:42|392:42|490:29,1,135
256,192,51851,12,2,53819,0:0:0:0:
305,112,59064,6,0,B|347:125|347:125|448:112,2,135
219,79,60376,2,0,P|180:99|135:97,1,90
54,56,61032,2,0,P|45:113|59:147,1,90
256,192,61687,12,4,62999,0:0:0:0:
141,201,64310,6,0,P|211:250|291:218,1,180,4|0,0:0|0:0,0:0:0:0:
328,137,65294,1,8,0:0:0:0:
382,209,65622,2,0,B|426:219|426:219|474:208,2,90,4|8|0,0:0|0:0|0:0,0:0:0:0:
292,219,66605,1,8,0:0:0:0:
222,159,66933,6,0,P|222:110|246:65,1,90,4|8,0:0|0:0,0:0:0:0:
324,44,67589,2,0,P|323:92|299:137,1,90,0|8,0:0|0:0,0:0:0:0:
292,219,68245,2,0,P|292:270|315:324,2,90,4|8|0,0:0|0:0|0:0,0:0:0:0:
222,159,69228,1,8,0:0:0:0:
141,201,69556,6,0,P|69:164|63:67,1,180,4|0,0:0|0:0,0:0:0:0:
133,19,70540,1,8,0:0:0:0:
141,110,70868,2,0,L|236:89,2,90,4|8|0,0:0|0:0|0:0,0:0:0:0:
64,155,71851,1,8,0:0:0:0:
141,201,72179,6,0,B|125:246|125:246|142:348,2,135,4|0|8,0:0|0:0|0:0,0:0:0:0:
223,163,73491,1,4,0:0:0:0:
214,253,73819,2,0,L|229:346,2,90
141,201,74802,6,0,P|139:127|226:71,1,180,4|0,0:0|0:0,0:0:0:0:
297,22,75786,1,8,0:0:0:0:
301,114,76114,2,0,P|348:104|396:117,2,90,4|8|0,0:0|0:0|0:0,0:0:0:0:
223,163,77097,1,8,0:0:0:0:
214,253,77425,6,0,L|234:348,1,90,4|8,0:0|0:0,0:0:0:0:
315,305,78081,2,0,L|296:216,1,90,0|8,0:0|0:0,0:0:0:0:
223,163,78737,2,0,B|166:179|166:179|43:161,1,180,4|0,0:0|0:0,0:0:0:0:
71,75,79720,1,8,0:0:0:0:
160,90,80048,6,0,P|183:149|158:276,1,180,4|0,0:0|0:0,0:0:0:0:
98,321,81032,2,0,P|56:328|-3:302,2,90,8|4|8,0:0|0:0|0:0,0:0:0:0:
183,349,82015,2,0,P|234:331|285:348,1,90,0|8,0:0|0:0,0:0:0:0:
356,357,82671,6,0,P|434:311|436:227,1,180,4|0,0:0|0:0,0:0:0:0:
363,177,83655,1,8,0:0:0:0:
356,267,83982,2,0,B|311:277|311:277|208:260,2,135,4|0|8,0:0|0:0|0:0,0:0:0:0:
363,177,85294,6,0,P|255:81|148:177,2,315,4|4|0,0:0|0:0|0:0,0:0:0:0:
300,241,87917,6,0,B|271:235|241:248|223:275|223:275|209:259|186:251|186:251|148:266|110:265|66:235|61:192|68:153,2,315,4|4|0,0:0|0:0|0:0,0:0:0:0:
301,331,90540,6,0,B|323:313|361:306|387:318|387:318|420:304|465:290|488:225|476:167|442:137|404:116,2,315,4|4|0,0:0|0:0|0:0,0:0:0:0:
211,331,93163,6,0,B|188:313|150:306|124:318|124:318|91:304|46:290|23:225|35:167|69:137|107:116,2,315,4|4|0,0:0|0:0|0:0,0:0:0:0:
301,331,95786,6,0,P|373:342|397:211,1,225,4|0,0:0|0:0,0:0:0:0:
325,177,96933,2,0,B|315:209|319:236|319:236|286:225|248:244|248:244|227:231|227:231|190:247|154:228,1,225,4|0,0:0|0:0,0:0:0:0:
103,162,98081,1,0,0:0:0:0:
148,84,98409,6,0,B|209:108|209:108|369:87,1,225,4|0,0:0|0:0,0:0:0:0:
456,73,99556,2,0,B|461:110|445:140|445:140|466:188|444:224|444:224|460:249|456:293,1,225,4|0,0:0|0:0,0:0:0:0:
391,353,100704,1,0,0:0:0:0:
305,325,101032,6,0,L|212:340,2,90,4|0|0,0:0|0:0|0:0,0:0:0:0:
355,250,102015,1,0,0:0:0:0:
305,174,102343,2,0,P|263:186|220:174,1,90,4|0,0:0|0:0,0:0:0:0:
177,95,102999,2,0,P|222:83|272:100,1,90
351,95,103655,6,0,L|454:81,2,90,4|0|0,0:0|0:0|0:0,0:0:0:0:
305,174,104638,1,0,0:0:0:0:
345,254,104966,2,0,L|326:345,1,90,4|0,0:0|0:0,0:0:0:0:
236,337,105622,2,0,L|254:248,1,90
305,174,106278,5,2,0:0:0:0:
