osu file format v14

[General]
AudioFilename: Jun Kuroda & - Cygnus[FREE DL].mp3
AudioLeadIn: 0
PreviewTime: 62999
Countdown: 0
SampleSet: Normal
StackLeniency: 0.5
Mode: 0
LetterboxInBreaks: 1
WidescreenStoryboard: 1

[Editor]
Bookmarks: 11866,22358,32850,43342,53834,64325,74817,85309,95801,106293,116784
DistanceSpacing: 0.4
BeatDivisor: 4
GridSize: 8
TimelineZoom: 2.599999

[Metadata]
Title:Cygnus
TitleUnicode:Cygnus
Artist:Jun Kuroda & AAAA
ArtistUnicode:Jun Kuroda & ああああ
Creator:Rohit6
Version:ANOTHER effected by N/A
Source:
Tags:Drum&Bass dnb 夏 エモ 宮田守 Miyata Mamoru emo natsu Nerova Riuz GX ProfessionalBox Rizen
BeatmapID:788472
BeatmapSetID:358056

[Difficulty]
HPDrainRate:6
CircleSize:4.3
OverallDifficulty:8
ApproachRate:9.3
SliderMultiplier:1.4
SliderTickRate:1

[Events]
//Background and Video events
0,0,"7heaven_landscape_wallpaper_by_ivany86-d6t8496.jpg",0,0
//Break Periods
2,22542,32281
2,54019,56441
//Storyboard Layer 0 (Background)
//Storyboard Layer 1 (Fail)
//Storyboard Layer 2 (Pass)
//Storyboard Layer 3 (Foreground)
//Storyboard Sound Samples

[TimingPoints]
1360,327.868852459016,4,1,3,60,1,0
21032,-83.3333333333333,4,1,3,60,0,0
32835,-125,4,1,3,60,0,0
43163,-125,4,1,3,5,0,0
43327,-100,4,1,3,60,0,0
58900,-100,4,2,0,60,0,0
62999,-100,4,1,3,60,0,0
63327,-166.666666666667,4,1,3,60,0,0
63655,-125,4,1,3,60,0,0
63982,-100,4,1,3,60,0,0
64310,-83.3333333333333,4,1,3,60,0,1
85294,-125,4,1,3,60,0,0
87261,-125,4,2,0,60,0,0
87917,-125,4,1,3,60,0,0
97808,-125,4,2,0,60,0,0
98409,-125,4,1,3,60,0,0
103655,-100,4,1,3,60,0,0

[Colours]
Combo1 : 102,255,255
Combo2 : 255,255,121
Combo3 : 26,140,255
Combo4 : 128,255,0

[HitObjects]
255,191,1360,6,0,P|283:213|316:223,1,70
449,139,1687,1,0,0:0:0:0:
377,107,1851,2,0,P|344:119|319:143,1,70
325,301,2179,1,0,0:0:0:0:
388,254,2343,2,0,P|393:219|385:185,1,70
247,114,2671,1,0,0:0:0:0:
255,191,2835,2,0,P|283:213|316:223,1,70
377,107,3163,1,0,0:0:0:0:
183,160,3327,5,0,0:0:0:0:
148,164,3409,1,0,0:0:0:0:
113,168,3491,1,0,0:0:0:0:
78,173,3573,1,0,0:0:0:0:
44,177,3655,1,0,0:0:0:0:
123,276,3819,1,0,0:0:0:0:
251,183,3982,6,0,P|251:148|246:113,1,70
225,46,4310,1,0,0:0:0:0:
88,104,4474,2,0,L|74:201,1,70
95,241,4802,1,0,0:0:0:0:
210,330,4966,2,0,P|248:340|288:328,1,70
341,303,5294,1,0,0:0:0:0:
372,158,5458,2,0,P|334:148|294:160,1,70
237,183,5786,1,0,0:0:0:0:
408,251,5950,5,0,0:0:0:0:
437,231,6032,1,0,0:0:0:0:
458,204,6114,1,0,0:0:0:0:
470,171,6196,1,0,0:0:0:0:
470,136,6278,1,0,0:0:0:0:
406,23,6441,1,0,0:0:0:0:
237,183,6605,6,0,L|168:167,1,70
126,90,6933,1,0,0:0:0:0:
326,141,7097,2,0,L|317:210,1,70
253,266,7425,1,0,0:0:0:0:
88,224,7589,2,0,P|74:186|82:133,1,70
126,90,7917,1,0,0:0:0:0:
253,266,8081,2,0,P|287:278|336:261,1,70
383,217,8409,1,0,0:0:0:0:
220,171,8573,5,0,0:0:0:0:
189,187,8655,1,0,0:0:0:0:
166,213,8737,1,0,0:0:0:0:
154,246,8819,1,0,0:0:0:0:
154,281,8900,1,0,0:0:0:0:
217,359,9064,1,0,0:0:0:0:
319,190,9228,6,0,P|315:134|300:105,1,70
123,48,9556,1,0,0:0:0:0:
156,144,9720,2,0,P|206:168|239:170,1,70
376,45,10048,1,0,0:0:0:0:
277,25,10212,2,0,P|230:56|212:83,1,70
252,265,10540,1,0,0:0:0:0:
319,190,10704,2,0,P|315:134|300:105,1,70
153,244,11032,5,0,0:0:0:0:
151,278,11114,1,0,0:0:0:0:
162,311,11196,1,0,0:0:0:0:
183,339,11278,1,0,0:0:0:0:
213,358,11359,1,0,0:0:0:0:
247,365,11441,1,0,0:0:0:0:
281,361,11523,5,0,0:0:0:0:
304,335,11605,1,0,0:0:0:0:
335,319,11687,1,0,0:0:0:0:
370,316,11769,1,0,0:0:0:0:
403,325,11851,6,0,P|440:304|461:256,1,70,6|0,0:0|0:0,0:0:0:0:
430,121,12179,1,8,0:0:0:0:
326,211,12343,1,0,0:0:0:0:
352,233,12425,1,0,0:0:0:0:
385,243,12507,1,0,0:0:0:0:
494,186,12671,1,0,0:0:0:0:
340,124,12835,2,0,L|253:140,1,70,8|0,0:0|0:0,0:0:0:0:
125,189,13163,6,0,P|97:144|98:97,1,70,4|0,0:0|0:0,0:0:0:0:
146,33,13491,1,8,0:0:0:0:
212,208,13655,1,0,0:0:0:0:
205,242,13737,1,0,0:0:0:0:
198,276,13819,1,0,0:0:0:0:
124,348,13982,1,0,0:0:0:0:
56,184,14146,2,0,P|80:137|122:114,1,70,8|0,0:0|0:0,0:0:0:0:
287,164,14474,6,0,L|377:173,1,70,4|0,0:0|0:0,0:0:0:0:
440,114,14802,1,8,0:0:0:0:
272,19,14966,2,0,P|256:70|264:103,1,70
349,324,15294,5,0,0:0:0:0:
392,159,15458,1,8,0:0:0:0:
259,266,15622,1,0,0:0:0:0:
429,256,15786,6,0,P|450:222|456:179,1,70,4|0,0:0|0:0,0:0:0:0:
350,70,16114,1,8,0:0:0:0:
219,144,16278,1,0,0:0:0:0:
184,147,16359,1,0,0:0:0:0:
149,151,16441,1,0,0:0:0:0:
102,62,16605,1,0,0:0:0:0:
303,137,16769,5,8,0:0:0:0:
315,169,16851,1,0,0:0:0:0:
316,204,16933,1,0,0:0:0:0:
306,238,17015,1,0,0:0:0:0:
286,266,17097,6,0,P|242:302|212:314,1,70,4|0,0:0|0:0,0:0:0:0:
126,299,17425,1,8,0:0:0:0:
62,158,17589,1,0,0:0:0:0:
68,123,17671,1,0,0:0:0:0:
82,91,17753,1,0,0:0:0:0:
179,33,17917,1,0,0:0:0:0:
303,137,18081,2,0,L|376:142,1,70,8|0,0:0|0:0,0:0:0:0:
450,242,18409,6,0,L|377:247,1,70,4|0,0:0|0:0,0:0:0:0:
211,190,18737,1,8,0:0:0:0:
356,74,18900,1,0,0:0:0:0:
368,106,18982,1,0,0:0:0:0:
372,141,19064,1,0,0:0:0:0:
313,287,19228,1,0,0:0:0:0:
211,190,19392,2,0,P|226:129|250:104,1,70,8|0,0:0|0:0,0:0:0:0:
372,141,19720,6,0,L|459:148,1,70,4|0,0:0|0:0,0:0:0:0:
430,29,20048,1,8,0:0:0:0:
285,63,20212,2,0,L|198:70,1,70
22,121,20540,5,0,0:0:0:0:
191,140,20704,1,8,0:0:0:0:
67,25,20868,1,0,0:0:0:0:
101,194,21032,6,0,L|121:243,1,41.9999987182618,4|0,0:0|0:0,0:0:0:0:
281,191,21196,2,0,L|304:140,1,41.9999987182618,4|0,0:0|0:0,0:0:0:0:
191,140,21359,1,8,0:0:0:0:
179,184,21441,1,8,0:0:0:0:
187,230,21523,1,4,0:0:0:0:
213,268,21605,2,0,P|249:291|296:294,1,83.9999974365235,12|4,0:0|0:0,0:0:0:0:
369,242,21851,1,4,0:0:0:0:
369,242,22015,6,0,P|414:235|447:338,1,167.999994873047,8|4,0:0|0:0,0:0:0:0:
238,282,32835,6,0,P|285:299|342:267,1,112,2|0,0:0|0:0,0:0:0:0:
385,163,33327,1,0,0:0:0:0:
282,220,33655,1,0,0:0:0:0:
398,234,33982,1,0,0:0:0:0:
312,153,34310,1,0,0:0:0:0:
312,153,34474,1,0,0:0:0:0:
312,153,34966,6,0,L|331:93,2,56
282,220,35458,2,0,P|280:266|289:291,1,56
331,333,35786,1,0,0:0:0:0:
395,292,35950,2,0,P|399:223|379:181,1,112
312,153,36441,1,0,0:0:0:0:
282,220,36605,1,0,0:0:0:0:
282,220,37261,5,0,0:0:0:0:
282,220,37425,2,0,L|305:273,2,56
227,167,37917,1,0,0:0:0:0:
176,223,38081,6,0,P|126:242|58:224,1,112,2|0,0:0|0:0,0:0:0:0:
34,163,38573,2,0,B|28:118|28:118|43:39,1,112
109,119,39064,1,0,0:0:0:0:
109,119,39228,2,0,B|152:137|152:137|234:129,1,112
277,84,39720,2,0,L|323:48,2,56
315,149,40212,2,0,L|361:113,2,56
260,202,40704,6,0,P|246:267|268:323,1,112
319,354,41196,2,0,P|367:330|427:343,1,112
501,340,41687,1,0,0:0:0:0:
498,327,41769,1,0,0:0:0:0:
495,317,41851,1,0,0:0:0:0:
256,192,42015,12,0,43163,0:0:0:0:
168,240,43327,6,0,B|208:248|208:248|264:248,1,70
245,245,43573,1,0,0:0:0:0:
253,242,43655,1,0,0:0:0:0:
309,94,43819,1,0,0:0:0:0:
343,194,43982,2,0,P|354:252|346:287,2,70
181,108,44474,6,0,P|159:151|169:242,1,140
185,270,44884,1,0,0:0:0:0:
205,298,44966,1,0,0:0:0:0:
321,345,45130,1,0,0:0:0:0:
323,347,45212,1,0,0:0:0:0:
325,349,45294,5,0,0:0:0:0:
345,341,45375,1,0,0:0:0:0:
367,339,45457,1,0,0:0:0:0:
389,340,45539,1,0,0:0:0:0:
454,309,45622,5,0,0:0:0:0:
446,289,45703,1,0,0:0:0:0:
444,267,45785,1,0,0:0:0:0:
445,245,45867,1,0,0:0:0:0:
453,224,45950,6,0,P|438:184|440:147,1,70
352,45,46278,2,0,P|367:85|365:122,1,70
292,221,46605,2,0,P|249:225|209:210,1,70
182,130,46933,1,0,0:0:0:0:
373,197,47097,6,0,P|386:255|358:333,1,140
245,303,47589,1,0,0:0:0:0:
211,295,47670,1,0,0:0:0:0:
176,299,47752,1,0,0:0:0:0:
73,333,47917,1,0,0:0:0:0:
46,171,48081,5,0,0:0:0:0:
63,207,48162,1,0,0:0:0:0:
97,228,48244,1,0,0:0:0:0:
137,228,48326,1,0,0:0:0:0:
171,206,48408,1,0,0:0:0:0:
187,169,48490,1,0,0:0:0:0:
182,130,48573,6,0,P|180:82|197:44,1,70
208,33,48819,1,0,0:0:0:0:
281,166,48982,1,0,0:0:0:0:
302,181,49064,2,0,P|341:193|382:181,1,70
388,205,49310,2,0,P|431:198|463:214,1,70
474,225,49556,5,0,0:0:0:0:
476,242,49637,1,0,0:0:0:0:
479,259,49719,1,0,0:0:0:0:
482,276,49801,1,0,0:0:0:0:
485,293,49884,5,0,0:0:0:0:
465,328,49965,1,0,0:0:0:0:
431,350,50047,1,0,0:0:0:0:
391,355,50129,1,0,0:0:0:0:
354,340,50211,1,0,0:0:0:0:
327,310,50293,1,0,0:0:0:0:
317,271,50375,1,0,0:0:0:0:
270,117,50540,6,0,L|265:205,1,70
182,268,50868,2,0,P|140:260|112:233,1,70
30,100,51196,6,0,B|70:115|70:115|180:98,1,140
270,117,51687,2,0,P|325:124|323:205,1,140
294,295,52179,1,0,0:0:0:0:
182,268,52343,1,0,0:0:0:0:
345,229,52507,6,0,P|372:266|376:311,1,70
223,342,52835,1,0,0:0:0:0:
188,348,52916,1,0,0:0:0:0:
154,354,52998,1,0,0:0:0:0:
25,282,53163,2,0,L|113:264,1,70
247,206,53491,1,0,0:0:0:0:
149,156,53655,1,0,0:0:0:0:
258,336,53819,5,6,0:0:0:0:
256,192,57425,12,0,58900,0:0:0:0:
167,39,59064,6,0,P|229:56|311:41,1,140
418,72,59556,1,0,0:0:0:0:
418,72,59638,1,0,0:0:0:0:
418,72,59720,1,0,0:0:0:0:
360,217,59884,1,0,0:0:0:0:
291,138,60048,1,0,0:0:0:0:
452,162,60212,6,0,B|466:209|466:209|449:309,1,140
360,342,60704,1,0,0:0:0:0:
182,275,60868,1,0,0:0:0:0:
329,154,61032,1,0,0:0:0:0:
262,332,61196,1,0,0:0:0:0:
141,185,61359,1,0,0:0:0:0:
319,252,61523,1,0,0:0:0:0:
172,373,61687,1,0,0:0:0:0:
256,192,61769,12,4,62999,0:0:0:0:
199,210,63327,6,0,L|278:220,1,62.9999980773926,8|0,0:0|0:0,0:0:0:0:
321,153,63655,6,0,L|237:142,1,84
163,143,63982,6,0,P|126:188|130:241,1,105
180,297,64310,6,0,P|227:310|280:294,1,83.9999974365235,4|0,0:0|0:0,0:0:0:0:
341,255,64638,1,8,0:0:0:0:
244,50,64802,2,0,P|209:84|196:138,1,83.9999974365235
199,210,65130,1,4,0:0:0:0:
425,228,65294,2,0,P|412:180|372:142,1,83.9999974365235,8|0,0:0|0:0,0:0:0:0:
309,109,65622,5,4,0:0:0:0:
112,156,65786,1,0,0:0:0:0:
278,296,65950,2,0,P|297:247|290:194,1,83.9999974365235,8|0,0:0|0:0,0:0:0:0:
217,45,66278,1,0,0:0:0:0:
199,83,66359,1,0,0:0:0:0:
198,124,66441,1,4,0:0:0:0:
312,219,66605,2,0,L|411:213,1,83.9999974365235,8|0,0:0|0:0,0:0:0:0:
455,111,66933,5,4,0:0:0:0:
399,318,67097,1,0,0:0:0:0:
234,209,67261,2,0,P|265:155|310:140,1,83.9999974365235,8|0,0:0|0:0,0:0:0:0:
409,234,67589,2,0,L|398:322,1,83.9999974365235,0|4,0:0|0:0,0:0:0:0:
411,328,67835,1,0,0:0:0:0:
424,338,67917,1,0,0:0:0:0:
243,324,68081,1,0,0:0:0:0:
310,153,68245,6,0,L|408:166,1,83.9999974365235,4|0,0:0|0:0,0:0:0:0:
227,233,68573,2,0,L|129:220,1,83.9999974365235,8|0,0:0|0:0,0:0:0:0:
39,78,68900,1,0,0:0:0:0:
207,132,69064,1,4,0:0:0:0:
39,187,69228,1,8,0:0:0:0:
143,44,69392,1,0,0:0:0:0:
139,243,69556,6,0,B|134:284|134:284|154:343,1,83.9999974365235,4|0,0:0|0:0,0:0:0:0:
248,360,69884,1,8,0:0:0:0:
466,302,70048,2,0,L|343:292,1,83.9999974365235
238,207,70376,2,0,L|361:197,1,83.9999974365235,4|8,0:0|0:0,0:0:0:0:
465,118,70704,1,0,0:0:0:0:
301,27,70868,6,0,P|286:82|307:130,1,83.9999974365235,4|0,0:0|0:0,0:0:0:0:
391,207,71196,2,0,P|406:262|385:310,1,83.9999974365235,8|0,0:0|0:0,0:0:0:0:
228,188,71523,1,0,0:0:0:0:
379,124,71687,2,0,L|470:133,2,83.9999974365235,4|8|0,0:0|0:0|0:0,0:0:0:0:
192,91,72179,6,0,B|81:108|81:108|149:126,1,167.999994873047,4|8,0:0|0:0,0:0:0:0:
303,127,72671,2,0,P|310:77|296:22,1,83.9999974365235
68,121,72999,2,0,P|61:171|75:226,1,83.9999974365235,4|8,0:0|0:0,0:0:0:0:
123,318,73327,1,0,0:0:0:0:
280,213,73491,6,0,L|343:206,1,41.9999987182618,4|0,0:0|0:0,0:0:0:0:
200,149,73655,2,0,L|137:142,1,41.9999987182618,4|0,0:0|0:0,0:0:0:0:
194,268,73819,1,8,0:0:0:0:
217,302,73900,1,8,0:0:0:0:
254,321,73982,1,4,0:0:0:0:
296,320,74064,2,0,P|343:302|394:315,1,83.9999974365235,8|4,0:0|0:0,0:0:0:0:
452,347,74310,1,4,0:0:0:0:
452,347,74474,6,0,P|480:305|463:227,1,125.999996154785,8|0,0:0|0:0,0:0:0:0:
471,172,74802,6,0,P|416:182|366:157,1,83.9999974365235,4|0,0:0|0:0,0:0:0:0:
247,127,75130,1,8,0:0:0:0:
424,24,75294,2,0,P|437:79|429:117,1,83.9999974365235
397,253,75622,1,4,0:0:0:0:
237,225,75786,2,0,L|129:233,1,83.9999974365235,8|0,0:0|0:0,0:0:0:0:
35,120,76114,5,4,0:0:0:0:
236,249,76278,2,0,P|239:298|223:347,1,83.9999974365235,0|8,0:0|0:0,0:0:0:0:
66,260,76605,2,0,P|64:201|92:159,1,83.9999974365235
293,170,76933,1,4,0:0:0:0:
140,100,77097,1,8,0:0:0:0:
167,297,77261,1,0,0:0:0:0:
238,106,77425,6,0,P|227:47|201:18,1,83.9999974365235,4|0,0:0|0:0,0:0:0:0:
82,193,77753,2,0,P|138:212|176:204,1,83.9999974365235,8|0,0:0|0:0,0:0:0:0:
366,234,78081,2,0,P|374:278|365:340,2,83.9999974365235,0|4|8,0:0|0:0|0:0,0:0:0:0:
301,77,78573,1,0,0:0:0:0:
200,175,78737,6,0,L|96:166,1,83.9999974365235,4|0,0:0|0:0,0:0:0:0:
22,36,79064,2,0,L|105:43,1,83.9999974365235,8|0,0:0|0:0,0:0:0:0:
168,80,79310,1,0,0:0:0:0:
185,91,79392,2,0,P|231:79|286:105,1,83.9999974365235,0|4,0:0|0:0,0:0:0:0:
410,205,79720,2,0,P|450:214|490:202,1,83.9999974365235,8|0,0:0|0:0,0:0:0:0:
405,49,80048,5,4,0:0:0:0:
303,221,80212,1,0,0:0:0:0:
476,124,80376,1,8,0:0:0:0:
232,155,80540,2,0,P|212:204|219:271,1,83.9999974365235
264,352,80868,1,4,0:0:0:0:
438,293,81032,1,8,0:0:0:0:
216,260,81196,6,0,L|110:282,1,83.9999974365235,0|4,0:0|0:0,0:0:0:0:
29,175,81523,2,0,L|135:197,1,83.9999974365235,0|8,0:0|0:0,0:0:0:0:
255,136,81851,2,0,P|263:77|246:24,1,83.9999974365235
128,90,82179,1,4,0:0:0:0:
112,253,82343,1,8,0:0:0:0:
264,167,82507,1,0,0:0:0:0:
48,175,82671,6,0,L|32:268,1,83.9999974365235,4|0,0:0|0:0,0:0:0:0:
78,352,82999,1,8,0:0:0:0:
241,298,83163,2,0,P|255:233|222:138,1,167.999994873047,0|4,0:0|0:0,0:0:0:0:
121,80,83655,1,8,0:0:0:0:
20,153,83819,1,0,0:0:0:0:
137,192,83982,6,0,L|190:201,1,41.9999987182618,4|0,0:0|0:0,0:0:0:0:
156,94,84146,2,0,L|197:86,1,41.9999987182618,4|0,0:0|0:0,0:0:0:0:
257,192,84310,1,8,0:0:0:0:
290,216,84391,1,8,0:0:0:0:
331,221,84473,1,4,0:0:0:0:
370,205,84556,2,0,P|415:171|469:189,1,83.9999974365235,8|4,0:0|0:0,0:0:0:0:
498,236,84802,1,4,0:0:0:0:
498,236,84966,6,0,P|497:278|479:316,1,83.9999974365235,8|0,0:0|0:0,0:0:0:0:
368,352,85294,6,0,B|312:384|256:352|256:352|192:320|144:352|144:352|184:392|240:368,1,336,4|0,0:0|0:0,0:0:0:0:
312,272,86441,2,0,B|344:192|288:120|288:120|264:192,1,224,4|0,0:0|0:0,0:0:0:0:
224,264,87261,6,0,L|232:296,5,18.6666666666667,2|0|0|0|0|0,0:0|0:0|0:0|0:0|0:0|0:0,0:0:0:0:
136,240,87589,2,0,L|131:221,5,18.6666666666667
200,176,87917,6,0,P|248:56|344:176,1,336,4|0,0:0|0:0,0:0:0:0:
363,256,89064,2,0,B|371:304|399:343|451:352|451:352|459:296|411:288,1,224,4|0,0:0|0:0,0:0:0:0:
288,288,89884,5,0,0:0:0:0:
260,285,89965,1,0,0:0:0:0:
232,282,90047,1,0,0:0:0:0:
204,280,90129,1,0,0:0:0:0:
156,340,90212,5,0,0:0:0:0:
128,342,90293,1,0,0:0:0:0:
100,345,90375,1,0,0:0:0:0:
72,347,90457,1,0,0:0:0:0:
24,288,90540,6,0,B|43:258|45:220|25:184|25:184|37:153|37:153|17:117|17:117|30:58|92:35|138:59,1,336,4|0,0:0|0:0,0:0:0:0:
226,133,91687,2,0,B|265:149|265:149|304:137|304:137|350:151|350:151|454:129,1,224,4|0,0:0|0:0,0:0:0:0:
475,139,92507,6,0,P|503:85|447:124,1,168
431,229,93163,6,0,B|410:273|421:314|421:314|383:293|351:313|351:313|326:297|326:297|292:318|260:297|260:297|223:318|188:295,1,336,4|0,0:0|0:0,0:0:0:0:
109,351,94310,2,0,P|91:292|211:202,1,224,4|0,0:0|0:0,0:0:0:0:
286,211,95130,5,4,0:0:0:0:
304,227,95211,1,0,0:0:0:0:
326,238,95293,1,8,0:0:0:0:
350,243,95375,1,0,0:0:0:0:
374,242,95457,1,0,0:0:0:0:
397,235,95539,1,0,0:0:0:0:
419,223,95621,1,8,0:0:0:0:
436,206,95703,1,0,0:0:0:0:
449,185,95786,6,0,P|465:130|453:59,2,112,4|0|0,0:0|0:0|0:0,0:0:0:0:
342,149,96769,1,0,0:0:0:0:
342,149,96933,2,0,P|303:127|209:205,1,168,4|0,0:0|0:0,0:0:0:0:
274,339,97753,6,0,L|304:345,5,18.6666666666667,2|0|0|0|0|0,0:0|0:0|0:0|0:0|0:0|0:0,0:0:0:0:
241,264,98081,2,0,L|271:258,5,18.6666666666667
193,331,98409,6,0,B|144:351|144:351|69:347,2,112,4|0|0,0:0|0:0|0:0,0:0:0:0:
333,271,99392,1,0,0:0:0:0:
333,271,99556,2,0,P|320:203|222:174,1,168,4|0,0:0|0:0,0:0:0:0:
115,146,100376,5,0,0:0:0:0:
88,139,100458,1,0,0:0:0:0:
60,139,100540,1,0,0:0:0:0:
34,147,100621,1,0,0:0:0:0:
31,224,100704,5,0,0:0:0:0:
58,231,100786,1,0,0:0:0:0:
86,231,100868,1,0,0:0:0:0:
113,224,100949,1,0,0:0:0:0:
175,186,101032,5,4,0:0:0:0:
330,300,101196,1,0,0:0:0:0:
349,110,101360,1,4,0:0:0:0:
238,265,101524,1,0,0:0:0:0:
427,283,101688,1,4,0:0:0:0:
273,174,101851,1,0,0:0:0:0:
253,362,102015,1,4,0:0:0:0:
364,207,102178,1,4,0:0:0:0:
121,91,102343,5,4,0:0:0:0:
54,259,102507,1,0,0:0:0:0:
209,120,102670,1,4,0:0:0:0:
186,303,102834,1,0,0:0:0:0:
302,120,102998,1,4,0:0:0:0:
325,303,103162,1,0,0:0:0:0:
390,91,103326,1,4,0:0:0:0:
457,258,103490,1,0,0:0:0:0:
319,37,103655,5,4,0:0:0:0:
289,55,103736,1,0,0:0:0:0:
255,64,103818,1,4,0:0:0:0:
221,61,103900,1,0,0:0:0:0:
189,47,103982,1,4,0:0:0:0:
155,38,104063,1,0,0:0:0:0:
120,42,104145,1,4,0:0:0:0:
89,57,104227,1,0,0:0:0:0:
66,83,104310,5,4,0:0:0:0:
48,113,104391,1,0,0:0:0:0:
44,147,104473,1,4,0:0:0:0:
53,181,104555,1,0,0:0:0:0:
75,208,104637,1,4,0:0:0:0:
105,224,104719,1,0,0:0:0:0:
140,228,104802,5,4,0:0:0:0:
162,187,104883,1,0,0:0:0:0:
198,159,104965,1,4,0:0:0:0:
244,149,105047,1,0,0:0:0:0:
289,158,105129,1,4,0:0:0:0:
326,186,105211,1,0,0:0:0:0:
348,227,105294,5,4,0:0:0:0:
356,272,105376,1,0,0:0:0:0:
330,309,105458,1,4,0:0:0:0:
286,321,105540,1,0,0:0:0:0:
243,302,105622,1,4,0:0:0:0:
224,261,105704,1,0,0:0:0:0:
235,217,105787,5,4,0:0:0:0:
256,183,105868,1,0,0:0:0:0:
289,158,105950,1,4,0:0:0:0:
328,146,106032,1,0,0:0:0:0:
368,150,106114,1,4,0:0:0:0:
405,167,106196,1,0,0:0:0:0:
455,215,106278,5,4,0:0:0:0:
