osu file format v14

[General]
AudioFilename: galacta.mp3
AudioLeadIn: 0
PreviewTime: 7314
Countdown: 0
SampleSet: Normal
StackLeniency: 0.7
Mode: 1
LetterboxInBreaks: 0
WidescreenStoryboard: 0

[Editor]
Bookmarks: 53193
DistanceSpacing: 1
BeatDivisor: 12
GridSize: 32
TimelineZoom: 2.499999

[Metadata]
Title:Toki Meguru Ginga Saikyou no Senshi
TitleUnicode:時巡る銀河最強の戦士
Artist:Jun Ishikawa
ArtistUnicode:石川淳
Creator:MTNTWarz
Version:Ultimatum
Source:星のカービィ ロボボプラネット
Tags:taikoseania hoshi no kaabi kirby planet robobot hal laboratory nintendo 3ds video game electronic instrumental galacta knight meta knightmare returns final boss time-travelling ultimate warrior
BeatmapID:3536581
BeatmapSetID:1730500

[Difficulty]
HPDrainRate:6
CircleSize:5
OverallDifficulty:6.5
ApproachRate:5
SliderMultiplier:1.4
SliderTickRate:1

[Events]
//Background and Video events
0,0,"BG2.jpg",0,70
//Break Periods
//Storyboard Layer 0 (Background)
//Storyboard Layer 1 (Fail)
//Storyboard Layer 2 (Pass)
//Storyboard Layer 3 (Foreground)
//Storyboard Layer 4 (Overlay)
//Storyboard Sound Samples

[TimingPoints]
1667,352.941176470588,4,1,0,50,1,0
1667,-125,4,1,0,50,0,0
5901,-125,4,1,0,50,0,0
6254,-118.2177,4,1,0,50,0,0
6607,-111.80339,4,1,0,50,0,0
6960,-105.73712,4,1,0,60,0,0
7048,-104.27682,4,1,0,60,0,0
7136,-102.836685,4,1,0,60,0,0
7224,-101.416435,4,1,0,60,0,0
7313,-100,4,1,0,70,0,0
17195,-100,4,1,0,70,0,0
17283,-100.943665,4,1,0,70,0,0
17371,-101.905304,4,1,0,70,0,0
17460,-102.896706,4,1,0,70,0,0
17548,-103.8961,4,1,0,70,0,0
17636,-104.91511,4,1,0,70,0,0
17724,-105.9543,4,1,0,70,0,0
17813,-107.02646,4,1,0,70,0,0
17901,-108.10811,4,1,0,70,0,0
17960,-108.84563,4,1,0,70,0,0
18018,-109.580536,4,1,0,70,0,0
18077,-110.33836,4,1,0,70,0,0
18165,-111.48835,4,1,0,70,0,0
18254,-112.676056,4,1,0,70,0,0
18313,-113.477455,4,1,0,70,0,0
18371,-114.27647,4,1,0,70,0,0
18430,-115.100876,4,1,0,70,0,0
18518,-116.352844,4,1,0,70,0,0
18607,-117.65302,4,1,0,60,0,0
18960,-119.77563,4,1,0,60,0,0
19136,-120.84819,4,1,0,60,0,0
19313,-121.93653,4,1,0,60,0,0
19665,-124.13012,4,1,0,60,0,0
19842,-125.248024,4,1,0,60,0,0
20018,-126.36959,4,1,0,60,0,0
20195,-127.50765,4,1,0,60,0,0
20548,-129.80806,4,1,0,60,0,0
20724,-130.97046,4,1,0,60,0,0
21077,-133.33333,4,1,0,60,0,0
21431,-100,4,1,0,60,0,0
21783,-117.64706,4,1,0,60,0,0
21960,-118.88409,4,1,0,60,0,0
22136,-120.127014,4,1,0,60,0,0
22313,-121.390114,4,1,0,60,0,0
22665,-123.941635,4,1,0,60,0,0
22842,-125.24486,4,1,0,60,0,0
23018,-126.554276,4,1,0,60,0,0
23195,-127.884964,4,1,0,60,0,0
23548,-130.58072,4,1,0,60,0,0
23901,-133.33333,4,1,0,60,0,0
24254,-125,4,1,0,60,0,0
24313,-122.4419,4,1,0,60,0,0
24371,-120.0272,4,1,0,60,0,0
24430,-117.66667,4,1,0,60,0,0
24489,-115.397194,4,1,0,60,0,0
24548,-113.21359,4,1,0,60,0,0
24607,-111.111115,4,1,0,60,0,0
24960,-117.64706,4,1,0,60,0,0
25313,-121.389206,4,1,0,60,0,0
25489,-123.29923,4,1,0,60,0,0
25665,-125.239296,4,1,0,60,0,0
25842,-127.22118,4,1,0,60,0,0
26195,-131.26788,4,1,0,60,0,0
26371,-133.33333,4,1,0,60,0,0
26549,-100,4,1,0,60,0,0
27077,-100,4,1,0,60,0,0
27783,-117.64706,4,1,0,60,0,0
28489,-142.85715,4,1,0,60,0,0
29548,-100,4,1,0,70,0,0
29636,-95.250946,4,1,0,70,0,0
29724,-90.9325,4,1,0,70,0,0
29813,-86.945816,4,1,0,70,0,0
29902,-83.33333,4,1,0,90,0,1
39077,-83.33333,4,1,0,90,0,1
39254,-84.6194,4,1,0,90,0,1
39342,-85.2737,4,1,0,90,0,1
39430,-85.93819,4,1,0,90,0,1
39489,-86.38953,4,1,0,90,0,1
39548,-86.845634,4,1,0,90,0,1
39607,-87.30658,4,1,0,90,0,1
39695,-88.00326,4,1,0,90,0,1
39783,-88.71114,4,1,0,90,0,1
39901,-89.67843,4,1,0,90,0,1
40018,-90.65856,4,1,0,90,0,1
40136,-91.66903,4,1,0,90,0,1
40225,-92.18275,4,1,0,90,0,1
40313,-93.22767,4,1,0,90,0,1
40401,-94.02248,4,1,0,90,0,1
40489,-94.830956,4,1,0,90,0,1
40577,-95.653465,4,1,0,90,0,1
40665,-96.49036,4,1,0,90,0,1
40842,-98.2188,4,1,0,90,0,1
41018,-100,4,1,0,90,0,1
41196,352.941176470588,3,1,0,100,1,0
41196,-83.33333,3,1,0,100,0,0
41283,-84.03202,3,1,0,100,0,0
41459,-85.46512,3,1,0,100,0,0
41547,-86.20016,3,1,0,100,0,0
41636,-86.95652,3,1,0,100,0,0
41724,-87.71756,3,1,0,100,0,0
41812,-88.49202,3,1,0,100,0,0
41900,-89.2803,3,1,0,100,0,0
41989,-90.09193,3,1,0,100,0,0
42077,-90.90909,3,1,0,100,0,0
42253,-83.33333,3,1,0,100,0,0
42342,-84.03921,3,1,0,100,0,0
42518,-85.47092,3,1,0,100,0,0
42606,-86.20521,3,1,0,100,0,0
42695,-86.96081,3,1,0,100,0,0
42783,-87.72104,3,1,0,100,0,0
42871,-88.49469,3,1,0,100,0,0
42959,-89.282104,3,1,0,100,0,0
43047,-90.08366,3,1,0,100,0,0
43136,-90.90909,3,1,0,100,0,0
43313,352.941176470588,5,1,0,100,1,0
43313,-90.90909,4,1,0,100,0,0
43400,-89.74545,4,1,0,100,0,0
43488,-88.61123,4,1,0,100,0,0
43576,-87.50532,4,1,0,100,0,0
43664,-86.42667,4,1,0,100,0,0
43753,-85.36248,4,1,0,100,0,0
43841,-84.33571,4,1,0,100,0,0
43929,-83.33333,4,1,0,100,0,0
44107,-90.90909,4,1,0,100,0,0
44194,-89.74545,4,1,0,100,0,0
44282,-88.61123,4,1,0,100,0,0
44370,-87.50532,4,1,0,100,0,0
44458,-86.42667,4,1,0,100,0,0
44547,-85.36248,4,1,0,100,0,0
44635,-84.33571,4,1,0,100,0,0
44723,-83.33333,4,1,0,100,0,0
44901,352.941176470588,5,1,0,100,1,0
44901,-83.33333,3,1,0,100,0,0
44988,-84.03202,3,1,0,100,0,0
45164,-85.46512,3,1,0,100,0,0
45252,-86.20016,3,1,0,100,0,0
45341,-86.95652,3,1,0,100,0,0
45429,-87.71756,3,1,0,100,0,0
45517,-88.49202,3,1,0,100,0,0
45605,-89.2803,3,1,0,100,0,0
45694,-90.09193,3,1,0,100,0,0
45782,-90.90909,3,1,0,100,0,0
45959,-90.90909,3,1,0,100,0,0
46046,-89.28934,3,1,0,100,0,0
46134,-87.72628,3,1,0,100,0,0
46222,-86.21701,3,1,0,100,0,0
46310,-84.7588,3,1,0,100,0,0
46399,-83.33333,3,1,0,100,0,0
46577,352.941176470588,3,1,0,100,1,0
46577,-83.33333,3,1,0,100,0,0
46664,-85.93197,3,1,0,100,0,0
46752,-88.697876,3,1,0,100,0,0
46840,-91.647766,3,1,0,100,0,0
47017,-98.217896,3,1,0,100,0,0
47193,-105.756645,3,1,0,100,0,0
47370,-114.603035,3,1,0,100,0,0
47547,352.941176470588,4,1,0,100,1,0
47547,-125,4,1,0,60,0,0
51781,-124.98024,4,1,0,60,0,0
52134,-118.19902,4,1,0,60,0,0
52487,-111.785736,4,1,0,60,0,0
52663,-108.719376,4,1,0,60,0,0
52840,-105.72042,4,1,0,60,0,0
52928,-104.260345,4,1,0,60,0,0
53016,-102.820435,4,1,0,60,0,0
53104,-101.40041,4,1,0,60,0,0
53193,-99.98419,4,1,0,70,0,0

[HitObjects]
256,192,1667,12,0,5725,0:0:0:0:
256,192,5902,5,8,0:0:0:0:
256,192,6255,1,8,0:0:0:0:
256,192,6608,1,8,0:0:0:0:
256,192,6961,1,8,0:0:0:0:
256,192,7049,1,0,0:0:0:0:
256,192,7137,1,8,0:0:0:0:
256,192,7225,1,8,0:0:0:0:
256,192,7314,1,0,0:0:0:0:
256,192,7490,1,0,0:0:0:0:
256,192,7578,1,8,0:0:0:0:
256,192,7755,1,0,0:0:0:0:
256,192,7843,1,8,0:0:0:0:
256,192,7931,1,8,0:0:0:0:
256,192,8019,1,0,0:0:0:0:
256,192,8196,1,0,0:0:0:0:
256,192,8284,1,0,0:0:0:0:
256,192,8372,1,8,0:0:0:0:
256,192,8461,1,0,0:0:0:0:
256,192,8549,1,8,0:0:0:0:
256,192,8637,1,8,0:0:0:0:
256,192,8725,1,0,0:0:0:0:
256,192,8902,1,8,0:0:0:0:
256,192,8990,1,0,0:0:0:0:
256,192,9078,1,0,0:0:0:0:
256,192,9255,1,8,0:0:0:0:
256,192,9431,1,8,0:0:0:0:
256,192,9519,1,0,0:0:0:0:
256,192,9608,1,0,0:0:0:0:
256,192,9696,1,0,0:0:0:0:
256,192,9784,1,8,0:0:0:0:
256,192,9872,1,0,0:0:0:0:
256,192,9961,1,8,0:0:0:0:
256,192,10049,1,8,0:0:0:0:
256,192,10137,1,0,0:0:0:0:
256,192,10314,1,0,0:0:0:0:
256,192,10402,1,8,0:0:0:0:
256,192,10490,1,0,0:0:0:0:
256,192,10578,1,8,0:0:0:0:
256,192,10666,1,8,0:0:0:0:
256,192,10843,1,0,0:0:0:0:
256,192,11019,1,0,0:0:0:0:
256,192,11108,1,8,0:0:0:0:
256,192,11196,1,0,0:0:0:0:
256,192,11284,1,0,0:0:0:0:
256,192,11372,1,8,0:0:0:0:
256,192,11461,1,8,0:0:0:0:
256,192,11549,1,0,0:0:0:0:
256,192,11725,1,8,0:0:0:0:
256,192,11814,1,8,0:0:0:0:
256,192,11990,1,0,0:0:0:0:
256,192,12078,1,8,0:0:0:0:
256,192,12255,1,8,0:0:0:0:
256,192,12343,1,8,0:0:0:0:
256,192,12431,1,0,0:0:0:0:
256,192,12519,1,0,0:0:0:0:
256,192,12608,1,8,0:0:0:0:
256,192,12696,1,0,0:0:0:0:
256,192,12784,1,8,0:0:0:0:
256,192,12872,1,8,0:0:0:0:
256,192,12961,1,0,0:0:0:0:
256,192,13137,1,0,0:0:0:0:
256,192,13225,1,8,0:0:0:0:
256,192,13402,1,8,0:0:0:0:
256,192,13490,1,8,0:0:0:0:
256,192,13578,1,0,0:0:0:0:
256,192,13666,1,8,0:0:0:0:
256,192,13843,1,0,0:0:0:0:
256,192,13931,1,0,0:0:0:0:
256,192,14019,1,8,0:0:0:0:
256,192,14108,1,8,0:0:0:0:
256,192,14196,1,0,0:0:0:0:
256,192,14284,1,8,0:0:0:0:
256,192,14372,1,0,0:0:0:0:
256,192,14549,1,8,0:0:0:0:
256,192,14637,1,8,0:0:0:0:
256,192,14725,1,0,0:0:0:0:
256,192,14902,1,8,0:0:0:0:
256,192,15078,1,8,0:0:0:0:
256,192,15166,1,8,0:0:0:0:
256,192,15255,1,0,0:0:0:0:
256,192,15343,1,0,0:0:0:0:
256,192,15431,1,8,0:0:0:0:
256,192,15519,1,0,0:0:0:0:
256,192,15608,1,8,0:0:0:0:
256,192,15696,1,8,0:0:0:0:
256,192,15784,1,0,0:0:0:0:
256,192,15961,1,0,0:0:0:0:
256,192,16049,1,8,0:0:0:0:
256,192,16137,1,0,0:0:0:0:
256,192,16225,1,8,0:0:0:0:
256,192,16314,1,8,0:0:0:0:
256,192,16490,1,0,0:0:0:0:
256,192,16578,1,0,0:0:0:0:
256,192,16666,1,8,0:0:0:0:
256,192,16755,1,0,0:0:0:0:
256,192,16843,1,8,0:0:0:0:
256,192,16931,1,8,0:0:0:0:
256,192,17019,1,0,0:0:0:0:
256,192,17196,1,8,0:0:0:0:
256,192,17284,1,8,0:0:0:0:
256,192,17372,1,8,0:0:0:0:
256,192,17461,1,8,0:0:0:0:
256,192,17549,1,0,0:0:0:0:
256,192,17637,1,8,0:0:0:0:
256,192,17725,1,0,0:0:0:0:
256,192,17814,1,0,0:0:0:0:
256,192,17902,1,8,0:0:0:0:
256,192,17961,1,0,0:0:0:0:
256,192,18019,1,0,0:0:0:0:
256,192,18078,1,8,0:0:0:0:
256,192,18166,1,8,0:0:0:0:
256,192,18255,1,0,0:0:0:0:
256,192,18314,1,0,0:0:0:0:
256,192,18372,1,0,0:0:0:0:
256,192,18431,1,8,0:0:0:0:
256,192,18519,1,8,0:0:0:0:
256,192,18608,1,4,0:0:0:0:
256,192,18961,1,0,0:0:0:0:
256,192,19137,1,0,0:0:0:0:
256,192,19314,1,8,0:0:0:0:
256,192,19666,1,0,0:0:0:0:
256,192,19843,1,0,0:0:0:0:
256,192,20019,1,0,0:0:0:0:
256,192,20196,1,8,0:0:0:0:
256,192,20549,1,8,0:0:0:0:
256,192,20725,1,0,0:0:0:0:
256,192,21078,1,8,0:0:0:0:
256,192,21431,1,4,0:0:0:0:
256,192,21784,1,8,0:0:0:0:
256,192,21961,1,0,0:0:0:0:
256,192,22137,1,0,0:0:0:0:
256,192,22314,1,8,0:0:0:0:
256,192,22666,1,0,0:0:0:0:
256,192,22843,1,0,0:0:0:0:
256,192,23019,1,8,0:0:0:0:
256,192,23196,1,0,0:0:0:0:
256,192,23549,1,0,0:0:0:0:
256,192,23902,1,8,0:0:0:0:
256,192,24255,1,0,0:0:0:0:
256,192,24314,1,8,0:0:0:0:
256,192,24372,1,0,0:0:0:0:
256,192,24431,1,0,0:0:0:0:
256,192,24490,1,8,0:0:0:0:
256,192,24549,1,8,0:0:0:0:
256,192,24608,1,0,0:0:0:0:
256,192,24961,1,8,0:0:0:0:
256,192,25314,1,0,0:0:0:0:
256,192,25490,1,8,0:0:0:0:
256,192,25666,1,0,0:0:0:0:
256,192,25843,1,8,0:0:0:0:
256,192,26196,1,0,0:0:0:0:
256,192,26372,1,8,0:0:0:0:
256,192,26549,1,4,0:0:0:0:
256,192,27078,1,12,0:0:0:0:
256,192,27784,1,12,0:0:0:0:
256,192,28490,1,12,0:0:0:0:
256,192,29549,1,0,0:0:0:0:
256,192,29637,1,0,0:0:0:0:
256,192,29725,1,0,0:0:0:0:
256,192,29814,1,0,0:0:0:0:
256,192,29902,1,8,0:0:0:0:
256,192,30078,1,0,0:0:0:0:
256,192,30166,1,8,0:0:0:0:
256,192,30255,1,0,0:0:0:0:
256,192,30431,1,8,0:0:0:0:
256,192,30519,1,8,0:0:0:0:
256,192,30608,1,0,0:0:0:0:
256,192,30784,1,0,0:0:0:0:
256,192,30872,1,0,0:0:0:0:
256,192,30961,1,8,0:0:0:0:
256,192,31049,1,0,0:0:0:0:
256,192,31137,1,0,0:0:0:0:
256,192,31225,1,0,0:0:0:0:
256,192,31314,1,8,0:0:0:0:
256,192,31490,1,0,0:0:0:0:
256,192,31578,1,8,0:0:0:0:
256,192,31666,1,8,0:0:0:0:
256,192,31843,1,0,0:0:0:0:
256,192,31931,1,8,0:0:0:0:
256,192,32019,1,0,0:0:0:0:
256,192,32108,1,0,0:0:0:0:
256,192,32196,1,8,0:0:0:0:
256,192,32284,1,0,0:0:0:0:
256,192,32372,1,8,0:0:0:0:
256,192,32461,1,8,0:0:0:0:
256,192,32549,1,0,0:0:0:0:
256,192,32637,1,0,0:0:0:0:
256,192,32725,1,8,0:0:0:0:
256,192,32902,1,0,0:0:0:0:
256,192,32990,1,0,0:0:0:0:
256,192,33078,1,8,0:0:0:0:
256,192,33255,1,8,0:0:0:0:
256,192,33343,1,0,0:0:0:0:
256,192,33431,1,8,0:0:0:0:
256,192,33608,1,0,0:0:0:0:
256,192,33696,1,0,0:0:0:0:
256,192,33784,1,8,0:0:0:0:
256,192,33872,1,0,0:0:0:0:
256,192,33961,1,8,0:0:0:0:
256,192,34049,1,8,0:0:0:0:
256,192,34137,1,0,0:0:0:0:
256,192,34314,1,8,0:0:0:0:
256,192,34402,1,8,0:0:0:0:
256,192,34490,1,0,0:0:0:0:
256,192,34666,1,0,0:0:0:0:
256,192,34755,1,0,0:0:0:0:
256,192,34843,1,8,0:0:0:0:
256,192,34931,1,0,0:0:0:0:
256,192,35019,1,0,0:0:0:0:
256,192,35108,1,0,0:0:0:0:
256,192,35196,1,8,0:0:0:0:
256,192,35284,1,8,0:0:0:0:
256,192,35372,1,0,0:0:0:0:
256,192,35461,1,0,0:0:0:0:
256,192,35549,1,8,0:0:0:0:
256,192,35725,1,0,0:0:0:0:
256,192,35814,1,8,0:0:0:0:
256,192,35902,1,0,0:0:0:0:
256,192,36078,1,8,0:0:0:0:
256,192,36166,1,8,0:0:0:0:
256,192,36255,1,0,0:0:0:0:
256,192,36431,1,0,0:0:0:0:
256,192,36519,1,0,0:0:0:0:
256,192,36608,1,8,0:0:0:0:
256,192,36696,1,8,0:0:0:0:
256,192,36784,1,0,0:0:0:0:
256,192,36872,1,0,0:0:0:0:
256,192,36961,1,8,0:0:0:0:
256,192,37137,1,0,0:0:0:0:
256,192,37225,1,8,0:0:0:0:
256,192,37314,1,0,0:0:0:0:
256,192,37372,1,0,0:0:0:0:
256,192,37431,1,0,0:0:0:0:
256,192,37490,1,8,0:0:0:0:
256,192,37578,1,0,0:0:0:0:
256,192,37666,1,8,0:0:0:0:
256,192,37725,1,8,0:0:0:0:
256,192,37784,1,8,0:0:0:0:
256,192,37843,1,0,0:0:0:0:
256,192,37931,1,0,0:0:0:0:
256,192,38019,1,8,0:0:0:0:
256,192,38078,1,0,0:0:0:0:
256,192,38137,1,0,0:0:0:0:
256,192,38196,1,8,0:0:0:0:
256,192,38284,1,8,0:0:0:0:
256,192,38372,1,0,0:0:0:0:
256,192,38549,1,8,0:0:0:0:
256,192,38637,1,0,0:0:0:0:
256,192,38725,1,0,0:0:0:0:
256,192,38814,1,8,0:0:0:0:
256,192,38902,1,8,0:0:0:0:
256,192,39078,1,0,0:0:0:0:
256,192,39255,1,8,0:0:0:0:
256,192,39343,1,8,0:0:0:0:
256,192,39431,1,0,0:0:0:0:
256,192,39490,1,8,0:0:0:0:
256,192,39549,1,8,0:0:0:0:
256,192,39608,1,0,0:0:0:0:
256,192,39696,1,0,0:0:0:0:
256,192,39784,1,8,0:0:0:0:
256,192,39902,1,8,0:0:0:0:
256,192,40019,1,0,0:0:0:0:
256,192,40137,1,0,0:0:0:0:
256,192,40225,1,0,0:0:0:0:
256,192,40314,1,8,0:0:0:0:
256,192,40402,1,8,0:0:0:0:
256,192,40490,1,0,0:0:0:0:
256,192,40578,1,8,0:0:0:0:
256,192,40666,1,0,0:0:0:0:
256,192,40843,1,8,0:0:0:0:
256,192,41019,1,8,0:0:0:0:
256,192,41196,1,0,0:0:0:0:
256,192,41284,1,8,0:0:0:0:
256,192,41460,1,0,0:0:0:0:
256,192,41548,1,8,0:0:0:0:
256,192,41637,1,8,0:0:0:0:
256,192,41725,1,0,0:0:0:0:
256,192,41813,1,0,0:0:0:0:
256,192,41901,1,8,0:0:0:0:
256,192,41990,1,0,0:0:0:0:
256,192,42078,1,8,0:0:0:0:
256,192,42254,1,0,0:0:0:0:
256,192,42343,1,8,0:0:0:0:
256,192,42519,1,0,0:0:0:0:
256,192,42607,1,8,0:0:0:0:
256,192,42696,1,8,0:0:0:0:
256,192,42784,1,0,0:0:0:0:
256,192,42872,1,8,0:0:0:0:
256,192,42960,1,0,0:0:0:0:
256,192,43048,1,0,0:0:0:0:
256,192,43137,1,8,0:0:0:0:
256,192,43313,1,0,0:0:0:0:
256,192,43401,1,8,0:0:0:0:
256,192,43489,1,0,0:0:0:0:
256,192,43577,1,0,0:0:0:0:
256,192,43665,1,8,0:0:0:0:
256,192,43754,1,8,0:0:0:0:
256,192,43842,1,0,0:0:0:0:
256,192,43930,1,8,0:0:0:0:
256,192,44107,1,0,0:0:0:0:
256,192,44195,1,8,0:0:0:0:
256,192,44283,1,0,0:0:0:0:
256,192,44371,1,8,0:0:0:0:
256,192,44460,1,8,0:0:0:0:
256,192,44548,1,0,0:0:0:0:
256,192,44636,1,0,0:0:0:0:
256,192,44724,1,8,0:0:0:0:
256,192,44901,1,0,0:0:0:0:
256,192,44989,1,8,0:0:0:0:
256,192,45165,1,0,0:0:0:0:
256,192,45253,1,8,0:0:0:0:
256,192,45342,1,0,0:0:0:0:
256,192,45430,1,8,0:0:0:0:
256,192,45518,1,8,0:0:0:0:
256,192,45606,1,0,0:0:0:0:
256,192,45695,1,0,0:0:0:0:
256,192,45783,1,8,0:0:0:0:
256,192,45959,1,0,0:0:0:0:
256,192,46048,1,8,0:0:0:0:
256,192,46136,1,0,0:0:0:0:
256,192,46224,1,8,0:0:0:0:
256,192,46312,1,8,0:0:0:0:
256,192,46401,1,0,0:0:0:0:
256,192,46577,1,0,0:0:0:0:
256,192,46665,1,8,0:0:0:0:
256,192,46753,1,8,0:0:0:0:
256,192,46841,1,0,0:0:0:0:
256,192,47018,1,8,0:0:0:0:
256,192,47194,1,8,0:0:0:0:
256,192,47371,1,0,0:0:0:0:
256,192,47547,1,0,0:0:0:0:
256,192,48076,1,0,0:0:0:0:
256,192,48605,1,0,0:0:0:0:
256,192,49135,1,0,0:0:0:0:
256,192,49488,1,0,0:0:0:0:
256,192,50017,1,0,0:0:0:0:
256,192,50370,1,8,0:0:0:0:
256,192,51782,1,0,0:0:0:0:
256,192,52135,1,0,0:0:0:0:
256,192,52488,1,0,0:0:0:0:
256,192,52664,1,0,0:0:0:0:
256,192,52841,1,0,0:0:0:0:
256,192,52929,1,0,0:0:0:0:
256,192,53017,1,0,0:0:0:0:
256,192,53105,1,0,0:0:0:0:
256,192,53194,1,8,0:0:0:0:
