osu file format v14

[General]
AudioFilename: galacta.mp3
AudioLeadIn: 0
PreviewTime: 7314
Countdown: 0
SampleSet: Normal
StackLeniency: 0.7
Mode: 1
LetterboxInBreaks: 0
WidescreenStoryboard: 1

[Editor]
Bookmarks: 53193
DistanceSpacing: 1
BeatDivisor: 4
GridSize: 32
TimelineZoom: 2.499999

[Metadata]
Title:Toki Meguru Ginga Saikyou no Senshi
TitleUnicode:時巡る銀河最強の戦士
Artist:Jun Ishikawa
ArtistUnicode:石川淳
Creator:MTNTWarz
Version:Oni
Source:星のカービィ ロボボプラネット
Tags:taikoseania hoshi no kaabi kirby planet robobot hal laboratory nintendo 3ds video game electronic instrumental galacta knight meta knightmare returns final boss time-travelling ultimate warrior
BeatmapID:3537424
BeatmapSetID:1730500

[Difficulty]
HPDrainRate:7
CircleSize:5
OverallDifficulty:6
ApproachRate:5
SliderMultiplier:1.4
SliderTickRate:1

[Events]
//Background and Video events
0,0,"BG2.jpg",0,70
//Break Periods
//Storyboard Layer 0 (Background)
//Storyboard Layer 1 (Fail)
//Storyboard Layer 2 (Pass)
//Storyboard Layer 3 (Foreground)
//Storyboard Layer 4 (Overlay)
//Storyboard Sound Samples

[TimingPoints]
1667,352.941176470588,4,1,0,50,1,0
1667,-111.111111111111,4,1,0,50,0,0
5901,-111.111115,4,1,0,50,0,0
6254,-108.10604,4,1,0,50,0,0
6607,-105.25923,4,1,0,50,0,0
6960,-102.55852,4,1,0,60,0,0
7048,-101.906685,4,1,0,60,0,0
7136,-101.26309,4,1,0,60,0,0
7224,-100.62759,4,1,0,60,0,0
7313,-99.992905,4,1,0,70,0,0
17195,-99.9929,4,1,0,70,0,0
17283,-100.93756,4,1,0,70,0,0
17371,-101.90024,4,1,0,70,0,0
17460,-102.89271,4,1,0,70,0,0
17548,-103.89323,4,1,0,70,0,0
17724,-105.9538,4,1,0,70,0,0
17901,-108.110176,4,1,0,70,0,0
17989,-109.21528,4,1,0,70,0,0
18077,-110.34321,4,1,0,70,0,0
18165,-111.494675,4,1,0,70,0,0
18254,-112.68393,4,1,0,70,0,0
18342,-113.88503,4,1,0,70,0,0
18430,-115.11203,4,1,0,70,0,0
18607,-117.66178,4,1,0,60,0,0
27077,-117.66178,4,1,0,60,0,0
27783,-129.0411,4,1,0,60,0,0
28489,-142.85715,4,1,0,60,0,0
29548,-100,4,1,0,60,0,0
29636,-97.560974,4,1,0,60,0,0
29724,-95.2381,4,1,0,60,0,0
29813,-92.99867,4,1,0,60,0,0
29902,-90.88562,4,1,0,90,0,1
41196,352.941176470588,3,1,0,100,1,0
41196,-83.3333333333333,3,1,0,100,0,0
42254,-83.3333333333333,3,1,0,100,0,0
43313,352.941176470588,5,1,0,100,1,0
43313,-83.3333333333333,5,1,0,100,0,0
44107,-83.3333333333333,5,1,0,100,0,8
44901,352.941176470588,5,1,0,100,1,0
44901,-83.3333333333333,5,1,0,100,0,0
45959,-83.3333333333333,3,1,0,100,0,8
46577,352.941176470588,3,1,0,100,1,0
46577,-83.33333,3,1,0,100,0,0
46664,-85.26723,3,1,0,100,0,0
46752,-87.293015,3,1,0,100,0,0
46840,-89.417404,3,1,0,100,0,0
47017,-94.01958,3,1,0,100,0,0
47193,-99.09082,3,1,0,100,0,0
47370,-104.774254,3,1,0,100,0,0
47547,352.941176470588,4,1,0,100,1,0
47547,-111.111115,4,1,0,60,0,0
51781,-111.111115,4,1,0,60,0,0
52134,-108.10604,4,1,0,60,0,0
52487,-105.25923,4,1,0,60,0,0
52663,-103.89515,4,1,0,60,0,0
52840,-102.55852,4,1,0,60,0,0
52928,-101.906685,4,1,0,60,0,0
53016,-101.26309,4,1,0,60,0,0
53104,-100.62759,4,1,0,60,0,0
53193,-99.992905,4,1,0,70,0,0

[HitObjects]
256,192,1667,12,0,5725,0:0:0:0:
256,192,5902,5,8,0:0:0:0:
256,192,6255,1,8,0:0:0:0:
256,192,6608,1,8,0:0:0:0:
256,192,6961,1,8,0:0:0:0:
256,192,7049,1,8,0:0:0:0:
256,192,7137,1,8,0:0:0:0:
256,192,7225,1,8,0:0:0:0:
256,192,7314,1,0,0:0:0:0:
256,192,7490,1,0,0:0:0:0:
256,192,7578,1,8,0:0:0:0:
256,192,7755,1,0,0:0:0:0:
256,192,7843,1,8,0:0:0:0:
256,192,8019,1,0,0:0:0:0:
256,192,8196,1,8,0:0:0:0:
256,192,8284,1,8,0:0:0:0:
256,192,8372,1,0,0:0:0:0:
256,192,8461,1,0,0:0:0:0:
256,192,8549,1,8,0:0:0:0:
256,192,8725,1,0,0:0:0:0:
256,192,8902,1,8,0:0:0:0:
256,192,8990,1,0,0:0:0:0:
256,192,9078,1,0,0:0:0:0:
256,192,9255,1,8,0:0:0:0:
256,192,9608,1,0,0:0:0:0:
256,192,9784,1,8,0:0:0:0:
256,192,9872,1,8,0:0:0:0:
256,192,9961,1,0,0:0:0:0:
256,192,10137,1,0,0:0:0:0:
256,192,10314,1,0,0:0:0:0:
256,192,10402,1,8,0:0:0:0:
256,192,10490,1,0,0:0:0:0:
256,192,10666,1,8,0:0:0:0:
256,192,10843,1,0,0:0:0:0:
256,192,11019,1,8,0:0:0:0:
256,192,11108,1,0,0:0:0:0:
256,192,11196,1,8,0:0:0:0:
256,192,11284,1,8,0:0:0:0:
256,192,11372,1,0,0:0:0:0:
256,192,11549,1,0,0:0:0:0:
256,192,11725,1,8,0:0:0:0:
256,192,11814,1,8,0:0:0:0:
256,192,11990,1,0,0:0:0:0:
256,192,12078,1,8,0:0:0:0:
256,192,12431,1,0,0:0:0:0:
256,192,12608,1,8,0:0:0:0:
256,192,12696,1,8,0:0:0:0:
256,192,12784,1,8,0:0:0:0:
256,192,12961,1,0,0:0:0:0:
256,192,13137,1,0,0:0:0:0:
256,192,13225,1,8,0:0:0:0:
256,192,13402,1,8,0:0:0:0:
256,192,13490,1,8,0:0:0:0:
256,192,13666,1,0,0:0:0:0:
256,192,13843,1,8,0:0:0:0:
256,192,13931,1,0,0:0:0:0:
256,192,14019,1,0,0:0:0:0:
256,192,14108,1,0,0:0:0:0:
256,192,14196,1,8,0:0:0:0:
256,192,14372,1,0,0:0:0:0:
256,192,14549,1,8,0:0:0:0:
256,192,14637,1,8,0:0:0:0:
256,192,14725,1,0,0:0:0:0:
256,192,14902,1,8,0:0:0:0:
256,192,15255,1,0,0:0:0:0:
256,192,15431,1,8,0:0:0:0:
256,192,15519,1,8,0:0:0:0:
256,192,15608,1,0,0:0:0:0:
256,192,15784,1,0,0:0:0:0:
256,192,15961,1,0,0:0:0:0:
256,192,16049,1,8,0:0:0:0:
256,192,16137,1,0,0:0:0:0:
256,192,16314,1,8,0:0:0:0:
256,192,16490,1,0,0:0:0:0:
256,192,16666,1,0,0:0:0:0:
256,192,16755,1,0,0:0:0:0:
256,192,16843,1,8,0:0:0:0:
256,192,16931,1,0,0:0:0:0:
256,192,17019,1,8,0:0:0:0:
256,192,17196,1,8,0:0:0:0:
256,192,17284,1,8,0:0:0:0:
256,192,17372,1,8,0:0:0:0:
256,192,17461,1,8,0:0:0:0:
256,192,17549,1,0,0:0:0:0:
256,192,17725,1,8,0:0:0:0:
256,192,17902,1,0,0:0:0:0:
256,192,17990,1,8,0:0:0:0:
256,192,18078,1,0,0:0:0:0:
256,192,18166,1,0,0:0:0:0:
256,192,18255,1,8,0:0:0:0:
256,192,18343,1,8,0:0:0:0:
256,192,18431,1,0,0:0:0:0:
256,192,18608,1,4,0:0:0:0:
256,192,18961,1,0,0:0:0:0:
256,192,19137,1,0,0:0:0:0:
256,192,19314,1,8,0:0:0:0:
256,192,19666,1,0,0:0:0:0:
256,192,19843,1,0,0:0:0:0:
256,192,20019,1,0,0:0:0:0:
256,192,20196,1,8,0:0:0:0:
256,192,20549,1,8,0:0:0:0:
256,192,20725,1,0,0:0:0:0:
256,192,21078,1,8,0:0:0:0:
256,192,21431,1,4,0:0:0:0:
256,192,21784,1,8,0:0:0:0:
256,192,21961,1,0,0:0:0:0:
256,192,22137,1,0,0:0:0:0:
256,192,22314,1,8,0:0:0:0:
256,192,22666,1,0,0:0:0:0:
256,192,22843,1,0,0:0:0:0:
256,192,23019,1,8,0:0:0:0:
256,192,23196,1,0,0:0:0:0:
256,192,23549,1,0,0:0:0:0:
256,192,23902,1,8,0:0:0:0:
256,192,24255,1,0,0:0:0:0:
256,192,24343,1,0,0:0:0:0:
256,192,24431,1,0,0:0:0:0:
256,192,24519,1,0,0:0:0:0:
256,192,24608,1,0,0:0:0:0:
256,192,24961,1,8,0:0:0:0:
256,192,25314,1,0,0:0:0:0:
256,192,25490,1,8,0:0:0:0:
256,192,25666,1,0,0:0:0:0:
256,192,25843,1,8,0:0:0:0:
256,192,26196,1,0,0:0:0:0:
256,192,26372,1,8,0:0:0:0:
256,192,26549,1,4,0:0:0:0:
256,192,27078,1,12,0:0:0:0:
256,192,27784,1,12,0:0:0:0:
256,192,28490,1,12,0:0:0:0:
256,192,29549,1,0,0:0:0:0:
256,192,29637,1,0,0:0:0:0:
256,192,29725,1,0,0:0:0:0:
256,192,29814,1,0,0:0:0:0:
256,192,29902,1,8,0:0:0:0:
256,192,30255,1,8,0:0:0:0:
256,192,30431,1,0,0:0:0:0:
256,192,30608,1,0,0:0:0:0:
256,192,30696,1,8,0:0:0:0:
256,192,30784,1,0,0:0:0:0:
256,192,30872,1,0,0:0:0:0:
256,192,30961,1,8,0:0:0:0:
256,192,31137,1,8,0:0:0:0:
256,192,31225,1,8,0:0:0:0:
256,192,31314,1,0,0:0:0:0:
256,192,31490,1,8,0:0:0:0:
256,192,31666,1,0,0:0:0:0:
256,192,31843,1,8,0:0:0:0:
256,192,31931,1,8,0:0:0:0:
256,192,32019,1,0,0:0:0:0:
256,192,32196,1,0,0:0:0:0:
256,192,32284,1,0,0:0:0:0:
256,192,32372,1,8,0:0:0:0:
256,192,32461,1,8,0:0:0:0:
256,192,32549,1,0,0:0:0:0:
256,192,32725,1,8,0:0:0:0:
256,192,32902,1,0,0:0:0:0:
256,192,32990,1,0,0:0:0:0:
256,192,33078,1,8,0:0:0:0:
256,192,33255,1,0,0:0:0:0:
256,192,33431,1,8,0:0:0:0:
256,192,33519,1,8,0:0:0:0:
256,192,33608,1,0,0:0:0:0:
256,192,33696,1,0,0:0:0:0:
256,192,33784,1,8,0:0:0:0:
256,192,33961,1,0,0:0:0:0:
256,192,34049,1,0,0:0:0:0:
256,192,34137,1,8,0:0:0:0:
256,192,34314,1,0,0:0:0:0:
256,192,34490,1,8,0:0:0:0:
256,192,34666,1,0,0:0:0:0:
256,192,34755,1,8,0:0:0:0:
256,192,34843,1,0,0:0:0:0:
256,192,35019,1,0,0:0:0:0:
256,192,35108,1,0,0:0:0:0:
256,192,35196,1,8,0:0:0:0:
256,192,35284,1,0,0:0:0:0:
256,192,35372,1,8,0:0:0:0:
256,192,35549,1,8,0:0:0:0:
256,192,35902,1,0,0:0:0:0:
256,192,36078,1,8,0:0:0:0:
256,192,36166,1,8,0:0:0:0:
256,192,36255,1,0,0:0:0:0:
256,192,36431,1,0,0:0:0:0:
256,192,36608,1,8,0:0:0:0:
256,192,36696,1,0,0:0:0:0:
256,192,36784,1,8,0:0:0:0:
256,192,36872,1,8,0:0:0:0:
256,192,36961,1,0,0:0:0:0:
256,192,37137,1,0,0:0:0:0:
256,192,37225,1,8,0:0:0:0:
256,192,37314,1,0,0:0:0:0:
256,192,37490,1,8,0:0:0:0:
256,192,37666,1,0,0:0:0:0:
256,192,37755,1,0,0:0:0:0:
256,192,37843,1,8,0:0:0:0:
256,192,37931,1,8,0:0:0:0:
256,192,38019,1,0,0:0:0:0:
256,192,38196,1,8,0:0:0:0:
256,192,38284,1,8,0:0:0:0:
256,192,38372,1,0,0:0:0:0:
256,192,38549,1,8,0:0:0:0:
256,192,38725,1,0,0:0:0:0:
256,192,38902,1,8,0:0:0:0:
256,192,38990,1,0,0:0:0:0:
256,192,39078,1,8,0:0:0:0:
256,192,39255,1,0,0:0:0:0:
256,192,39343,1,0,0:0:0:0:
256,192,39431,1,8,0:0:0:0:
256,192,39519,1,0,0:0:0:0:
256,192,39608,1,8,0:0:0:0:
256,192,39784,1,0,0:0:0:0:
256,192,40137,1,0,0:0:0:0:
256,192,40314,1,8,0:0:0:0:
256,192,40490,1,0,0:0:0:0:
256,192,40578,1,8,0:0:0:0:
256,192,40666,1,0,0:0:0:0:
256,192,40843,1,8,0:0:0:0:
256,192,41019,1,8,0:0:0:0:
256,192,41196,1,0,0:0:0:0:
256,192,41284,1,8,0:0:0:0:
256,192,41460,1,0,0:0:0:0:
256,192,41548,1,8,0:0:0:0:
256,192,41637,1,8,0:0:0:0:
256,192,41725,1,0,0:0:0:0:
256,192,41901,1,8,0:0:0:0:
256,192,42078,1,8,0:0:0:0:
256,192,42254,1,0,0:0:0:0:
256,192,42343,1,8,0:0:0:0:
256,192,42519,1,0,0:0:0:0:
256,192,42607,1,8,0:0:0:0:
256,192,42696,1,8,0:0:0:0:
256,192,42784,1,0,0:0:0:0:
256,192,42960,1,8,0:0:0:0:
256,192,43137,1,8,0:0:0:0:
256,192,43313,1,0,0:0:0:0:
256,192,43401,1,8,0:0:0:0:
256,192,43489,1,0,0:0:0:0:
256,192,43577,1,0,0:0:0:0:
256,192,43754,1,8,0:0:0:0:
256,192,43930,1,8,0:0:0:0:
256,192,44107,1,0,0:0:0:0:
256,192,44195,1,8,0:0:0:0:
256,192,44283,1,0,0:0:0:0:
256,192,44371,1,8,0:0:0:0:
256,192,44548,1,8,0:0:0:0:
256,192,44724,1,8,0:0:0:0:
256,192,44901,1,0,0:0:0:0:
256,192,44989,1,8,0:0:0:0:
256,192,45165,1,0,0:0:0:0:
256,192,45253,1,8,0:0:0:0:
256,192,45342,1,8,0:0:0:0:
256,192,45430,1,0,0:0:0:0:
256,192,45606,1,8,0:0:0:0:
256,192,45783,1,8,0:0:0:0:
256,192,45959,1,0,0:0:0:0:
256,192,46048,1,8,0:0:0:0:
256,192,46136,1,0,0:0:0:0:
256,192,46224,1,8,0:0:0:0:
256,192,46401,1,8,0:0:0:0:
256,192,46577,1,0,0:0:0:0:
256,192,46665,1,8,0:0:0:0:
256,192,46753,1,8,0:0:0:0:
256,192,46841,1,0,0:0:0:0:
256,192,47018,1,8,0:0:0:0:
256,192,47194,1,8,0:0:0:0:
256,192,47371,1,0,0:0:0:0:
256,192,47547,1,0,0:0:0:0:
256,192,48076,1,0,0:0:0:0:
256,192,48605,1,0,0:0:0:0:
256,192,49135,1,0,0:0:0:0:
256,192,49488,1,0,0:0:0:0:
256,192,50017,1,0,0:0:0:0:
256,192,50370,1,8,0:0:0:0:
256,192,51782,1,0,0:0:0:0:
256,192,52135,1,0,0:0:0:0:
256,192,52488,1,0,0:0:0:0:
256,192,52664,1,0,0:0:0:0:
256,192,52841,1,0,0:0:0:0:
256,192,52929,1,0,0:0:0:0:
256,192,53017,1,0,0:0:0:0:
256,192,53105,1,0,0:0:0:0:
256,192,53194,1,8,0:0:0:0:
