osu file format v14

[General]
AudioFilename: galacta.mp3
AudioLeadIn: 0
PreviewTime: 7314
Countdown: 0
SampleSet: Normal
StackLeniency: 0.7
Mode: 1
LetterboxInBreaks: 0
WidescreenStoryboard: 1

[Editor]
Bookmarks: 53193
DistanceSpacing: 1
BeatDivisor: 12
GridSize: 32
TimelineZoom: 2.499999

[Metadata]
Title:Toki Meguru Ginga Saikyou no Senshi
TitleUnicode:時巡る銀河最強の戦士
Artist:Jun Ishikawa
ArtistUnicode:石川淳
Creator:MTNTWarz
Version:Kantan
Source:星のカービィ ロボボプラネット
Tags:taikoseania hoshi no kaabi kirby planet robobot hal laboratory nintendo 3ds video game electronic instrumental galacta knight meta knightmare returns final boss time-travelling ultimate warrior
BeatmapID:3537422
BeatmapSetID:1730500

[Difficulty]
HPDrainRate:9.5
CircleSize:5
OverallDifficulty:3
ApproachRate:5
SliderMultiplier:1.4
SliderTickRate:3

[Events]
//Background and Video events
0,0,"BG2.jpg",0,-80
//Break Periods
//Storyboard Layer 0 (Background)
//Storyboard Layer 1 (Fail)
//Storyboard Layer 2 (Pass)
//Storyboard Layer 3 (Foreground)
//Storyboard Layer 4 (Overlay)
//Storyboard Sound Samples

[TimingPoints]
1667,352.941176470588,4,1,0,50,1,0
1667,-100,4,1,0,50,0,0
6960,-100,4,1,0,60,0,0
7313,-100,4,1,0,70,0,0
18607,-100,4,1,0,60,0,0
29902,-100,4,1,0,90,0,1
41196,352.941176470588,3,1,0,100,1,0
41196,-100,3,1,0,100,0,0
43313,352.941176470588,5,1,0,100,1,0
44901,352.941176470588,5,1,0,100,1,0
46577,352.941176470588,3,1,0,100,1,0
47547,352.941176470588,4,1,0,100,1,0
47547,-100,4,1,0,60,0,0
53193,-100,4,1,0,70,0,0

[HitObjects]
256,192,1667,12,0,5902,0:0:0:0:
256,192,7314,5,0,0:0:0:0:
256,192,7843,1,8,0:0:0:0:
256,192,8372,1,0,0:0:0:0:
256,192,8725,1,0,0:0:0:0:
256,192,9255,1,8,0:0:0:0:
256,192,9784,1,0,0:0:0:0:
256,192,10137,1,0,0:0:0:0:
256,192,10402,1,0,0:0:0:0:
256,192,10666,1,8,0:0:0:0:
256,192,11196,1,0,0:0:0:0:
256,192,11549,1,0,0:0:0:0:
256,192,11814,1,0,0:0:0:0:
256,192,12078,1,8,0:0:0:0:
256,192,12961,1,0,0:0:0:0:
256,192,13490,1,8,0:0:0:0:
256,192,14019,1,8,0:0:0:0:
256,192,14372,1,0,0:0:0:0:
256,192,14902,1,8,0:0:0:0:
256,192,15431,1,8,0:0:0:0:
256,192,15784,1,0,0:0:0:0:
256,192,16049,1,0,0:0:0:0:
256,192,16314,1,8,0:0:0:0:
256,192,16843,1,8,0:0:0:0:
256,192,17196,1,0,0:0:0:0:
256,192,17461,1,0,0:0:0:0:
256,192,17725,1,8,0:0:0:0:
256,192,18255,1,8,0:0:0:0:
256,192,18608,1,4,0:0:0:0:
256,192,20196,1,8,0:0:0:0:
256,192,20725,1,0,0:0:0:0:
256,192,21078,1,8,0:0:0:0:
256,192,21431,1,4,0:0:0:0:
256,192,23019,1,8,0:0:0:0:
256,192,23549,1,0,0:0:0:0:
256,192,23902,1,8,0:0:0:0:
256,192,24255,2,8,L|288:192,6,23.3333333333333
256,192,24961,1,8,0:0:0:0:
256,192,25490,1,8,0:0:0:0:
256,192,25843,1,0,0:0:0:0:
256,192,26549,1,4,0:0:0:0:
256,192,27078,1,12,0:0:0:0:
256,192,27784,1,12,0:0:0:0:
256,192,28490,1,12,0:0:0:0:
256,192,29902,1,8,0:0:0:0:
256,192,30608,1,0,0:0:0:0:
256,192,30961,1,8,0:0:0:0:
256,192,31314,1,0,0:0:0:0:
256,192,32019,1,8,0:0:0:0:
256,192,32372,1,8,0:0:0:0:
256,192,32725,1,0,0:0:0:0:
256,192,33431,1,0,0:0:0:0:
256,192,33784,1,8,0:0:0:0:
256,192,34137,1,0,0:0:0:0:
256,192,34490,1,0,0:0:0:0:
256,192,34843,1,8,0:0:0:0:
256,192,35196,1,0,0:0:0:0:
256,192,35549,1,8,0:0:0:0:
256,192,36961,1,0,0:0:0:0:
256,192,37314,1,8,0:0:0:0:
256,192,37666,1,8,0:0:0:0:
256,192,38019,1,8,0:0:0:0:
256,192,38372,1,0,0:0:0:0:
256,192,39078,1,8,0:0:0:0:
256,192,39431,1,8,0:0:0:0:
256,192,39784,1,0,0:0:0:0:
256,192,40490,1,0,0:0:0:0:
256,192,40843,1,8,0:0:0:0:
256,192,41196,1,0,0:0:0:0:
256,192,42254,1,0,0:0:0:0:
256,192,42960,1,8,0:0:0:0:
256,192,43313,1,0,0:0:0:0:
256,192,44107,1,8,0:0:0:0:
256,192,44901,1,0,0:0:0:0:
256,192,45959,1,0,0:0:0:0:
256,192,46577,1,0,0:0:0:0:
256,192,46841,1,8,0:0:0:0:
256,192,47194,1,8,0:0:0:0:
256,192,47547,1,0,0:0:0:0:
256,192,50370,1,8,0:0:0:0:
256,192,51782,1,0,0:0:0:0:
256,192,52135,1,0,0:0:0:0:
256,192,52488,1,0,0:0:0:0:
256,192,52664,1,0,0:0:0:0:
256,192,52841,1,0,0:0:0:0:
256,192,53194,1,8,0:0:0:0:
