osu file format v14

[General]
AudioFilename: audio.mp3
AudioLeadIn: 0
PreviewTime: 18262
Countdown: 1
SampleSet: Soft
StackLeniency: 0.7
Mode: 0
LetterboxInBreaks: 0
WidescreenStoryboard: 1

[Editor]
Bookmarks: 6615,38027,43762,52851
DistanceSpacing: 1.1
BeatDivisor: 2
GridSize: 32
TimelineZoom: 1.800005

[Metadata]
Title:Toki Meguru Ginga Saikyou no Senshi
TitleUnicode:時巡る銀河最強の戦士
Artist:Jun Ishikawa
ArtistUnicode:石川淳
Creator:Bubblun
Version:Normal
Source:星のカービィ ロボボプラネット
Tags:kirby planet robobot nintendo hal laboratory galacta meta knight hoshi no kaabi puranetto
BeatmapID:1255332
BeatmapSetID:592485

[Difficulty]
HPDrainRate:4
CircleSize:3.1
OverallDifficulty:4
ApproachRate:5.3
SliderMultiplier:1.19999990463257
SliderTickRate:1

[Events]
//Background and Video events
0,0,"BG2.png",0,0
//Break Periods
2,1564,5504
2,18505,22752
//Storyboard Layer 0 (Background)
//Storyboard Layer 1 (Fail)
//Storyboard Layer 2 (Pass)
//Storyboard Layer 3 (Foreground)
//Storyboard Sound Samples

[TimingPoints]
-47,352.941176470588,4,2,1,80,1,0
7276,-100,4,2,1,90,0,0
7541,-100,4,2,1,100,0,0
7717,-100,4,2,1,80,0,0
8070,-100,4,2,1,90,0,0
8423,-100,4,2,1,80,0,0
8688,-100,4,2,1,90,0,0
9129,-100,4,2,1,80,0,0
10100,-100,4,2,1,90,0,0
10364,-100,4,2,1,100,0,0
10541,-100,4,2,1,80,0,0
11511,-100,4,2,1,90,0,0
11952,-100,4,2,1,80,0,0
12305,-100,4,2,1,90,0,0
12658,-100,4,2,1,80,0,1
12747,-100,4,2,1,80,0,0
13717,-100,4,2,1,90,0,0
14070,-100,4,2,1,80,0,0
17688,-100,4,2,1,70,0,0
17776,-100,4,2,1,60,0,0
17864,-100,4,2,1,50,0,0
17952,-100,4,2,1,70,0,0
18041,-100,4,2,1,60,0,0
18129,-100,4,2,1,50,0,0
18217,-100,4,2,1,40,0,0
18305,-100,4,2,1,80,0,0
23952,-111.111111111111,4,2,1,35,0,0
24305,-111.111111111111,4,2,1,80,0,0
25188,-111.111111111111,4,2,1,40,0,0
26070,-111.111111111111,4,2,1,40,0,0
29600,-100,4,2,1,80,0,0
30305,-100,4,2,1,40,0,0
31011,-100,4,2,1,80,0,0
31717,-100,4,2,1,40,0,0
32423,-100,4,2,1,80,0,0
33129,-100,4,2,1,40,0,0
33835,-100,4,2,1,80,0,0
34541,-100,4,2,1,40,0,0
35247,-100,4,2,1,80,0,1
40717,-100,4,2,1,80,0,0
40894,-100,4,2,1,80,0,1
44423,-100,4,2,1,80,0,0
44600,-100,4,2,1,80,0,1
47247,-100,4,2,1,80,0,0

[Colours]
Combo1 : 128,255,128
Combo2 : 0,255,0

[HitObjects]
256,192,129,12,0,1364,0:0:0:0:
218,83,6658,6,0,B|248:70|248:70|304:80,1,59.9999952316285,2|2,0:0|0:0,0:0:0:0:
325,117,7011,6,0,P|391:151|446:142,1,119.999990463257,8|0,3:0|0:0,0:0:0:0:
486,104,7541,2,0,L|475:277,1,119.999990463257,8|2,3:0|0:0,0:0:0:0:
504,284,8070,2,0,P|478:299|427:305,1,59.9999952316285,4|2,3:0|0:0,0:0:0:0:
383,297,8423,6,0,L|210:286,1,119.999990463257,8|0,3:0|0:0,0:0:0:0:
131,277,9129,1,4,3:0:0:0:
131,277,9482,1,4,3:0:0:0:
50,172,9835,6,0,P|72:101|117:68,1,119.999990463257,8|0,3:0|0:0,0:0:0:0:
173,73,10365,2,0,L|180:192,1,119.999990463257,8|4,3:0|3:0,0:0:0:0:
188,258,10894,2,0,P|214:273|265:279,1,59.9999952316285,4|4,3:0|3:0,0:0:0:0:
304,256,11247,6,0,L|296:136,1,119.999990463257,8|0,3:0|0:0,0:0:0:0:
287,4,11953,1,4,3:0:0:0:
287,4,12306,1,4,3:0:0:0:
193,95,12658,6,0,B|235:137|235:137|313:135,1,119.999990463257,4|4,0:0|3:0,0:0:0:0:
348,95,13188,1,4,3:0:0:0:
348,95,13364,2,0,L|356:215,1,119.999990463257,4|4,3:0|3:0,0:0:0:0:
420,330,14070,6,0,P|364:350|306:336,1,119.999990463257,8|4,3:0|3:0,0:0:0:0:
355,214,14776,1,4,3:0:0:0:
355,214,15129,1,4,3:0:0:0:
225,238,15482,6,0,B|142:232|142:232|111:207,1,119.999990463257,4|2,3:0|0:0,0:0:0:0:
95,145,16011,2,0,P|126:91|118:21,1,119.999990463257,8|4,3:0|3:0,0:0:0:0:
64,3,16541,1,4,3:0:0:0:
256,192,16894,12,0,18305,0:0:0:0:
446,153,23952,6,0,B|391:160|391:160|337:136,1,107.999988121033,4|0,1:0|0:0,0:0:0:0:
241,77,24658,2,0,P|252:131|190:201,1,107.999988121033,8|0,0:0|0:0,0:0:0:0:
173,196,25188,2,0,L|42:212,1,107.999988121033,8|8,0:0|0:0,0:0:0:0:
108,35,26070,1,8,0:0:0:0:
131,271,26776,5,2,3:0:0:0:
131,271,27482,1,2,3:0:0:0:
131,271,28188,1,2,3:0:0:0:
269,323,29600,6,0,B|299:336|299:336|355:326,1,59.9999952316285,0|0,0:0|0:0,0:0:0:0:
373,285,29952,1,4,3:0:0:0:
389,153,30305,2,0,P|321:121|230:186,1,179.999985694886,4|4,0:0|3:0,0:0:0:0:
255,234,31011,6,0,P|257:264|243:297,1,59.9999952316285,0|0,0:0|0:0,0:0:0:0:
193,330,31364,1,4,3:0:0:0:
133,212,31717,2,0,B|126:93|126:93|180:35,1,179.999985694886,4|4,0:0|3:0,0:0:0:0:
229,72,32423,6,0,B|259:85|259:85|285:80,1,59.9999952316285,8|0,3:0|0:0,0:0:0:0:
333,34,32775,1,4,3:0:0:0:
400,147,33129,2,0,P|357:208|245:197,1,179.999985694886,4|4,0:0|3:0,0:0:0:0:
205,169,33834,6,0,P|207:199|193:232,1,59.9999952316285,0|0,0:0|0:0,0:0:0:0:
153,276,34187,1,4,3:0:0:0:
266,343,34540,2,0,B|385:350|385:350|443:296,1,179.999985694886,4|4,0:0|3:0,0:0:0:0:
408,245,35247,6,0,B|396:217|396:217|398:187,1,59.9999952316285,4|0,0:0|0:0,0:0:0:0:
427,127,35600,1,8,3:0:0:0:
314,195,35952,2,0,B|259:224|259:224|166:211,1,119.999990463257,8|2,3:0|0:0,0:0:0:0:
96,136,36658,6,0,B|124:124|124:124|154:126,1,59.9999952316285,4|0,3:0|0:0,0:0:0:0:
219,134,37011,1,4,3:0:0:0:
312,40,37364,2,0,L|193:58,1,119.999990463257,2|2,1:0|1:0,0:0:0:0:
113,163,38070,6,0,P|169:195|253:181,1,119.999990463257,0|2,0:0|0:0,0:0:0:0:
257,137,38600,2,0,B|235:198|235:198|248:268,1,119.999990463257,2|2,1:0|0:0,0:0:0:0:
198,299,39129,1,2,3:0:0:0:
312,365,39482,2,0,P|375:372|440:325,1,119.999990463257,2|2,0:0|0:0,0:0:0:0:
348,231,40188,1,4,3:0:0:0:
348,231,40541,1,4,3:0:0:0:
467,175,40894,5,4,0:0:0:0:
449,44,41247,2,0,B|390:65|390:65|364:191,1,179.999985694886,4|8,3:0|3:0,0:0:0:0:
352,245,41952,5,4,0:0:0:0:
352,245,42305,2,0,B|310:290|310:290|183:268,1,179.999985694886,4|8,3:0|3:0,0:0:0:0:
129,251,43011,6,0,B|141:158|141:158|227:135|227:135|247:30,2,269.999978542328,2|2|4,0:0|0:0|0:0,0:0:0:0:
361,375,45305,1,4,3:0:0:0:
374,243,45658,2,0,B|336:216|336:216|286:209,1,89.9999928474428,2|0,0:0|3:0,0:0:0:0:
203,307,46276,2,0,B|241:334|241:334|290:340,1,89.9999928474428,2|0,0:0|3:0,0:0:0:0:
415,356,46894,1,4,3:0:0:0:
471,236,47247,5,4,3:0:0:0:
114,54,50070,1,0,0:0:0:0:
25,68,51482,6,0,P|52:119|136:141,1,119.999990463257,4|4,3:0|3:0,0:0:0:0:
230,90,52188,2,0,L|227:226,1,119.999990463257,4|2,3:0|0:0,0:0:0:0:
223,342,52894,5,4,0:0:0:0:
