osu file format v14

[General]
AudioFilename: audio.mp3
AudioLeadIn: 0
PreviewTime: 18262
Countdown: 1
SampleSet: Soft
StackLeniency: 0.7
Mode: 0
LetterboxInBreaks: 0
WidescreenStoryboard: 1

[Editor]
Bookmarks: 6615,29557,38027,43762,52851
DistanceSpacing: 1.1
BeatDivisor: 2
GridSize: 32
TimelineZoom: 1.900005

[Metadata]
Title:Toki Meguru Ginga Saikyou no Senshi
TitleUnicode:時巡る銀河最強の戦士
Artist:Jun Ishikawa
ArtistUnicode:石川淳
Creator:Bubblun
Version:Light Insane
Source:星のカービィ ロボボプラネット
Tags:kirby planet robobot nintendo hal laboratory galacta meta knight hoshi no kaabi puranetto
BeatmapID:1260218
BeatmapSetID:592485

[Difficulty]
HPDrainRate:5
CircleSize:4.1
OverallDifficulty:7
ApproachRate:8.4
SliderMultiplier:1.79999990463257
SliderTickRate:1

[Events]
//Background and Video events
0,0,"BG2.png",0,0
//Break Periods
2,1564,5600
2,18505,23202
//Storyboard Layer 0 (Background)
//Storyboard Layer 1 (Fail)
//Storyboard Layer 2 (Pass)
//Storyboard Layer 3 (Foreground)
//Storyboard Sound Samples

[TimingPoints]
-47,352.941176470588,4,2,1,80,1,0
7276,-100,4,2,1,90,0,0
7541,-100,4,2,1,100,0,0
7717,-100,4,2,1,80,0,0
8070,-100,4,2,1,90,0,0
8423,-100,4,2,1,80,0,0
8688,-100,4,2,1,90,0,0
8952,-100,4,2,1,100,0,0
9129,-100,4,2,1,80,0,0
10100,-100,4,2,1,90,0,0
10364,-100,4,2,1,100,0,0
10541,-100,4,2,1,80,0,0
11511,-100,4,2,1,90,0,0
11776,-100,4,2,1,100,0,0
11952,-100,4,2,1,80,0,0
12305,-100,4,2,1,90,0,0
12658,-100,4,2,1,80,0,1
12747,-100,4,2,1,80,0,0
13717,-100,4,2,1,90,0,0
14070,-100,4,2,1,80,0,0
23952,-100,4,2,1,35,0,0
24305,-100,4,2,1,80,0,0
25188,-100,4,2,1,40,0,0
26070,-100,4,2,1,40,0,0
26247,-100,4,2,1,80,0,0
26776,-100,4,2,1,40,0,0
29600,-100,4,2,1,80,0,0
31011,-100,4,2,1,40,0,0
31364,-100,4,2,1,80,0,0
32423,-100,4,2,1,40,0,0
32776,-100,4,2,1,80,0,0
33835,-100,4,2,1,40,0,0
34188,-100,4,2,1,80,0,0
35247,-86.9565217391304,4,2,1,80,0,1
39482,-100,4,2,1,80,0,1
39835,-86.9565217391304,4,2,1,80,0,1
40717,-86.9565217391304,4,2,1,80,0,0
40894,-83.3333333333333,4,2,1,80,0,1
44423,-83.3333333333333,4,2,1,80,0,0
44600,-83.3333333333333,4,2,1,80,0,1
47247,-100,4,2,1,80,0,0

[Colours]
Combo1 : 128,255,128
Combo2 : 0,255,0

[HitObjects]
256,192,129,12,0,1364,0:0:0:0:
75,171,6658,6,0,L|31:164,1,44.9999976158143,2|2,0:0|0:0,0:0:0:0:
151,132,6835,2,0,L|107:140,1,44.9999976158143,2|2,0:0|0:0,0:0:0:0:
226,184,7011,6,0,B|208:271|208:271|146:311,1,134.999992847443,8|8,3:0|3:0,0:0:0:0:
33,266,7541,1,8,3:0:0:0:
33,266,7717,2,0,L|51:178,1,89.9999952316285,2|2,0:0|0:0,0:0:0:0:
131,220,8070,2,0,L|149:132,1,89.9999952316285,2|2,0:0|0:0,0:0:0:0:
226,184,8423,6,0,B|313:196|313:196|372:152,2,134.999992847443,8|8|8,3:0|3:0|3:0,0:0:0:0:
123,173,9129,2,0,L|116:217,1,44.9999976158143,4|2,3:0|0:0,0:0:0:0:
183,110,9305,1,2,0:0:0:0:
52,105,9482,2,0,L|45:149,2,44.9999976158143,4|2|2,3:0|0:0|0:0,0:0:0:0:
153,0,9835,6,0,P|209:34|293:35,1,134.999992847443,8|8,3:0|3:0,0:0:0:0:
405,1,10364,1,8,3:0:0:0:
405,1,10541,2,0,B|380:36|380:36|387:82,1,89.9999952316285,2|4,3:0|3:0,0:0:0:0:
476,158,10894,2,0,B|501:193|480:247,1,89.9999952316285,4|4,3:0|3:0,0:0:0:0:
383,308,11247,6,0,B|296:320|296:320|237:276,2,134.999992847443,8|8|8,3:0|3:0|3:0,0:0:0:0:
326,194,11952,2,0,L|282:201,1,44.9999976158143,4|0,3:0|0:0,0:0:0:0:
401,215,12129,1,0,0:0:0:0:
428,106,12305,2,0,L|421:62,2,44.9999976158143,4|0|0,3:0|0:0|0:0,0:0:0:0:
313,28,12658,6,0,B|278:53|278:53|232:46,1,89.9999952316285,4|2,0:0|0:0,0:0:0:0:
134,117,13011,2,0,L|222:131,1,89.9999952316285,4|4,3:0|3:0,0:0:0:0:
270,251,13364,2,0,L|226:258,2,44.9999976158143,4|0|4,3:0|0:0|3:0,0:0:0:0:
163,201,13717,2,0,L|119:194,2,44.9999976158143,4|0|4,3:0|0:0|3:0,0:0:0:0:
285,176,14070,6,0,B|372:164|372:164|452:228,1,179.999990463257,8|2,3:0|0:0,0:0:0:0:
311,320,14600,1,4,3:0:0:0:
204,228,14776,2,0,L|211:184,1,44.9999976158143,4|2,3:0|0:0,0:0:0:0:
241,295,14952,1,2,0:0:0:0:
163,372,15129,2,0,L|119:365,2,44.9999976158143,4|2|2,3:0|0:0|0:0,0:0:0:0:
55,267,15482,6,0,P|51:181|120:111,1,179.999990463257,0|2,0:0|0:0,0:0:0:0:
221,187,16011,2,0,B|337:207|337:207|396:163,1,179.999990463257,0|4,0:0|3:0,0:0:0:0:
301,71,16541,1,4,3:0:0:0:
339,245,16894,2,0,L|346:289,4,44.9999976158143,2|2|2|0|0,0:0|0:0|0:0|0:0|0:0,0:0:0:0:
171,222,17600,6,0,B|247:206|247:206|279:164|279:164|398:139|398:139|422:244,1,359.999980926514,0|0,0:0|3:0,0:0:0:0:
118,213,23952,6,0,L|105:290,3,59.9999968210857,4|4|4|4,1:3|3:0|3:0|3:0,0:0:0:0:
118,213,24658,6,0,P|191:264|291:230,1,179.999990463257,8|0,0:0|0:0,0:0:0:0:
364,216,25188,2,0,P|284:252|258:335,1,179.999990463257,8|8,0:0|0:0,0:0:0:0:
406,364,26070,1,8,0:0:0:0:
406,364,26247,2,0,L|411:258,2,89.9999952316285
330,315,26776,5,2,3:0:0:0:
334,261,27482,1,2,3:0:0:0:
340,208,28188,1,2,3:0:0:0:
361,228,29600,6,0,L|227:215,1,89.9999952316285
130,213,29952,2,0,B|118:300|118:300|162:359,1,134.999992847443,4|4,3:0|3:0,0:0:0:0:
171,364,30305,1,4,3:0:0:0:
286,298,30482,2,0,L|330:305,1,44.9999976158143,4|4,3:0|3:0,0:0:0:0:
235,201,30747,2,0,L|228:245,1,44.9999976158143,4|4,3:0|3:0,0:0:0:0:
272,380,31011,6,0,L|405:364,1,89.9999952316285,4|0,0:0|0:0,0:0:0:0:
497,348,31364,2,0,B|492:259|492:259|438:209,1,134.999992847443,4|0,3:0|0:0,0:0:0:0:
429,207,31717,1,4,3:0:0:0:
330,295,31894,2,0,L|285:297,1,44.9999976158143,4|4,3:0|3:0,0:0:0:0:
400,380,32158,2,0,L|397:335,1,44.9999976158143,4|4,3:0|3:0,0:0:0:0:
358,223,32423,6,0,L|349:88,1,89.9999952316285,4|0,0:0|0:0,0:0:0:0:
330,4,32776,2,0,B|242:6|242:6|190:58,1,134.999992847443,4|4,3:0|3:0,0:0:0:0:
185,66,33129,1,4,3:0:0:0:
273,165,33305,2,0,L|275:209,1,44.9999976158143,4|4,3:0|3:0,0:0:0:0:
358,95,33570,2,0,L|313:97,1,44.9999976158143,4|4,3:0|3:0,0:0:0:0:
207,134,33835,6,0,L|73:149,1,89.9999952316285,4|0,0:0|0:0,0:0:0:0:
0,171,34188,2,0,B|5:257|5:257|58:308,1,134.999992847443,4|0,3:0|0:0,0:0:0:0:
70,313,34541,1,4,3:0:0:0:
149,219,34717,2,0,L|193:216,1,44.9999976158143,4|4,3:0|3:0,0:0:0:0:
79,134,34982,2,0,L|81:178,1,44.9999976158143,4|4,3:0|3:0,0:0:0:0:
127,296,35247,6,0,B|166:293|166:293|190:301|190:301|266:295,1,103.499996490479,4|0,0:0|0:0,0:0:0:0:
305,212,35600,1,2,0:0:0:0:
305,212,35688,1,2,0:0:0:0:
305,212,35776,1,2,0:0:0:0:
203,132,35952,2,0,B|184:182|184:182|207:231,1,103.499996490479,8|8,3:0|3:0,0:0:0:0:
303,289,36305,2,0,L|436:304,1,103.499996490479,2|2,0:0|0:0,0:0:0:0:
401,140,36658,1,4,3:0:0:0:
292,105,36835,5,0,0:0:0:0:
292,105,37011,2,0,L|277:238,1,103.499996490479,2|2,1:0|0:0,0:0:0:0:
203,132,37364,2,0,L|148:208,2,51.7499982452393,2|2|2,1:0|0:0|0:0,0:0:0:0:
115,107,37717,2,0,L|-7:160,1,103.499996490479,2|2,1:0|0:0,0:0:0:0:
94,19,38070,5,0,0:0:0:0:
189,46,38247,1,2,0:0:0:0:
189,46,38335,1,2,0:0:0:0:
189,46,38423,1,2,0:0:0:0:
129,161,38600,2,0,B|265:166|265:166|327:108,1,206.999992980957,2|2,1:0|0:0,0:0:0:0:
250,21,39129,6,0,P|237:53|238:97,2,68.999997660319,2|2|2,3:0|3:0|3:0,0:0:0:0:
317,118,39482,6,0,P|328:146|361:180,2,59.9999968210857,2|2|2,0:0|0:0|0:0,0:0:0:0:
422,149,39835,6,0,L|473:152,2,51.7499982452393,2|2|2,0:0|0:0|0:0,0:0:0:0:
361,243,40188,6,0,L|364:192,1,51.7499982452393,4|0,3:0|0:0,0:0:0:0:
267,183,40364,2,0,L|270:234,1,51.7499982452393,4|0,3:0|0:0,0:0:0:0:
317,304,40541,6,0,L|320:355,1,51.7499982452393,4|0,3:0|0:0,0:0:0:0:
413,295,40717,2,0,L|410:346,1,51.7499982452393,4|0,3:0|0:0,0:0:0:0:
246,365,40894,6,0,L|190:369,1,53.999995491028,4|8,0:0|3:0,0:0:0:0:
105,311,41158,1,2,0:0:0:0:
105,311,41247,2,0,L|101:254,4,53.999995491028,4|4|0|0|4,3:0|3:0|3:0|3:0|3:0,0:0:0:0:
111,384,41776,1,8,3:0:0:0:
190,293,41952,6,0,L|193:239,1,53.999995491028,4|8,3:0|3:0,0:0:0:0:
136,152,42217,1,2,0:0:0:0:
136,152,42305,2,0,L|81:148,4,53.999995491028,4|4|0|0|4,3:0|3:0|0:0|0:0|3:0,0:0:0:0:
209,158,42835,1,8,3:0:0:0:
347,187,43011,6,0,L|401:178,1,53.999995491028,4|4,3:0|3:0,0:0:0:0:
263,213,43188,2,0,L|317:222,3,53.999995491028
319,114,43629,1,8,3:0:0:0:
179,239,43805,6,0,L|125:248,1,53.999995491028,4|4,3:0|3:0,0:0:0:0:
263,213,43982,2,0,L|209:204,3,53.999995491028
189,135,44423,1,8,3:0:0:0:
319,114,44600,6,0,L|373:111,1,53.999995491028,4|8,3:0|3:0,0:0:0:0:
465,194,44864,1,2,0:0:0:0:
465,194,44952,2,0,L|469:248,4,53.999995491028,4|4|0|0|4,3:0|3:0|0:0|0:0|3:0,0:0:0:0:
455,84,45482,1,8,3:0:0:0:
341,54,45658,6,0,L|337:0,3,53.999995491028,4|4|0|4,3:0|3:0|0:0|3:0,0:0:0:0:
346,138,46100,1,8,3:0:0:0:
263,216,46276,6,0,L|259:270,2,53.999995491028,4|4|0,3:0|3:0|0:0,0:0:0:0:
216,127,46541,2,0,L|351:138,1,107.999990982056,4|4,3:0|3:0,0:0:0:0:
366,278,46894,2,0,L|258:269,1,107.999990982056,4|4,3:0|3:0,0:0:0:0:
138,202,47247,5,4,3:0:0:0:
323,135,47776,1,4,3:0:0:0:
240,341,48305,1,4,3:0:0:0:
216,127,48835,5,4,3:0:0:0:
390,170,49188,1,4,3:0:0:0:
216,127,49717,5,4,3:0:0:0:
239,320,50070,1,0,3:0:0:0:
216,127,51482,5,4,3:0:0:0:
220,151,51835,1,4,3:0:0:0:
223,173,52188,2,0,L|232:272,1,89.9999952316285,4|2,3:0|0:0,0:0:0:0:
239,340,52541,2,0,L|243:389,2,44.9999976158143,4|2|0,3:0|0:0|0:0,0:0:0:0:
335,351,52894,5,4,0:0:0:0:
