osu file format v14

[General]
AudioFilename: audio.mp3
AudioLeadIn: 0
PreviewTime: 18262
Countdown: 1
SampleSet: Soft
StackLeniency: 0.6
Mode: 0
LetterboxInBreaks: 0
WidescreenStoryboard: 1

[Editor]
Bookmarks: 6615,52851
DistanceSpacing: 1
BeatDivisor: 4
GridSize: 32
TimelineZoom: 2.220001

[Metadata]
Title:Toki Meguru Ginga Saikyou no Senshi
TitleUnicode:時巡る銀河最強の戦士
Artist:Jun Ishikawa
ArtistUnicode:石川淳
Creator:Bubblun
Version:Ultimatum
Source:星のカービィ ロボボプラネット
Tags:kirby planet robobot nintendo hal laboratory galacta meta knight hoshi no kaabi puranetto
BeatmapID:1253592
BeatmapSetID:592485

[Difficulty]
HPDrainRate:5.7
CircleSize:3
OverallDifficulty:9
ApproachRate:10
SliderMultiplier:3.59999990463257
SliderTickRate:1

[Events]
//Background and Video events
0,0,"BG2.png",0,0
//Break Periods
2,1564,5600
//Storyboard Layer 0 (Background)
//Storyboard Layer 1 (Fail)
//Storyboard Layer 2 (Pass)
//Storyboard Layer 3 (Foreground)
//Storyboard Sound Samples

[TimingPoints]
-47,352.941176470588,4,2,1,80,1,0
6658,-66.6666666666667,4,2,1,80,0,0
7276,-60.6060606060606,4,2,1,90,0,0
7541,-55.5555555555556,4,2,1,100,0,0
7717,-66.6666666666667,4,2,1,80,0,0
8070,-66.6666666666667,4,2,1,90,0,0
8423,-66.6666666666667,4,2,1,80,0,0
8688,-60.6060606060606,4,2,1,90,0,0
8952,-55.5555555555556,4,2,1,100,0,0
9129,-66.6666666666667,4,2,1,80,0,0
10100,-60.6060606060606,4,2,1,90,0,0
10364,-55.5555555555556,4,2,1,100,0,0
10541,-66.6666666666667,4,2,1,80,0,0
11511,-60.6060606060606,4,2,1,90,0,0
11776,-55.5555555555556,4,2,1,100,0,0
11952,-66.6666666666667,4,2,1,80,0,0
12305,-57.1428571428571,4,2,1,90,0,0
12658,-62.5,4,2,1,80,0,1
12747,-62.5,4,2,1,80,0,0
13717,-57.1428571428571,4,2,1,90,0,0
14070,-62.5,4,2,1,80,0,0
17688,-62.5,4,2,1,70,0,0
17776,-62.5,4,2,1,60,0,0
17864,-62.5,4,2,1,50,0,0
17952,-62.5,4,2,1,70,0,0
18041,-62.5,4,2,1,60,0,0
18129,-62.5,4,2,1,50,0,0
18217,-62.5,4,2,1,40,0,0
18305,-200,4,2,1,80,0,0
19011,-200,4,2,1,40,0,0
19541,-200,4,2,1,80,0,0
20423,-200,4,2,1,40,0,0
21129,-200,4,2,1,80,0,0
21835,-200,4,2,1,40,0,0
22364,-200,4,2,1,80,0,0
23247,-200,4,2,1,40,0,0
23600,-200,4,2,1,80,0,0
23952,-100,4,2,1,35,0,0
24041,-125,4,2,1,35,0,0
24129,-166.666666666667,4,2,1,35,0,0
24217,-250,4,2,1,35,0,0
24305,-500,4,2,1,80,0,0
24658,-200,4,2,1,80,0,0
25188,-200,4,2,1,50,0,0
25541,-200,4,2,1,80,0,0
26070,-200,4,2,1,40,0,0
26247,-200,4,2,1,80,0,0
26776,-200,4,2,1,40,0,0
29247,-200,4,2,1,80,0,0
29600,-66.6666666666667,4,2,1,80,0,0
31011,-66.6666666666667,4,2,1,40,0,0
31364,-66.6666666666667,4,2,1,80,0,0
32423,-66.6666666666667,4,2,1,40,0,0
32776,-66.6666666666667,4,2,1,80,0,0
33835,-66.6666666666667,4,2,1,40,0,0
34188,-66.6666666666667,4,2,1,80,0,0
35247,-57.1428571428571,4,2,1,80,0,1
35600,-62.5,4,2,1,80,0,1
40717,-62.5,4,2,1,80,0,0
40894,-58.8235294117647,4,2,1,80,0,1
43717,-54.054054054054,4,2,1,80,0,1
44423,-100,4,2,1,80,0,0
44600,-58.8235294117647,4,2,1,80,0,1
47247,-100,4,2,1,80,0,0

[Colours]
Combo1 : 128,255,128
Combo2 : 0,255,0

[HitObjects]
256,192,129,12,0,1364,0:0:0:0:
0,182,6658,5,2,0:0:0:0:
47,186,6747,1,2,0:0:0:0:
0,182,6835,1,2,0:0:0:0:
47,186,6924,1,2,0:0:0:0:
24,185,7011,6,0,P|10:136|41:32,1,135.000001573563,8|0,3:0|0:0,0:0:0:0:
147,140,7188,1,4,3:0:0:0:
122,123,7276,6,0,P|134:73|217:-4,1,148.4999974823,8|0,3:0|0:0,0:0:0:0:
251,146,7452,1,4,3:0:0:0:
237,118,7541,6,0,P|272:80|384:54,1,161.999990764618,8|0,3:0|0:0,0:0:0:0:
389,168,7717,6,0,B|394:239|394:239|356:290,1,135.000001573563,2|0,0:0|0:0,0:0:0:0:
352,197,7894,2,0,B|346:126|346:126|383:74,1,135.000001573563,2|0,0:0|0:0,0:0:0:0:
199,315,8070,6,0,P|128:320|63:273,1,135.000001573563,2|0,0:0|0:0,0:0:0:0:
207,273,8247,2,0,P|278:267|343:315,1,135.000001573563,2|0,0:0|0:0,0:0:0:0:
95,207,8423,6,0,P|80:158|111:53,1,135.000001573563,8|0,3:0|0:0,0:0:0:0:
217,162,8600,1,4,3:0:0:0:
192,144,8688,6,0,P|203:94|286:17,1,148.4999974823,8|0,3:0|0:0,0:0:0:0:
321,167,8864,1,4,3:0:0:0:
307,140,8953,6,0,P|340:101|453:75,1,161.999990764618,8|0,3:0|0:0,0:0:0:0:
442,239,9129,5,4,3:0:0:0:
391,220,9217,1,2,0:0:0:0:
411,170,9305,1,2,0:0:0:0:
462,189,9393,1,2,0:0:0:0:
284,333,9482,5,4,3:0:0:0:
258,278,9570,1,2,0:0:0:0:
312,254,9658,1,2,0:0:0:0:
337,308,9746,1,2,0:0:0:0:
136,345,9835,6,0,P|90:320|38:224,1,135.000001573563,8|0,3:0|0:0,0:0:0:0:
190,226,10012,1,4,3:0:0:0:
160,231,10100,6,0,P|132:187|136:74,1,148.4999974823,8|0,3:0|0:0,0:0:0:0:
267,156,10276,1,4,3:0:0:0:
238,147,10365,6,0,P|233:96|295:-2,1,161.999990764618,8|0,3:0|0:0,0:0:0:0:
400,111,10541,6,0,B|404:182|404:182|449:227,1,135.000001573563,2|0,3:0|0:0,0:0:0:0:
416,347,10717,1,4,3:0:0:0:
319,94,10894,2,0,L|329:240,1,135.000001573563,4|0,3:0|0:0,0:0:0:0:
308,384,11070,2,0,L|298:249,1,135.000001573563,4|0,3:0|0:0,0:0:0:0:
147,277,11247,6,0,P|132:226|163:122,1,135.000001573563,8|0,3:0|0:0,0:0:0:0:
267,231,11424,1,4,3:0:0:0:
243,213,11512,6,0,P|254:162|337:85,1,148.4999974823,8|0,3:0|0:0,0:0:0:0:
372,235,11688,1,4,3:0:0:0:
361,205,11776,6,0,P|396:166|508:141,1,161.999990764618,8|0,3:0|0:0,0:0:0:0:
173,268,11952,6,0,P|113:238|106:163,1,135.000001573563,4|0,3:0|0:0,0:0:0:0:
170,121,12129,2,0,P|229:149|242:213,1,135.000001573563
54,161,12305,6,0,P|106:98|210:79,1,157.499997329712,4|0,3:0|0:0,0:0:0:0:
287,229,12482,2,0,P|234:291|130:310,1,157.499997329712
172,195,12658,6,0,L|323:184,1,143.999996185303,4|0,0:0|0:0,0:0:0:0:
453,177,12835,5,2,0:0:0:0:
406,181,12924,1,2,0:0:0:0:
430,179,13011,2,0,L|441:330,1,143.999996185303,4|0,3:0|0:0,0:0:0:0:
287,230,13188,2,0,L|276:381,1,143.999996185303,4|0,3:0|0:0,0:0:0:0:
133,231,13364,6,0,P|125:158|178:92,1,143.999996185303,4|0,3:0|0:0,0:0:0:0:
361,195,13541,2,0,L|210:184,1,143.999996185303,4|0,3:0|0:0,0:0:0:0:
251,4,13717,6,0,P|324:-3|387:47,1,157.499997329712,4|0,3:0|0:0,0:0:0:0:
286,249,13894,2,0,L|298:83,1,157.499997329712,4|0,3:0|0:0,0:0:0:0:
133,231,14070,5,8,3:0:0:0:
413,189,14247,5,2,0:0:0:0:
365,192,14336,1,2,0:0:0:0:
390,190,14423,2,0,L|400:341,1,143.999996185303,4|0,3:0|0:0,0:0:0:0:
247,241,14600,2,0,L|236:391,1,143.999996185303,4|0,3:0|0:0,0:0:0:0:
174,201,14776,5,4,3:0:0:0:
138,151,14864,1,2,0:0:0:0:
185,114,14952,1,2,0:0:0:0:
220,161,15040,1,2,0:0:0:0:
85,290,15129,5,4,3:0:0:0:
18,279,15217,1,2,0:0:0:0:
26,213,15305,1,2,0:0:0:0:
89,223,15393,1,2,0:0:0:0:
145,368,15482,5,0,0:0:0:0:
138,151,15658,5,2,0:0:0:0:
135,103,15747,1,2,0:0:0:0:
137,129,15835,1,2,0:0:0:0:
390,190,16011,1,0,0:0:0:0:
169,225,16188,6,0,B|240:221|240:221|291:169,1,143.999996185303,2|0,3:0|0:0,0:0:0:0:
405,209,16364,1,4,3:0:0:0:
127,303,16541,2,0,L|275:314,1,143.999996185303,4|0,3:0|0:0,0:0:0:0:
414,348,16717,2,0,L|270:338,1,143.999996185303,4|0,3:0|0:0,0:0:0:0:
26,347,16894,5,2,0:0:0:0:
29,299,16983,1,2,0:0:0:0:
26,347,17070,1,2,0:0:0:0:
29,299,17159,1,2,0:0:0:0:
28,322,17247,1,2,0:0:0:0:
332,258,17423,1,0,0:0:0:0:
61,69,17600,5,2,0:0:0:0:
83,121,17688,1,2,0:0:0:0:
89,72,17776,1,2,2:0:0:0:
54,117,17864,1,2,2:0:0:0:
71,101,17952,5,2,0:0:0:0:
45,165,18040,1,2,0:0:0:0:
71,227,18129,1,2,0:0:0:0:
46,292,18217,1,2,0:0:0:0:
72,355,18305,6,0,B|194:366|194:366|249:325,1,179.999995231629
256,215,18835,1,0,0:0:0:0:
328,321,19011,6,0,B|205:310|205:310|158:260,1,179.999995231629,8|0,0:0|0:0,0:0:0:0:
359,148,19541,1,0,0:0:0:0:
359,148,19894,2,0,B|350:263|350:263|330:290|330:290|326:336,1,179.999995231629
166,268,20423,2,0,B|175:153|175:153|195:118|195:118|199:80,1,179.999995231629,8|0,0:0|0:0,0:0:0:0:
444,158,21129,5,8,3:0:0:0:
210,0,21482,5,0,0:0:0:0:
321,161,21659,1,0,0:0:0:0:
322,26,21835,2,0,P|271:92|153:114,1,179.999995231629,8|0,0:0|0:0,0:0:0:0:
68,89,22364,2,0,P|134:140|156:258,1,179.999995231629
322,26,23247,1,8,0:0:0:0:
68,89,23600,1,0,0:0:0:0:
303,148,23952,6,4,L|256:151,1,44.9999988079071,4|4,1:3|1:0,1:0:0:0:
264,194,24041,6,0,L|300:192,1,35.9999990463257,4|0,3:0|0:0,0:0:0:0:
298,229,24129,6,0,L|251:232,1,26.9999984607697,0|0,3:0|0:0,0:0:0:0:
279,261,24218,6,0,L|297:260,1,17.9999995231628,4|0,3:0|0:0,0:0:0:0:
295,287,24305,6,0,L|227:291,1,53.9999985694885
48,325,24658,6,0,P|114:274|136:156,1,179.999995231629,8|0,0:0|0:0,0:0:0:0:
159,293,25188,2,0,L|248:299,1,89.9999976158143,8|0,0:0|0:0,0:0:0:0:
367,339,25541,2,0,P|301:288|279:170,1,179.999995231629,8|0,0:0|0:0,0:0:0:0:
201,339,26070,1,8,0:0:0:0:
213,134,26247,2,0,L|219:44,2,89.9999976158143
207,223,26776,5,2,3:0:0:0:
206,239,27482,5,2,3:0:0:0:
206,257,28188,5,2,3:0:0:0:
185,200,29247,1,2,0:0:0:0:
232,204,29335,1,2,0:0:0:0:
185,200,29423,1,2,0:0:0:0:
232,204,29511,1,2,0:0:0:0:
208,203,29600,6,0,P|160:318|16:321,1,270.000003147125
80,110,29952,1,4,3:0:0:0:
87,212,30041,2,0,L|95:346,1,135.000001573563,4|0,3:0|0:0,0:0:0:0:
263,222,30217,5,4,3:0:0:0:
311,314,30305,2,0,P|240:319|171:271,1,135.000001573563,4|0,3:0|0:0,0:0:0:0:
295,124,30482,5,4,3:0:0:0:
263,222,30570,2,0,P|209:175|194:95,1,135.000001573563,4|0,3:0|0:0,0:0:0:0:
387,78,30747,5,4,3:0:0:0:
295,124,30835,2,0,P|290:53|334:-11,1,135.000001573563,4|4,3:0|3:0,0:0:0:0:
390,228,31011,6,0,L|121:212,1,270.000003147125,4|0,0:0|0:0,0:0:0:0:
364,192,31364,1,4,3:0:0:0:
390,228,31452,2,0,P|342:343|198:346,1,270.000003147125,4|0,3:0|0:0,0:0:0:0:
35,155,31717,2,0,P|81:101|164:86,1,135.000001573563,4|0,3:0|0:0,0:0:0:0:
180,278,31894,5,4,3:0:0:0:
133,186,31982,2,0,P|204:181|271:227,1,135.000001573563,4|0,3:0|0:0,0:0:0:0:
148,375,32159,5,4,3:0:0:0:
180,278,32247,2,0,P|233:324|247:401,1,135.000001573563,4|0,3:0|0:0,0:0:0:0:
290,203,32423,6,0,P|338:318|482:321,1,270.000003147125,4|0,0:0|0:0,0:0:0:0:
417,110,32776,1,4,3:0:0:0:
411,212,32864,2,0,L|403:346,1,135.000001573563,4|0,3:0|0:0,0:0:0:0:
235,222,33041,5,4,3:0:0:0:
187,314,33128,2,0,P|258:319|327:271,1,135.000001573563,4|0,3:0|0:0,0:0:0:0:
203,124,33305,5,4,3:0:0:0:
235,222,33393,2,0,P|289:175|304:95,1,135.000001573563,4|0,3:0|0:0,0:0:0:0:
111,78,33570,5,4,3:0:0:0:
203,124,33658,2,0,P|208:53|164:-11,1,135.000001573563,4|0,3:0|0:0,0:0:0:0:
108,228,33835,6,0,L|377:212,1,270.000003147125,4|0,0:0|0:0,0:0:0:0:
138,190,34187,1,4,3:0:0:0:
108,228,34275,2,0,P|156:343|300:346,1,270.000003147125,4|0,3:0|0:0,0:0:0:0:
479,155,34540,2,0,P|433:101|350:86,1,135.000001573563,4|0,3:0|0:0,0:0:0:0:
334,273,34717,5,4,3:0:0:0:
382,185,34805,2,0,P|311:180|244:226,1,135.000001573563,4|0,3:0|0:0,0:0:0:0:
366,375,34982,5,4,3:0:0:0:
334,273,35070,2,0,P|281:319|267:396,1,135.000001573563,4|0,3:0|0:0,0:0:0:0:
450,284,35247,6,0,B|334:271|334:271|258:303|258:303|143:283,1,314.999994659424,4|0,0:0|0:0,0:0:0:0:
28,260,35511,1,4,3:0:0:0:
145,128,35600,2,0,L|303:155,1,143.999996185303,4|0,3:0|0:0,0:0:0:0:
55,111,35776,2,0,P|74:47|135:0,1,143.999996185303,4|0,3:0|0:0,0:0:0:0:
225,247,35952,6,0,P|228:313|186:375,1,143.999996185303,8|0,3:0|0:0,0:0:0:0:
141,237,36129,2,0,L|0:262,1,143.999996185303,8|0,3:0|0:0,0:0:0:0:
198,156,36305,1,2,0:0:0:0:
269,165,36393,1,2,0:0:0:0:
316,220,36482,1,2,0:0:0:0:
310,291,36570,1,2,0:0:0:0:
225,247,36658,1,4,3:0:0:0:
365,128,36835,6,0,B|439:115|439:115|508:136,1,143.999996185303
454,250,37011,5,2,1:0:0:0:
406,247,37100,1,2,0:0:0:0:
431,231,37188,1,2,0:0:0:0:
130,153,37364,1,2,1:0:0:0:
178,150,37453,1,2,0:0:0:0:
153,131,37541,1,2,0:0:0:0:
469,35,37717,1,2,1:0:0:0:
421,32,37806,1,2,0:0:0:0:
448,17,37894,1,2,0:0:0:0:
130,153,38070,5,0,0:0:0:0:
340,42,38247,1,2,0:0:0:0:
292,39,38336,1,2,0:0:0:0:
320,15,38423,1,2,0:0:0:0:
216,295,38600,2,0,B|233:191|233:191|201:115|201:115|214:23|214:23|287:6|287:6|266:110,1,431.999988555908,2|0,1:0|0:0,0:0:0:0:
129,54,38952,1,2,0:0:0:0:
140,223,39129,5,2,3:0:0:0:
276,206,39246,5,2,3:0:0:0:
226,335,39364,5,2,3:0:0:0:
140,223,39482,5,2,0:0:0:0:
240,177,39600,5,2,0:0:0:0:
318,248,39717,5,2,0:0:0:0:
337,306,39835,1,2,0:0:0:0:
389,306,39923,1,2,0:0:0:0:
414,265,40011,1,2,0:0:0:0:
406,240,40100,1,2,0:0:0:0:
385,228,40188,6,0,L|212:222,1,143.999996185303,4|0,3:0|0:0,0:0:0:0:
473,332,40364,2,0,L|300:338,1,143.999996185303,4|0,3:0|0:0,0:0:0:0:
180,296,40541,2,0,L|175:152,1,143.999996185303,4|0,3:0|0:0,0:0:0:0:
317,169,40717,2,0,L|321:25,1,143.999996185303,4|0,3:0|0:0,0:0:0:0:
30,54,40894,5,4,0:0:0:0:
173,57,40982,1,0,0:0:0:0:
98,179,41158,5,4,3:0:0:0:
241,182,41247,6,0,B|318:184|318:184|321:94,1,152.999998865128,4|0,3:0|0:0,0:0:0:0:
79,188,41423,2,0,B|1:185|1:185|-1:276,1,152.999998865128,4|0,3:0|0:0,0:0:0:0:
317,183,41600,1,4,3:0:0:0:
2,186,41776,1,4,3:0:0:0:
458,179,41952,5,4,0:0:0:0:
315,182,42040,1,0,0:0:0:0:
390,304,42216,5,4,3:0:0:0:
247,307,42305,6,0,B|170:309|170:309|167:219,1,152.999998865128,4|0,3:0|0:0,0:0:0:0:
409,313,42482,2,0,B|487:310|487:310|489:401,1,152.999998865128,4|0,3:0|0:0,0:0:0:0:
171,308,42658,1,4,3:0:0:0:
486,311,42834,1,4,3:0:0:0:
164,117,43011,6,0,L|-13:121,1,152.999998865128,4|0,3:0|0:0,0:0:0:0:
348,117,43188,2,0,L|525:121,1,152.999998865128,4|0,3:0|0:0,0:0:0:0:
197,251,43364,1,4,3:0:0:0:
313,251,43452,1,4,3:0:0:0:
256,40,43629,1,8,3:0:0:0:
161,206,43805,6,0,L|-22:210,1,166.499994954109,4|0,3:0|0:0,0:0:0:0:
352,206,43982,2,0,L|536:210,1,166.499994954109,4|0,3:0|0:0,0:0:0:0:
169,345,44158,1,4,3:0:0:0:
343,345,44246,1,4,3:0:0:0:
257,88,44423,1,8,3:0:0:0:
26,345,44600,5,4,0:0:0:0:
169,345,44688,1,0,0:0:0:0:
97,221,44864,5,4,3:0:0:0:
240,221,44952,6,0,B|317:220|317:220|318:310,1,152.999998865128,4|0,3:0|0:0,0:0:0:0:
78,212,45129,2,0,B|0:213|0:213|0:122,1,152.999998865128,4|0,3:0|0:0,0:0:0:0:
316,221,45306,1,4,3:0:0:0:
1,213,45482,1,4,3:0:0:0:
424,221,45658,5,4,3:0:0:0:
316,221,45747,1,4,3:0:0:0:
316,113,45835,1,4,3:0:0:0:
424,113,45923,1,4,3:0:0:0:
368,318,46100,1,4,3:0:0:0:
97,221,46275,5,4,3:0:0:0:
97,113,46364,1,4,3:0:0:0:
205,113,46452,1,4,3:0:0:0:
205,221,46540,1,4,3:0:0:0:
0,165,46717,1,4,3:0:0:0:
266,49,46894,1,4,3:0:0:0:
35,282,47070,1,4,3:0:0:0:
12,31,47247,5,4,3:0:0:0:
372,119,47776,1,4,3:0:0:0:
0,165,48305,1,4,3:0:0:0:
360,253,48835,5,4,3:0:0:0:
0,165,49188,1,4,3:0:0:0:
360,253,49717,5,4,3:0:0:0:
0,166,50070,1,0,3:0:0:0:
336,274,51482,1,4,3:0:0:0:
356,277,51835,1,4,3:0:0:0:
381,282,52188,5,4,3:0:0:0:
403,288,52364,1,4,3:0:0:0:
446,273,52541,5,2,0:0:0:0:
443,311,52629,1,2,0:0:0:0:
473,277,52717,1,2,0:0:0:0:
470,315,52805,1,2,0:0:0:0:
488,298,52894,5,4,0:0:0:0:
