osu file format v14

[General]
AudioFilename: audio.mp3
AudioLeadIn: 0
PreviewTime: 18262
Countdown: 1
SampleSet: Soft
StackLeniency: 0.7
Mode: 0
LetterboxInBreaks: 0
WidescreenStoryboard: 1

[Editor]
Bookmarks: 40851
DistanceSpacing: 1.1
BeatDivisor: 4
GridSize: 32
TimelineZoom: 2.800004

[Metadata]
Title:Toki Meguru Ginga Saikyou no Senshi
TitleUnicode:時巡る銀河最強の戦士
Artist:Jun Ishikawa
ArtistUnicode:石川淳
Creator:Bubblun
Version:Insane
Source:星のカービィ ロボボプラネット
Tags:kirby planet robobot nintendo hal laboratory galacta meta knight hoshi no kaabi puranetto
BeatmapID:1256521
BeatmapSetID:592485

[Difficulty]
HPDrainRate:5.7
CircleSize:4.7
OverallDifficulty:8
ApproachRate:9.1
SliderMultiplier:1.99999990463257
SliderTickRate:1

[Events]
//Background and Video events
0,0,"BG2.png",0,0
//Break Periods
2,1564,5600
//Storyboard Layer 0 (Background)
//Storyboard Layer 1 (Fail)
//Storyboard Layer 2 (Pass)
//Storyboard Layer 3 (Foreground)
//Storyboard Sound Samples

[TimingPoints]
-47,352.941176470588,4,2,1,80,1,0
7276,-90.9090909090909,4,2,1,90,0,0
7541,-83.3333333333334,4,2,1,100,0,0
7717,-83.3333333333334,4,2,1,80,0,0
7894,-100,4,2,1,80,0,0
8070,-100,4,2,1,90,0,0
8423,-100,4,2,1,80,0,0
8688,-90.9090909090909,4,2,1,90,0,0
8952,-90.9090909090909,4,2,1,100,0,0
9129,-100,4,2,1,80,0,0
10100,-90.9090909090909,4,2,1,90,0,0
10364,-83.3333333333333,4,2,1,100,0,0
10541,-83.3333333333333,4,2,1,80,0,0
10805,-100,4,2,1,80,0,0
11511,-90.9090909090909,4,2,1,90,0,0
11776,-100,4,2,1,100,0,0
11952,-100,4,2,1,80,0,0
12305,-100,4,2,1,90,0,0
12658,-100,4,2,1,80,0,1
12747,-100,4,2,1,80,0,0
13717,-100,4,2,1,90,0,0
14070,-100,4,2,1,80,0,0
17688,-100,4,2,1,70,0,0
17776,-100,4,2,1,60,0,0
17864,-100,4,2,1,50,0,0
17952,-100,4,2,1,70,0,0
18041,-100,4,2,1,60,0,0
18129,-100,4,2,1,50,0,0
18217,-100,4,2,1,40,0,0
18305,-133.333333333333,4,2,1,80,0,0
19011,-133.333333333333,4,2,1,40,0,0
19541,-133.333333333333,4,2,1,80,0,0
20423,-133.333333333333,4,2,1,40,0,0
21129,-133.333333333333,4,2,1,80,0,0
21835,-133.333333333333,4,2,1,40,0,0
22364,-133.333333333333,4,2,1,80,0,0
23247,-133.333333333333,4,2,1,40,0,0
23600,-133.333333333333,4,2,1,80,0,0
23952,-133.333333333333,4,2,1,35,0,0
24305,-133.333333333333,4,2,1,80,0,0
24658,-133.333333333333,4,2,1,80,0,0
25188,-133.333333333333,4,2,1,40,0,0
26070,-133.333333333333,4,2,1,40,0,0
26247,-133.333333333333,4,2,1,80,0,0
26776,-133.333333333333,4,2,1,40,0,0
29247,-133.333333333333,4,2,1,80,0,0
29600,-100,4,2,1,80,0,0
31011,-100,4,2,1,40,0,0
31364,-100,4,2,1,80,0,0
32423,-100,4,2,1,40,0,0
32776,-100,4,2,1,80,0,0
33835,-100,4,2,1,40,0,0
34188,-100,4,2,1,80,0,0
35247,-83.3333333333333,4,2,1,80,0,1
40717,-83.3333333333333,4,2,1,80,0,0
40894,-100,4,2,1,80,0,1
44423,-100,4,2,1,80,0,0
44600,-100,4,2,1,80,0,1
47247,-100,4,2,1,80,0,0

[Colours]
Combo1 : 128,255,128
Combo2 : 0,255,0

[HitObjects]
256,192,129,12,0,1364,0:0:0:0:
101,0,6658,5,2,0:0:0:0:
98,50,6747,1,2,0:0:0:0:
94,99,6835,1,2,0:0:0:0:
91,149,6923,1,2,0:0:0:0:
89,198,7011,6,0,B|153:208|153:208|207:177,1,99.9999952316285,8|4,3:0|3:0,0:0:0:0:
254,261,7276,2,0,B|228:195|228:195|174:164,1,109.999998111725,8|4,3:0|3:0,0:0:0:0:
233,96,7541,2,0,B|121:236|121:236|134:296,1,239.99998123169,8|2,3:0|0:0,0:0:0:0:
248,348,8070,2,0,L|296:338,1,49.9999976158143,2|0,0:0|0:0,0:0:0:0:
392,313,8247,1,2,0:0:0:0:
335,157,8423,6,0,B|314:218|314:218|335:276,1,99.9999952316285,8|4,3:0|3:0,0:0:0:0:
242,308,8688,2,0,B|311:293|311:293|351:246,1,109.999998111725,8|4,3:0|3:0,0:0:0:0:
420,328,8952,1,8,3:0:0:0:
335,157,9129,6,0,L|319:109,3,49.9999976158143,4|2|2|2,3:0|0:0|0:0|0:0,0:0:0:0:
352,127,9482,1,4,3:0:0:0:
373,83,9570,1,2,0:0:0:0:
364,35,9658,1,2,0:0:0:0:
329,0,9747,1,2,0:0:0:0:
250,21,9835,6,0,B|227:81|227:81|248:140,1,99.9999952316285,8|4,3:0|3:0,0:0:0:0:
153,169,10100,2,0,B|222:156|222:156|263:108,1,109.999998111725,8|4,3:0|3:0,0:0:0:0:
320,181,10364,2,0,B|203:44|203:44|142:45,1,239.99998123169,8|4,3:0|3:0,0:0:0:0:
71,147,10894,2,0,L|71:196,1,49.9999976158143,4|0,3:0|0:0,0:0:0:0:
73,294,11070,1,4,3:0:0:0:
241,266,11247,6,0,B|184:233|184:233|123:243,1,99.9999952316285,8|4,3:0|3:0,0:0:0:0:
110,146,11511,2,0,B|110:216|110:216|149:265,1,109.999998111725,8|4,3:0|3:0,0:0:0:0:
48,322,11776,1,8,3:0:0:0:
178,372,11952,6,0,L|226:380,1,49.9999976158143,4|0,3:0|0:0,0:0:0:0:
332,352,12129,2,0,B|313:333|313:333|290:329,1,49.9999976158143,0|0,0:0|0:0,0:0:0:0:
186,261,12305,2,0,L|241:270,1,49.9999976158143,4|0,3:0|0:0,0:0:0:0:
362,238,12482,2,0,B|341:217|341:217|313:211,1,49.9999976158143,0|0,0:0|0:0,0:0:0:0:
192,147,12658,5,4,0:0:0:0:
278,58,12835,1,2,0:0:0:0:
328,61,12923,1,2,0:0:0:0:
378,64,13011,2,0,L|369:119,1,49.9999976158143,4|0,3:0|0:0,0:0:0:0:
264,133,13188,2,0,L|255:188,1,49.9999976158143,4|0,3:0|0:0,0:0:0:0:
348,260,13364,6,0,P|323:267|290:264,1,49.9999976158143,4|0,3:0|0:0,0:0:0:0:
190,223,13541,2,0,P|205:243|233:259,1,49.9999976158143,4|0,3:0|0:0,0:0:0:0:
364,253,13717,2,0,P|339:268|302:275,1,49.9999976158143,4|0,3:0|0:0,0:0:0:0:
179,209,13894,2,0,P|190:235|216:262,1,49.9999976158143,4|0,3:0|0:0,0:0:0:0:
377,241,14070,5,8,3:0:0:0:
294,120,14247,1,2,0:0:0:0:
281,136,14335,1,2,0:0:0:0:
301,140,14423,1,4,3:0:0:0:
179,209,14600,1,4,3:0:0:0:
134,99,14776,6,0,L|118:51,3,49.9999976158143,4|2|2|2,3:0|0:0|0:0|0:0,0:0:0:0:
69,189,15129,2,0,L|35:226,3,49.9999976158143,4|2|2|2,3:0|0:0|0:0|0:0,0:0:0:0:
179,209,15482,5,0,0:0:0:0:
55,109,15658,1,2,0:0:0:0:
55,109,15747,1,2,0:0:0:0:
55,109,15835,1,2,0:0:0:0:
14,269,16011,1,0,0:0:0:0:
179,209,16188,6,0,L|227:199,1,49.9999976158143,2|0,3:0|0:0,0:0:0:0:
93,227,16364,1,4,3:0:0:0:
211,326,16541,2,0,L|259:335,1,49.9999976158143,4|0,3:0|0:0,0:0:0:0:
125,308,16717,1,4,3:0:0:0:
327,258,16894,5,2,0:0:0:0:
327,258,16982,1,2,0:0:0:0:
327,258,17070,1,2,0:0:0:0:
327,258,17158,1,2,0:0:0:0:
327,258,17247,1,2,0:0:0:0:
179,209,17423,1,0,0:0:0:0:
348,153,17600,6,0,L|393:130,3,49.9999976158143,2|2|2|2,0:0|0:0|2:0|2:0,0:0:0:0:
381,166,17952,5,2,0:0:0:0:
404,213,18041,1,2,0:0:0:0:
375,256,18129,1,2,0:0:0:0:
400,300,18217,1,2,0:0:0:0:
380,347,18305,6,0,B|270:359|270:359|219:327,1,149.999998569489,0|0,0:0|0:0,0:0:0:0:
292,262,18835,1,0,0:0:0:0:
292,262,19011,2,0,L|274:104,1,149.999998569489,8|0,0:0|0:0,0:0:0:0:
165,91,19541,2,0,L|181:240,1,149.999998569489,0|0,0:0|0:0,0:0:0:0:
292,262,20423,1,8,0:0:0:0:
81,215,20776,1,0,0:0:0:0:
238,9,21129,5,8,3:0:0:0:
218,272,21482,5,0,0:0:0:0:
324,139,21658,1,0,0:0:0:0:
209,175,21835,2,0,P|279:204|320:284,1,149.999998569489,8|0,0:0|0:0,0:0:0:0:
362,349,22364,2,0,P|351:275|386:210,1,149.999998569489,0|0,0:0|0:0,0:0:0:0:
464,295,23247,1,8,0:0:0:0:
226,264,23600,1,0,0:0:0:0:
466,181,23952,6,0,L|484:183,6,18.7499998211861,4|4|4|4|4|4|4,1:0|1:0|1:0|1:0|1:0|1:0|1:0,0:0:0:0:
512,182,24305,2,0,L|366:197,1,112.499998927116,0|0,0:0|0:0,0:0:0:0:
325,142,24658,2,0,P|269:192|269:288,1,149.999998569489,8|0,0:0|0:0,0:0:0:0:
321,329,25188,2,0,P|262:373|189:368,1,149.999998569489,8|8,0:0|0:0,0:0:0:0:
189,368,26070,5,8,0:0:0:0:
345,222,26247,2,0,L|329:365,2,74.9999992847443,0|0|0,0:0|0:0|0:0,0:0:0:0:
189,368,26776,5,2,3:0:0:0:
175,372,27482,1,2,3:0:0:0:
161,376,28188,1,2,3:0:0:0:
349,168,29247,5,2,0:0:0:0:
312,202,29335,1,2,0:0:0:0:
277,236,29423,1,2,0:0:0:0:
241,271,29511,1,2,0:0:0:0:
203,304,29600,6,0,B|160:255|160:255|158:192,1,99.9999952316285,0|0,0:0|0:0,0:0:0:0:
64,119,29952,1,4,3:0:0:0:
64,119,30041,2,0,B|127:131|127:131|182:102,1,99.9999952316285,4|4,3:0|3:0,0:0:0:0:
230,47,30305,2,0,L|251:152,1,99.9999952316285,4|4,3:0|3:0,0:0:0:0:
340,116,30570,2,0,L|319:221,1,99.9999952316285,4|4,3:0|3:0,0:0:0:0:
229,245,30835,1,4,3:0:0:0:
410,218,31011,6,0,B|447:207|447:207|471:211|471:211|506:201,1,99.9999952316285,4|0,0:0|0:0,0:0:0:0:
506,61,31364,1,4,3:0:0:0:
506,61,31452,2,0,B|443:49|443:49|388:78,1,99.9999952316285,4|0,3:0|0:0,0:0:0:0:
355,141,31717,2,0,L|334:246,1,99.9999952316285,4|4,3:0|3:0,0:0:0:0:
245,210,31982,2,0,L|266:315,1,99.9999952316285,4|4,3:0|3:0,0:0:0:0:
359,327,32247,1,4,3:0:0:0:
215,384,32423,6,0,B|152:364|152:364|118:311,1,99.9999952316285,4|0,0:0|0:0,0:0:0:0:
0,296,32776,1,4,3:0:0:0:
0,296,32864,2,0,B|60:273|60:273|92:220,1,99.9999952316285,4|4,3:0|3:0,0:0:0:0:
105,149,33129,2,0,L|177:228,1,99.9999952316285,4|4,3:0|3:0,0:0:0:0:
234,152,33394,2,0,L|270:252,1,99.9999952316285,4|4,3:0|3:0,0:0:0:0:
206,320,33658,1,4,3:0:0:0:
347,203,33835,6,0,B|373:174|373:174|395:165|395:165|420:138,1,99.9999952316285,4|0,0:0|0:0,0:0:0:0:
349,19,34188,1,4,3:0:0:0:
349,19,34276,2,0,B|288:41|288:41|256:94,1,99.9999952316285,4|0,3:0|0:0,0:0:0:0:
261,165,34541,2,0,L|297:265,1,99.9999952316285,4|4,3:0|3:0,0:0:0:0:
202,281,34805,2,0,L|274:360,1,99.9999952316285,4|4,3:0|3:0,0:0:0:0:
360,329,35070,1,4,3:0:0:0:
202,281,35247,6,0,B|142:277|142:277|92:235,1,119.999990615845,4|0,0:0|0:0,0:0:0:0:
114,197,35511,1,4,3:0:0:0:
101,154,35600,2,0,B|109:34,1,119.999990615845,8|8,3:0|3:0,0:0:0:0:
213,122,35952,2,0,B|281:127|281:127|331:90,1,119.999990615845,8|8,3:0|3:0,0:0:0:0:
190,43,36305,2,0,L|249:48,3,59.9999953079226,2|2|2|2,0:0|0:0|0:0|0:0,0:0:0:0:
223,3,36658,1,4,3:0:0:0:
464,106,36835,5,0,0:0:0:0:
396,70,37011,2,0,L|391:129,2,59.9999953079226,2|2|2,1:0|0:0|0:0,0:0:0:0:
213,122,37364,2,0,L|218:181,2,59.9999953079226,2|2|2,1:0|0:0|0:0,0:0:0:0:
37,59,37717,2,0,L|32:118,2,59.9999953079226,2|2|2,1:0|0:0|0:0,0:0:0:0:
136,187,38070,5,0,0:0:0:0:
210,43,38247,1,2,0:0:0:0:
210,43,38335,1,2,0:0:0:0:
210,43,38423,1,2,0:0:0:0:
218,181,38600,2,0,B|220:230|220:230|231:247|231:247|235:306|235:306|227:323|227:323|230:372|230:372|364:352,1,239.99998123169,2|2,1:0|0:0,0:0:0:0:
319,301,39129,6,0,L|312:214,2,79.9999937438968,2|2|2,3:0|3:0|3:0,0:0:0:0:
218,264,39482,2,0,P|188:234|117:233,1,79.9999937438968,2|2,0:0|0:0,0:0:0:0:
208,279,39717,1,2,0:0:0:0:
137,334,39835,6,0,L|78:339,2,59.9999953079226,2|2|2,0:0|0:0|0:0,0:0:0:0:
319,301,40188,6,0,L|324:360,1,59.9999953079226,4|0,3:0|0:0,0:0:0:0:
225,280,40364,2,0,L|220:339,1,59.9999953079226,4|0,3:0|0:0,0:0:0:0:
293,170,40541,2,0,L|288:229,1,59.9999953079226,4|0,3:0|0:0,0:0:0:0:
189,149,40717,2,0,L|194:208,1,59.9999953079226,4|0,3:0|0:0,0:0:0:0:
299,94,40894,5,4,0:0:0:0:
299,94,40982,1,0,0:0:0:0:
367,210,41158,1,4,3:0:0:0:
367,210,41247,2,0,L|426:205,1,49.9999976158143,4|0,3:0|0:0,0:0:0:0:
319,301,41423,2,0,L|378:296,1,49.9999976158143,4|0,3:0|0:0,0:0:0:0:
256,192,41600,1,4,3:0:0:0:
256,192,41776,1,4,3:0:0:0:
213,94,41952,5,4,0:0:0:0:
213,94,42040,1,0,0:0:0:0:
145,210,42216,1,4,3:0:0:0:
145,210,42305,2,0,L|86:205,1,49.9999976158143,4|0,3:0|0:0,0:0:0:0:
193,301,42481,2,0,L|134:296,1,49.9999976158143,4|0,3:0|0:0,0:0:0:0:
256,192,42658,1,4,3:0:0:0:
256,192,42834,1,4,3:0:0:0:
43,163,43011,6,0,L|47:113,1,49.9999976158143,4|0,3:0|0:0,0:0:0:0:
134,115,43187,2,0,L|138:65,1,49.9999976158143,4|0,3:0|0:0,0:0:0:0:
145,210,43364,2,0,B|165:221|165:221|190:215,1,49.9999976158143,4|4,3:0|3:0,0:0:0:0:
256,64,43629,1,8,3:0:0:0:
469,163,43805,6,0,L|464:113,1,49.9999976158143,4|0,3:0|0:0,0:0:0:0:
378,115,43981,2,0,L|373:65,1,49.9999976158143,4|0,3:0|0:0,0:0:0:0:
367,210,44158,2,0,B|346:221|346:221|321:215,1,49.9999976158143,4|4,3:0|3:0,0:0:0:0:
256,32,44423,1,8,3:0:0:0:
193,301,44600,5,4,0:0:0:0:
193,301,44688,1,0,0:0:0:0:
69,282,44864,1,4,3:0:0:0:
69,282,44952,2,0,L|10:287,1,49.9999976158143,4|0,3:0|0:0,0:0:0:0:
132,363,45128,2,0,L|73:368,1,49.9999976158143,4|0,3:0|0:0,0:0:0:0:
193,301,45305,1,4,3:0:0:0:
40,214,45482,1,4,3:0:0:0:
252,113,45658,6,0,L|256:63,1,49.9999976158143,4|4,3:0|3:0,0:0:0:0:
263,208,45835,2,0,B|283:219|283:219|308:213,1,49.9999976158143,4|4,3:0|3:0,0:0:0:0:
181,172,46100,1,4,3:0:0:0:
68,52,46276,6,0,L|64:2,1,49.9999976158143,4|4,3:0|3:0,0:0:0:0:
57,147,46453,2,0,B|37:158|37:158|12:152,1,49.9999976158143,4|0,3:0|0:0,0:0:0:0:
139,111,46718,1,4,3:0:0:0:
40,214,46894,1,4,3:0:0:0:
152,22,47070,1,4,3:0:0:0:
361,208,47247,5,4,3:0:0:0:
140,42,47776,1,4,3:0:0:0:
143,325,48305,1,4,3:0:0:0:
361,208,48835,5,4,3:0:0:0:
143,185,49188,1,4,3:0:0:0:
367,188,49717,1,4,3:0:0:0:
110,254,50070,5,0,3:0:0:0:
83,265,51482,5,4,3:0:0:0:
63,274,51835,1,4,3:0:0:0:
45,282,52188,5,4,3:0:0:0:
128,338,52364,1,4,3:0:0:0:
138,229,52541,5,2,0:0:0:0:
141,179,52629,1,2,0:0:0:0:
145,130,52717,1,2,0:0:0:0:
148,80,52805,1,2,0:0:0:0:
153,32,52894,5,4,0:0:0:0:
