osu file format v14

[General]
AudioFilename: audio.mp3
AudioLeadIn: 0
PreviewTime: 18262
Countdown: 1
SampleSet: Soft
StackLeniency: 0.8
Mode: 0
LetterboxInBreaks: 0
WidescreenStoryboard: 1

[Editor]
Bookmarks: 6615,12658,38027,43762,52851
DistanceSpacing: 1.1
BeatDivisor: 2
GridSize: 32
TimelineZoom: 1.5

[Metadata]
Title:Toki Meguru Ginga Saikyou no Senshi
TitleUnicode:時巡る銀河最強の戦士
Artist:Jun Ishikawa
ArtistUnicode:石川淳
Creator:Bubblun
Version:Hard
Source:星のカービィ ロボボプラネット
Tags:kirby planet robobot nintendo hal laboratory galacta meta knight hoshi no kaabi puranetto
BeatmapID:1319167
BeatmapSetID:592485

[Difficulty]
HPDrainRate:5
CircleSize:4
OverallDifficulty:6
ApproachRate:6.8
SliderMultiplier:1.39999990463257
SliderTickRate:1

[Events]
//Background and Video events
0,0,"BG2.png",0,0
//Break Periods
2,1564,5600
2,18505,23023
//Storyboard Layer 0 (Background)
//Storyboard Layer 1 (Fail)
//Storyboard Layer 2 (Pass)
//Storyboard Layer 3 (Foreground)
//Storyboard Sound Samples

[TimingPoints]
-47,352.941176470588,4,2,1,80,1,0
7276,-100,4,2,1,90,0,0
7541,-100,4,2,1,100,0,0
7717,-100,4,2,1,80,0,0
8070,-100,4,2,1,90,0,0
8423,-100,4,2,1,80,0,0
8688,-100,4,2,1,90,0,0
8952,-100,4,2,1,100,0,0
9129,-100,4,2,1,80,0,0
10100,-100,4,2,1,90,0,0
10364,-100,4,2,1,100,0,0
10541,-100,4,2,1,80,0,0
11511,-100,4,2,1,90,0,0
11776,-100,4,2,1,100,0,0
11952,-100,4,2,1,80,0,0
12305,-100,4,2,1,90,0,0
12658,-100,4,2,1,80,0,1
12747,-100,4,2,1,80,0,0
13717,-100,4,2,1,90,0,0
14070,-100,4,2,1,80,0,0
14952,-100,4,2,1,80,0,0
15129,-100,4,2,1,80,0,0
15305,-100,4,2,1,80,0,0
16894,-100,4,2,1,80,0,0
17247,-100,4,2,1,80,0,0
17688,-100,4,2,1,70,0,0
17776,-100,4,2,1,60,0,0
17864,-100,4,2,1,50,0,0
17952,-100,4,2,1,70,0,0
18041,-100,4,2,1,60,0,0
18129,-100,4,2,1,50,0,0
18217,-100,4,2,1,40,0,0
18305,-100,4,2,1,80,0,0
19011,-100,4,2,1,40,0,0
19541,-100,4,2,1,80,0,0
20423,-100,4,2,1,40,0,0
21129,-100,4,2,1,80,0,0
21835,-100,4,2,1,40,0,0
22364,-100,4,2,1,80,0,0
23247,-100,4,2,1,40,0,0
23600,-100,4,2,1,80,0,0
23952,-100,4,2,1,35,0,0
24305,-100,4,2,1,80,0,0
25188,-100,4,2,1,50,0,0
25541,-100,4,2,1,80,0,0
26070,-100,4,2,1,40,0,0
26247,-100,4,2,1,80,0,0
26776,-100,4,2,1,40,0,0
29247,-100,4,2,1,80,0,0
29600,-90.9090909090909,4,2,1,80,0,0
31011,-90.9090909090909,4,2,1,40,0,0
31364,-90.9090909090909,4,2,1,80,0,0
32423,-90.9090909090909,4,2,1,40,0,0
32776,-90.9090909090909,4,2,1,80,0,0
33835,-90.9090909090909,4,2,1,40,0,0
34188,-90.9090909090909,4,2,1,80,0,0
35247,-83.3333333333333,4,2,1,80,0,1
40717,-100,4,2,1,80,0,0
40894,-76.9230769230769,4,2,1,80,0,1
44423,-76.9230769230769,4,2,1,80,0,0
44600,-76.9230769230769,4,2,1,80,0,1
47247,-100,4,2,1,80,0,0

[Colours]
Combo1 : 128,255,128
Combo2 : 0,255,0

[HitObjects]
256,192,129,12,0,1364,0:0:0:0:
181,120,6658,6,0,L|126:129,3,34.9999976158143,2|2|2|2,0:0|0:0|0:0|0:0,0:0:0:0:
219,144,7011,6,0,P|270:156|331:127,1,104.999992847443,8|8,3:0|3:0,0:0:0:0:
376,17,7541,2,0,L|398:154,1,139.999990463257,8|2,3:0|0:0,0:0:0:0:
488,166,8070,2,0,B|493:133|493:133|472:103,1,69.9999952316285,2|2,0:0|0:0,0:0:0:0:
373,193,8423,6,0,B|354:219|354:219|258:235,2,104.999992847443,8|8|8,3:0|3:0|3:0,0:0:0:0:
457,233,9129,2,0,L|491:238,2,34.9999976158143,4|2|2,3:0|0:0|0:0,0:0:0:0:
419,314,9482,1,4,3:0:0:0:
419,314,9570,1,2,0:0:0:0:
419,314,9658,1,2,0:0:0:0:
334,358,9835,6,0,P|322:307|351:246,1,104.999992847443,8|8,3:0|3:0,0:0:0:0:
512,217,10365,2,0,L|374:194,1,139.999990463257,8|4,3:0|3:0,0:0:0:0:
366,100,10894,2,0,B|398:94|398:94|428:115,1,69.9999952316285,4|4,3:0|3:0,0:0:0:0:
349,216,11247,6,0,B|322:234|322:234|306:330,2,104.999992847443,8|8|8,3:0|3:0|3:0,0:0:0:0:
366,100,11952,2,0,L|360:65,2,34.9999976158143,4|0|0,3:0|0:0|0:0,0:0:0:0:
294,140,12305,1,4,3:0:0:0:
294,140,12394,1,0,0:0:0:0:
294,140,12482,1,0,0:0:0:0:
349,216,12658,6,0,P|300:233|249:221,1,104.999992847443,4|2,0:0|0:0,0:0:0:0:
215,180,13011,2,0,P|231:216|221:269,1,69.9999952316285,4|4,3:0|3:0,0:0:0:0:
154,287,13364,6,0,L|119:281,2,34.9999976158143,4|0|4,3:0|0:0|3:0,0:0:0:0:
226,341,13717,2,0,L|260:335,2,34.9999976158143,4|0|4,3:0|0:0|3:0,0:0:0:0:
148,371,14070,6,0,B|121:390|121:390|13:374,1,139.999990463257,8|4,3:0|3:0,0:0:0:0:
0,280,14600,2,0,B|29:226|29:226|28:194|28:194|29:183|29:183|25:188|25:188|29:183|29:183|29:152|29:152|12:122|12:122|12:87|12:87|30:61|30:61|84:61,1,279.999980926514,4|2,3:0|0:0,0:0:0:0:
134,116,15482,6,0,P|203:132|260:99,1,139.999990463257,0|2,0:0|0:0,0:0:0:0:
289,0,16011,2,0,P|273:69|306:126,1,139.999990463257,0|4,0:0|3:0,0:0:0:0:
412,139,16541,2,0,B|417:106|417:106|390:66,1,69.9999952316285,4|4,3:0|3:0,0:0:0:0:
299,173,16894,6,0,L|293:207,4,34.9999976158143,2|2|2|2|2,0:0|0:0|0:0|0:0|0:0,0:0:0:0:
172,238,17600,6,0,B|231:249|231:249|256:282|256:282|348:301|348:301|366:220,1,279.999980926514,2|0,0:0|0:0,0:0:0:0:
82,112,23952,5,4,1:3:0:0:
82,112,24658,6,0,P|66:181|99:238,1,139.999990463257,8|0,0:0|0:0,0:0:0:0:
168,274,25188,2,0,P|99:258|42:291,1,139.999990463257,8|8,0:0|0:0,0:0:0:0:
247,264,26070,1,8,0:0:0:0:
272,132,26776,5,2,3:0:0:0:
272,132,27482,1,2,3:0:0:0:
272,132,28188,1,2,3:0:0:0:
302,325,29247,2,0,L|308:359,2,34.9999976158143,2|2|2,0:0|0:0|0:0,0:0:0:0:
350,259,29600,6,0,L|428:272,1,76.9999971046448,0|0,0:0|0:0,0:0:0:0:
512,288,29952,1,4,3:0:0:0:
444,182,30305,2,0,L|437:142,2,38.4999985523224,4|0|4,3:0|0:0|3:0,0:0:0:0:
350,259,30658,2,0,L|341:304,2,38.4999985523224,0|4|4,0:0|3:0|3:0,0:0:0:0:
269,184,31011,6,0,B|246:151|246:151|255:100,1,76.9999971046448,4|0,0:0|0:0,0:0:0:0:
322,66,31364,1,4,3:0:0:0:
437,147,31717,2,0,L|476:153,2,38.4999985523224,4|0|4,3:0|0:0|3:0,0:0:0:0:
356,224,32070,2,0,L|348:266,2,38.4999985523224,0|4|4,0:0|3:0|3:0,0:0:0:0:
275,149,32423,6,0,L|197:136,1,76.9999971046448,4|0,0:0|0:0,0:0:0:0:
108,118,32775,1,4,3:0:0:0:
183,215,33129,2,0,L|190:257,2,38.4999985523224,4|0|4,3:0|0:0|3:0,0:0:0:0:
275,149,33482,2,0,L|284:97,2,38.4999985523224,0|4|4,0:0|3:0|3:0,0:0:0:0:
349,258,33835,6,0,B|372:291|372:291|363:342,1,76.9999971046448,4|0,0:0|0:0,0:0:0:0:
296,376,34187,1,4,3:0:0:0:
183,284,34541,2,0,L|142:276,2,38.4999985523224,4|0|4,3:0|0:0|3:0,0:0:0:0:
262,218,34894,2,0,L|272:161,2,38.4999985523224,0|4|4,0:0|3:0|3:0,0:0:0:0:
177,358,35247,6,0,B|142:382|142:382|89:372,1,83.9999917144779,4|0,0:0|0:0,0:0:0:0:
38,298,35600,2,0,L|-19:288,2,41.999995857239,4|0|4,3:0|0:0|3:0,0:0:0:0:
130,262,35952,2,0,P|141:211|117:170,1,83.9999917144779,8|8,3:0|3:0,0:0:0:0:
62,119,36305,1,2,0:0:0:0:
62,119,36394,1,2,0:0:0:0:
62,119,36482,1,2,0:0:0:0:
64,221,36658,1,4,3:0:0:0:
211,183,36835,5,0,0:0:0:0:
211,183,37011,2,0,L|219:230,2,41.999995857239,2|2|2,1:0|0:0|0:0,0:0:0:0:
236,76,37364,2,0,L|259:40,2,41.999995857239,2|2|2,1:0|0:0|0:0,0:0:0:0:
135,108,37717,2,0,L|89:100,2,41.999995857239,2|2|2,1:0|0:0|0:0,0:0:0:0:
296,144,38070,6,0,B|410:165|410:165|452:134,1,167.999983428956,0|2,0:0|0:0,0:0:0:0:
385,68,38600,2,0,L|355:245,1,167.999983428956,2|2,1:0|0:0,0:0:0:0:
256,192,39129,12,4,40188,3:0:0:0:
256,128,40894,6,0,P|313:95|378:110,1,136.499984453202,4|4,0:0|3:0,0:0:0:0:
415,136,41247,1,4,3:0:0:0:
421,169,41335,1,0,0:0:0:0:
368,243,41600,2,0,P|325:253|286:231,1,90.9999896354681,4|4,3:0|3:0,0:0:0:0:
193,201,41952,6,0,P|136:234|71:219,1,136.499984453202,4|4,0:0|3:0,0:0:0:0:
34,193,42305,1,4,3:0:0:0:
28,160,42393,1,0,0:0:0:0:
81,86,42658,2,0,P|124:76|163:98,1,90.9999896354681,4|4,3:0|3:0,0:0:0:0:
256,3,43011,6,0,B|266:60|266:60|299:85|299:85|317:175|317:175|188:201,1,318.499963724138,4|8,3:0|3:0,0:0:0:0:
119,260,43805,2,0,B|109:203|109:203|76:178|76:178|58:88|58:88|187:62,1,318.499963724138,4|8,3:0|3:0,0:0:0:0:
256,128,44600,6,0,P|313:95|378:110,1,136.499984453202,4|4,0:0|3:0,0:0:0:0:
415,136,44952,2,0,L|430:224,2,45.4999948177341,4|0|4,3:0|0:0|3:0,0:0:0:0:
478,243,45305,2,0,B|440:268|440:268|384:257,1,90.9999896354681,4|4,3:0|3:0,0:0:0:0:
328,198,45658,6,0,P|271:231|206:216,1,136.499984453202,4|4,3:0|3:0,0:0:0:0:
256,192,46188,12,4,47247,3:0:0:0:
252,191,50070,5,0,3:0:0:0:
36,234,51482,5,4,3:0:0:0:
135,246,51835,1,4,3:0:0:0:
147,147,52188,6,0,L|157:62,1,69.9999952316285,4|4,3:0|3:0,0:0:0:0:
72,12,52541,2,0,L|61:96,1,69.9999952316285,2|2,0:0|0:0,0:0:0:0:
71,162,52894,5,4,0:0:0:0:
