osu file format v14

[General]
AudioFilename: audio.mp3
AudioLeadIn: 0
PreviewTime: 18262
Countdown: 1
SampleSet: Soft
StackLeniency: 0.7
Mode: 0
LetterboxInBreaks: 0
WidescreenStoryboard: 1

[Editor]
Bookmarks: 6615,38027,43762,52851
DistanceSpacing: 1.1
BeatDivisor: 2
GridSize: 32
TimelineZoom: 2.300005

[Metadata]
Title:Toki Meguru Ginga Saikyou no Senshi
TitleUnicode:時巡る銀河最強の戦士
Artist:Jun Ishikawa
ArtistUnicode:石川淳
Creator:Bubblun
Version:Extra
Source:星のカービィ ロボボプラネット
Tags:kirby planet robobot nintendo hal laboratory galacta meta knight hoshi no kaabi puranetto
BeatmapID:1260329
BeatmapSetID:592485

[Difficulty]
HPDrainRate:5
CircleSize:4
OverallDifficulty:8.6
ApproachRate:9.5
SliderMultiplier:2.49999990463257
SliderTickRate:1

[Events]
//Background and Video events
0,0,"BG2.png",0,0
//Break Periods
2,1564,5600
//Storyboard Layer 0 (Background)
//Storyboard Layer 1 (Fail)
//Storyboard Layer 2 (Pass)
//Storyboard Layer 3 (Foreground)
//Storyboard Sound Samples

[TimingPoints]
-47,352.941176470588,4,2,1,80,1,0
7276,-86.9565217391304,4,2,1,90,0,0
7541,-86.9565217391304,4,2,1,100,0,0
7717,-100,4,2,1,80,0,0
8070,-100,4,2,1,90,0,0
8423,-100,4,2,1,80,0,0
8688,-86.9565217391304,4,2,1,90,0,0
8952,-86.9565217391304,4,2,1,100,0,0
9129,-100,4,2,1,80,0,0
10100,-86.9565217391304,4,2,1,90,0,0
10364,-86.9565217391304,4,2,1,100,0,0
10541,-100,4,2,1,80,0,0
11511,-86.9565217391304,4,2,1,90,0,0
11776,-86.9565217391304,4,2,1,100,0,0
11952,-100,4,2,1,80,0,0
12305,-100,4,2,1,90,0,0
12658,-100,4,2,1,80,0,1
12747,-100,4,2,1,80,0,0
13717,-100,4,2,1,90,0,0
14070,-100,4,2,1,80,0,0
17688,-100,4,2,1,70,0,0
17776,-100,4,2,1,60,0,0
17864,-100,4,2,1,50,0,0
17952,-100,4,2,1,70,0,0
18041,-100,4,2,1,60,0,0
18129,-100,4,2,1,50,0,0
18217,-100,4,2,1,40,0,0
18305,-133.333333333333,4,2,1,80,0,0
19011,-133.333333333333,4,2,1,40,0,0
19541,-133.333333333333,4,2,1,80,0,0
20423,-133.333333333333,4,2,1,40,0,0
21129,-133.333333333333,4,2,1,80,0,0
21835,-133.333333333333,4,2,1,40,0,0
22364,-133.333333333333,4,2,1,80,0,0
23247,-133.333333333333,4,2,1,40,0,0
23600,-133.333333333333,4,2,1,80,0,0
23952,-133.333333333333,4,2,1,35,0,0
24305,-133.333333333333,4,2,1,80,0,0
26070,-133.333333333333,4,2,1,40,0,0
26247,-133.333333333333,4,2,1,80,0,0
26776,-133.333333333333,4,2,1,40,0,0
29247,-133.333333333333,4,2,1,80,0,0
29600,-100,4,2,1,80,0,0
31011,-100,4,2,1,40,0,0
31364,-100,4,2,1,80,0,0
32423,-100,4,2,1,40,0,0
32776,-100,4,2,1,80,0,0
33835,-100,4,2,1,40,0,0
34188,-100,4,2,1,80,0,0
35247,-86.9565217391304,4,2,1,80,0,1
40717,-100,4,2,1,80,0,0
40894,-100,4,2,1,80,0,1
44423,-100,4,2,1,80,0,0
44600,-100,4,2,1,80,0,1
47247,-100,4,2,1,80,0,0

[Colours]
Combo1 : 128,255,128
Combo2 : 0,255,0

[HitObjects]
256,192,129,12,0,1364,0:0:0:0:
260,97,6658,5,2,0:0:0:0:
261,124,6747,1,2,0:0:0:0:
183,127,6835,1,2,0:0:0:0:
182,100,6923,1,2,0:0:0:0:
220,112,7011,6,0,B|226:208|226:208|189:252,1,124.999995231629,8|4,3:0|3:0,0:0:0:0:
269,309,7276,2,0,B|173:265|173:265|159:222,1,143.749997258186,8|4,3:0|3:0,0:0:0:0:
61,241,7541,2,0,B|147:179|147:179|191:189,1,143.749997258186,8|0,3:0|0:0,3:0:0:0:
311,370,7894,1,0,0:0:0:0:
433,149,8070,2,0,L|506:153,1,62.4999976158143,2|0,0:0|0:0,0:0:0:0:
484,296,8247,2,0,L|421:292,1,62.4999976158143,2|0,0:0|0:0,0:0:0:0:
292,174,8423,6,0,B|228:101|228:101|171:96,1,124.999995231629,8|4,3:0|3:0,0:0:0:0:
187,0,8688,2,0,B|150:98|150:98|170:139,1,143.749997258186,8|4,3:0|3:0,0:0:0:0:
88,193,8952,2,0,B|191:176|191:176|216:138,1,143.749997258186,8|4,3:0|3:0,0:0:0:0:
28,145,9306,1,2,0:0:0:0:
80,313,9482,1,4,3:0:0:0:
37,350,9571,1,2,0:0:0:0:
1,308,9659,1,2,0:0:0:0:
44,271,9747,1,2,0:0:0:0:
163,320,9835,6,0,B|259:326|259:326|303:288,1,124.999995231629,8|4,3:0|3:0,0:0:0:0:
359,369,10100,2,0,B|315:273|315:273|272:259,1,143.749997258186,8|4,3:0|3:0,0:0:0:0:
301,163,10364,2,0,B|237:258|237:258|243:287,1,143.749997258186,8|4,3:0|3:0,0:0:0:0:
106,177,10717,1,0,0:0:0:0:
354,169,10894,2,0,L|274:161,1,62.4999976158143,4|0,3:0|0:0,0:0:0:0:
106,162,11070,2,0,L|168:155,1,62.4999976158143,4|0,3:0|0:0,0:0:0:0:
294,150,11247,6,0,B|389:160|389:160|425:205,1,124.999995231629,8|4,3:0|3:0,0:0:0:0:
493,118,11511,2,0,B|440:209|440:209|396:219,1,143.749997258186,8|4,3:0|3:0,0:0:0:0:
414,326,11776,2,0,B|361:234|361:234|373:197,1,143.749997258186,8|4,3:0|3:0,0:0:0:0:
210,302,12129,1,0,0:0:0:0:
458,310,12305,2,0,L|378:318,1,62.4999976158143,4|0,3:0|0:0,0:0:0:0:
210,317,12482,2,0,L|272:324,1,62.4999976158143,0|0,0:0|0:0,0:0:0:0:
460,325,12658,5,4,0:0:0:0:
437,121,12835,1,2,0:0:0:0:
441,158,12923,1,2,0:0:0:0:
447,205,13011,2,0,P|417:215|372:207,1,62.4999976158143,4|0,3:0|0:0,0:0:0:0:
284,166,13188,2,0,P|254:156|209:164,1,62.4999976158143,4|0,3:0|0:0,0:0:0:0:
115,213,13364,6,0,L|108:275,1,62.4999976158143,4|0,3:0|0:0,0:0:0:0:
137,46,13541,2,0,L|130:108,1,62.4999976158143,4|0,3:0|0:0,0:0:0:0:
131,213,13717,2,0,L|124:275,1,62.4999976158143,4|0,3:0|0:0,0:0:0:0:
152,46,13894,2,0,L|145:108,1,62.4999976158143,4|0,3:0|0:0,0:0:0:0:
152,274,14070,5,8,3:0:0:0:
63,156,14247,2,0,L|1:149,2,62.4999976158143,2|2|4,0:0|0:0|3:0,0:0:0:0:
214,171,14600,1,4,3:0:0:0:
220,310,14776,5,4,3:0:0:0:
175,313,14864,1,2,0:0:0:0:
172,270,14952,1,2,0:0:0:0:
217,267,15041,1,2,0:0:0:0:
57,337,15129,5,4,3:0:0:0:
15,301,15217,1,2,0:0:0:0:
52,258,15305,1,2,0:0:0:0:
94,294,15394,1,2,0:0:0:0:
54,299,15482,5,0,0:0:0:0:
188,187,15658,1,2,0:0:0:0:
188,187,15747,1,2,0:0:0:0:
188,187,15835,1,2,0:0:0:0:
121,375,16011,1,0,0:0:0:0:
43,191,16188,6,0,L|105:184,1,62.4999976158143,2|0,3:0|0:0,0:0:0:0:
188,170,16364,2,0,L|250:163,1,62.4999976158143,4|0,3:0|0:0,0:0:0:0:
43,206,16541,2,0,L|105:199,1,62.4999976158143,4|0,3:0|0:0,0:0:0:0:
188,186,16717,2,0,L|250:179,1,62.4999976158143,4|0,3:0|0:0,0:0:0:0:
121,375,16894,5,2,0:0:0:0:
121,375,16982,1,2,0:0:0:0:
121,375,17070,1,2,0:0:0:0:
121,375,17158,1,2,0:0:0:0:
121,375,17247,1,2,0:0:0:0:
43,223,17423,1,0,0:0:0:0:
140,103,17600,6,0,L|178:54,3,62.4999976158143,2|2|2|2,0:0|0:0|2:0|2:0,0:0:0:0:
181,86,17952,1,2,0:0:0:0:
221,112,18041,1,2,0:0:0:0:
262,86,18129,1,2,0:0:0:0:
305,108,18217,1,2,0:0:0:0:
351,84,18305,6,0,B|364:208|364:208|317:289,1,187.5,0|0,0:0|0:0,0:0:0:0:
149,243,18835,1,0,0:0:0:0:
149,243,19011,2,0,P|200:171|304:204,1,187.5,8|0,0:0|0:0,0:0:0:0:
184,322,19541,2,0,P|271:336|323:264,1,187.5,0|0,0:0|0:0,0:0:0:0:
105,309,20423,1,8,0:0:0:0:
323,264,20776,1,0,0:0:0:0:
113,120,21129,5,8,3:0:0:0:
216,283,21482,5,0,0:0:0:0:
216,283,21658,1,0,0:0:0:0:
113,120,21835,2,0,P|87:211|153:305,1,187.5,8|0,0:0|0:0,0:0:0:0:
181,375,22364,2,0,P|118:308|26:304,1,187.5,0|0,0:0|0:0,0:0:0:0:
181,375,23247,1,8,0:0:0:0:
234,205,23600,1,0,0:0:0:0:
113,120,23952,6,0,L|80:129,3,23.4375,4|0|4|4,1:2|0:0|3:0|1:0,0:0:0:0:
123,127,24129,6,0,L|145:120,3,23.4375,4|4|4|4,3:0|1:0|3:0|1:0,0:0:0:0:
118,144,24305,5,0,0:0:0:0:
105,286,24658,6,0,P|196:260|290:326,1,187.5,2|0,2:0|0:0,0:0:0:0:
360,354,25188,2,0,P|293:291|289:197,1,187.5,2|0,2:0|0:0,0:0:0:0:
412,232,26070,5,8,0:0:0:0:
193,265,26247,2,0,L|155:404,2,93.7500000000001,0|0|0,0:0|0:0|0:0,0:0:0:0:
412,232,26776,5,2,3:0:0:0:
421,224,27482,5,2,3:0:0:0:
429,215,28188,5,2,3:0:0:0:
437,188,29247,5,2,0:0:0:0:
438,215,29335,1,2,0:0:0:0:
357,218,29423,1,2,0:0:0:0:
356,191,29511,1,2,0:0:0:0:
396,204,29600,6,0,P|400:268|339:357,1,124.999995231629,0|0,0:0|0:0,0:0:0:0:
188,270,29952,1,4,3:0:0:0:
188,270,30041,2,0,B|252:275|252:275|333:235,1,124.999995231629,4|4,3:0|3:0,0:0:0:0:
102,154,30305,2,0,L|41:82,1,62.4999976158143,4|0,3:0|0:0,0:0:0:0:
121,239,30482,1,4,3:0:0:0:
111,277,30570,2,0,L|79:364,1,62.4999976158143,4|0,3:0|0:0,0:0:0:0:
179,197,30747,1,4,3:0:0:0:
218,188,30835,2,0,L|309:171,1,62.4999976158143,4|4,3:0|3:0,0:0:0:0:
405,172,31011,6,0,P|389:111|296:57,1,124.999995231629,4|0,0:0|0:0,0:0:0:0:
187,181,31364,1,4,3:0:0:0:
187,181,31452,2,0,B|244:153|244:153|334:161,1,124.999995231629,4|0,3:0|0:0,0:0:0:0:
147,323,31717,2,0,L|115:412,1,62.4999976158143,4|0,3:0|0:0,0:0:0:0:
135,234,31894,1,4,3:0:0:0:
115,208,31982,2,0,L|53:138,1,62.4999976158143,4|0,3:0|0:0,0:0:0:0:
204,253,32158,1,4,3:0:0:0:
240,247,32247,2,0,L|331:230,1,62.4999976158143,4|0,3:0|0:0,0:0:0:0:
58,353,32423,6,0,P|31:294|56:189,1,124.999995231629,4|0,0:0|0:0,0:0:0:0:
228,216,32776,1,4,3:0:0:0:
228,216,32864,2,0,B|166:234|166:234|105:300,1,124.999995231629,4|4,3:0|3:0,0:0:0:0:
350,294,33129,2,0,L|432:339,1,62.4999976158143,4|0,3:0|0:0,0:0:0:0:
302,221,33305,1,4,3:0:0:0:
301,189,33394,2,0,L|299:96,1,62.4999976158143,4|0,3:0|0:0,0:0:0:0:
263,281,33570,1,4,3:0:0:0:
239,303,33658,2,0,L|160:351,1,62.4999976158143,4|0,3:0|0:0,0:0:0:0:
465,220,33835,6,0,P|445:281|356:342,1,124.999995231629,4|0,0:0|0:0,0:0:0:0:
247,208,34188,1,4,3:0:0:0:
247,208,34276,2,0,B|304:235|304:235|394:227,1,124.999995231629,4|0,3:0|0:0,0:0:0:0:
209,66,34541,2,0,L|177:-23,1,62.4999976158143,4|0,3:0|0:0,0:0:0:0:
195,155,34717,1,4,3:0:0:0:
175,186,34805,2,0,L|113:255,1,62.4999976158143,4|0,3:0|0:0,0:0:0:0:
264,136,34982,1,4,3:0:0:0:
301,141,35070,2,0,L|392:157,1,62.4999976158143,4|0,3:0|0:0,0:0:0:0:
64,114,35247,6,0,B|54:225|54:225|101:306,1,143.749997258186,4|0,0:0|0:0,0:0:0:0:
212,312,35600,1,4,3:0:0:0:
276,316,35688,1,2,0:0:0:0:
333,285,35776,1,4,3:0:0:0:
354,224,35864,1,2,0:0:0:0:
343,160,35952,6,0,P|317:135|260:122,1,71.8749986290932,4|0,3:0|0:0,0:0:0:0:
189,234,36129,2,0,P|214:208|227:151,1,71.8749986290932,4|0,3:0|0:0,0:0:0:0:
333,285,36305,6,0,L|414:292,1,71.8749986290932,2|2,0:0|0:0,0:0:0:0:
283,122,36482,2,0,L|290:41,1,71.8749986290932,2|2,0:0|0:0,0:0:0:0:
415,181,36658,1,4,3:0:0:0:
203,87,36835,5,0,0:0:0:0:
217,207,37011,1,2,1:0:0:0:
224,271,37100,1,2,0:0:0:0:
232,334,37188,1,2,0:0:0:0:
139,167,37364,1,2,1:0:0:0:
124,230,37452,1,2,0:0:0:0:
109,291,37541,1,2,0:0:0:0:
91,91,37717,1,2,1:0:0:0:
56,146,37805,1,2,0:0:0:0:
21,198,37894,1,2,0:0:0:0:
203,87,38070,5,0,0:0:0:0:
223,257,38247,2,0,L|232:336,2,71.8749986290932,2|2|2,0:0|0:0|0:0,0:0:0:0:
203,87,38600,2,0,B|151:93|151:93|120:55|120:55|149:9|149:9|234:0|234:0|269:30,1,287.499994516373,2|2,1:0|0:0,0:0:0:0:
329,191,39129,5,2,3:0:0:0:
417,218,39247,5,2,3:0:0:0:
491,164,39364,5,2,3:0:0:0:
473,75,39482,5,2,0:0:0:0:
387,45,39600,5,2,0:0:0:0:
314,101,39717,5,2,0:0:0:0:
329,191,39835,5,2,0:0:0:0:
305,237,39923,1,2,0:0:0:0:
258,241,40011,1,2,0:0:0:0:
238,224,40100,1,2,0:0:0:0:
236,192,40188,6,0,L|234:65,1,71.8749986290932,4|0,3:0|0:0,0:0:0:0:
341,255,40364,2,0,L|346:124,1,71.8749986290932,4|0,3:0|0:0,0:0:0:0:
505,195,40541,6,0,L|392:187,1,71.8749986290932,4|0,3:0|0:0,0:0:0:0:
379,331,40717,2,0,L|265:334,1,62.4999976158143,4|0,3:0|0:0,0:0:0:0:
127,279,40894,5,4,0:0:0:0:
226,275,40982,1,8,3:0:0:0:
37,180,41158,1,2,0:0:0:0:
37,180,41247,2,0,L|151:183,1,62.4999976158143,4|4,3:0|3:0,0:0:0:0:
107,367,41423,2,0,L|221:370,1,62.4999976158143,0|0,3:0|3:0,0:0:0:0:
256,178,41600,1,4,3:0:0:0:
32,285,41776,1,8,3:0:0:0:
307,281,41952,5,4,3:0:0:0:
208,277,42041,1,8,3:0:0:0:
397,182,42217,1,2,0:0:0:0:
397,182,42305,2,0,L|283:185,1,62.4999976158143,4|4,3:0|3:0,0:0:0:0:
327,369,42482,2,0,L|213:372,1,62.4999976158143,0|0,0:0|0:0,0:0:0:0:
178,180,42658,1,4,3:0:0:0:
402,287,42835,1,8,3:0:0:0:
146,104,43011,6,0,L|260:107,1,62.4999976158143,4|4,3:0|3:0,0:0:0:0:
216,291,43188,2,0,L|330:294,1,62.4999976158143,0|0,0:0|0:0,0:0:0:0:
341,137,43364,2,0,B|348:103|348:103|342:75,1,62.4999976158143,4|4,3:0|3:0,0:0:0:0:
129,291,43629,1,8,3:0:0:0:
466,276,43805,6,0,L|464:213,1,62.4999976158143,4|4,3:0|3:0,0:0:0:0:
279,206,43982,2,0,L|277:143,1,62.4999976158143,0|0,0:0|0:0,0:0:0:0:
432,80,44158,2,0,B|466:73|466:73|494:79,1,62.4999976158143,4|4,3:0|3:0,0:0:0:0:
278,292,44423,1,8,3:0:0:0:
222,75,44600,5,4,3:0:0:0:
321,71,44688,1,8,3:0:0:0:
173,217,44864,1,2,0:0:0:0:
155,175,44952,2,0,L|153:112,1,62.4999976158143,4|4,3:0|3:0,0:0:0:0:
393,163,45129,2,0,L|391:100,1,62.4999976158143,0|0,0:0|0:0,0:0:0:0:
275,140,45305,1,4,3:0:0:0:
512,153,45482,1,8,3:0:0:0:
403,338,45658,6,0,L|340:340,1,62.4999976158143,4|4,3:0|3:0,0:0:0:0:
393,163,45835,2,0,L|330:165,1,62.4999976158143,0|4,0:0|3:0,0:0:0:0:
503,334,46100,1,8,3:0:0:0:
109,338,46276,6,0,L|172:340,1,62.4999976158143,4|4,3:0|3:0,0:0:0:0:
119,163,46452,2,0,L|182:165,1,62.4999976158143,0|4,0:0|3:0,0:0:0:0:
0,335,46717,1,4,3:0:0:0:
256,256,46894,1,4,3:0:0:0:
256,28,47070,1,4,3:0:0:0:
51,206,47247,5,4,3:0:0:0:
330,334,47776,1,4,3:0:0:0:
256,28,48305,1,4,3:0:0:0:
160,224,48835,1,4,3:0:0:0:
352,224,49188,1,4,3:0:0:0:
256,28,49717,1,4,3:0:0:0:
256,224,50070,5,0,3:0:0:0:
256,224,51482,5,4,3:0:0:0:
256,239,51835,1,4,3:0:0:0:
256,252,52188,5,4,3:0:0:0:
256,267,52364,5,4,3:0:0:0:
255,283,52541,5,2,0:0:0:0:
255,302,52629,1,2,0:0:0:0:
255,324,52717,1,2,0:0:0:0:
255,343,52805,1,2,0:0:0:0:
256,361,52894,5,4,0:0:0:0:
