osu file format v14

[General]
AudioFilename: audio.mp3
AudioLeadIn: 0
PreviewTime: 28553
Countdown: 0
SampleSet: Soft
StackLeniency: 0.3
Mode: 0
LetterboxInBreaks: 0
WidescreenStoryboard: 1

[Editor]
DistanceSpacing: 1
BeatDivisor: 4
GridSize: 4
TimelineZoom: 2.500005

[Metadata]
Title:Gourmet Race (Short Ver.)
TitleUnicode:Gourmet Race (Short Ver.)
Artist:Jun Ishikawa
ArtistUnicode:Jun Ishikawa
Creator:Chrll
Version:Normal
Source:
Tags:kirby gourmet race short ver version super smash bros brothers ultimate instrumental shoutingg
BeatmapID:2102368
BeatmapSetID:996971

[Difficulty]
HPDrainRate:4
CircleSize:3.5
OverallDifficulty:4
ApproachRate:5
SliderMultiplier:1.20000000596046
SliderTickRate:1

[Events]
//Background and Video events
0,0,"970019.png",0,0
//Break Periods
2,23290,27053
//Storyboard Layer 0 (Background)
//Storyboard Layer 1 (Fail)
//Storyboard Layer 2 (Pass)
//Storyboard Layer 3 (Foreground)
//Storyboard Sound Samples

[TimingPoints]
280,321.285140562249,4,2,0,70,1,0
280,-166.666666666667,4,2,0,70,0,0
2689,-100,4,2,0,40,0,0
7669,-100,4,2,0,70,0,0
11685,-100,4,2,0,40,0,0
12810,-100,4,2,0,70,0,0
17950,-100,4,2,0,70,0,0
23010,-100,4,2,0,70,0,0
28553,-100,4,2,0,70,0,0
33533,-100,4,2,0,70,0,0
38031,-100,4,2,0,70,0,0
38673,-100,4,2,0,70,0,0
42689,-100,4,2,0,45,0,0
43653,-125,4,2,0,60,0,0

[HitObjects]
52,339,280,6,0,B|156:136|399:99,1,431.999988962174,0|0,1:2|1:2,0:0:0:0:
379,183,2528,1,0,1:2:0:0:
320,288,2850,6,0,P|295:312|213:330,1,120.000000596046,2|0,1:2|1:2,0:0:0:0:
99,294,3492,2,0,P|66:281|15:214,1,120.000000596046,2|0,1:2|1:2,0:0:0:0:
59,103,4135,1,2,1:2:0:0:
142,71,4456,2,0,L|268:59,1,120.000000596046,2|2,1:2|1:2,0:0:0:0:
105,214,5420,6,0,L|231:202,1,120.000000596046,2|2,1:2|1:2,0:0:0:0:
343,187,6063,1,2,1:2:0:0:
358,68,6384,2,0,L|238:78,1,120.000000596046,2|2,1:2|1:2,0:0:0:0:
130,130,7026,1,2,1:2:0:0:
79,239,7348,1,2,1:2:0:0:
176,266,7990,6,0,P|195:210|262:209,1,120.000000596046,2|0,1:2|1:2,0:0:0:0:
336,266,8633,6,0,P|317:210|250:209,1,120.000000596046,2|0,1:2|1:2,0:0:0:0:
398,260,9275,6,0,L|387:136,1,120.000000596046,2|2,1:2|1:2,0:0:0:0:
341,29,9918,1,2,1:2:0:0:
221,38,10239,2,0,L|97:48,1,120.000000596046,2|2,1:2|1:2,0:0:0:0:
87,167,10882,2,0,L|76:286,1,120.000000596046,2|2,1:2|1:2,0:0:0:0:
192,257,11524,1,2,1:2:0:0:
306,220,11846,2,0,L|429:209,1,120.000000596046,2|2,1:2|1:2,0:0:0:0:
465,96,12488,1,2,1:2:0:0:
340,47,13131,6,0,P|284:66|283:133,1,120.000000596046,2|0,1:2|1:2,0:0:0:0:
172,47,13773,6,0,P|228:66|229:133,1,120.000000596046,2|0,1:2|1:2,0:0:0:0:
140,193,14416,2,0,L|150:316,1,120.000000596046,2|2,1:2|1:2,0:0:0:0:
269,326,15059,1,2,1:2:0:0:
105,245,15701,6,0,L|228:234,1,120.000000596046,2|2,1:2|1:2,0:0:0:0:
313,315,16344,2,0,L|302:195,1,120.000000596046,2|2,1:2|1:2,0:0:0:0:
299,75,16986,1,2,1:2:0:0:
179,92,17308,2,0,L|59:102,1,120.000000596046,2|2,1:2|1:2,0:0:0:0:
62,278,18271,6,0,P|109:241|180:245,1,120.000000596046,2|2,1:2|1:2,0:0:0:0:
247,238,18914,2,0,P|305:236|352:199,1,120.000000596046,2|2,1:2|1:2,0:0:0:0:
262,120,19557,2,0,P|309:83|380:87,1,120.000000596046,2|2,1:2|1:2,0:0:0:0:
475,133,20199,1,2,1:2:0:0:
463,252,20520,1,2,1:2:0:0:
383,342,20842,6,0,P|324:340|277:303,1,120.000000596046,2|2,1:2|1:2,0:0:0:0:
285,184,21484,2,0,P|226:185|179:222,1,120.000000596046,2|2,1:2|1:2,0:0:0:0:
142,336,22127,2,0,P|72:288|135:50,1,360.000001788139,2|0,0:2|1:2,0:0:0:0:
34,288,28553,6,0,L|45:159,1,120.000000596046,2|2,1:2|1:2,0:0:0:0:
131,85,29195,2,0,L|259:96,1,120.000000596046,2|2,1:2|1:2,0:0:0:0:
155,169,29838,2,0,L|144:288,1,120.000000596046,2|2,1:2|1:2,0:0:0:0:
228,203,30480,2,0,L|239:74,1,120.000000596046,2|0,1:2|1:2,0:0:0:0:
306,182,31123,6,0,L|316:301,1,120.000000596046,2|2,1:2|1:2,0:0:0:0:
393,209,31765,2,0,L|521:220,1,120.000000596046,2|2,1:2|1:2,0:0:0:0:
498,100,32408,2,0,L|369:88,1,120.000000596046,2|2,1:2|1:2,0:0:0:0:
263,123,33051,2,0,L|252:242,1,120.000000596046,2|2,1:2|1:2,0:0:0:0:
407,253,33693,6,0,L|285:253,1,120.000000596046,0|0,3:2|3:2,0:0:0:0:
190,253,34336,2,0,L|70:253,1,120.000000596046,0|0,3:2|3:2,0:0:0:0:
70,157,34978,2,0,L|70:37,1,120.000000596046,0|0,3:2|3:2,0:0:0:0:
166,37,35621,2,0,L|294:37,1,120.000000596046,0|0,3:2|3:2,0:0:0:0:
381,35,36263,2,0,L|501:35,1,120.000000596046,0|0,3:2|3:2,0:0:0:0:
501,131,36906,2,0,L|501:251,1,120.000000596046,0|0,3:2|3:2,0:0:0:0:
404,251,37549,1,0,3:2:0:0:
404,155,37870,1,0,3:2:0:0:
308,155,38191,2,0,L|178:155,1,120.000000596046,2|0,3:2|0:0,0:0:0:0:
92,166,38834,6,0,P|62:230|75:292,1,120.000000596046,2|0,1:2|1:2,0:0:0:0:
162,241,39476,2,0,L|172:360,1,120.000000596046,2|2,1:2|1:2,0:0:0:0:
276,300,40119,1,2,1:2:0:0:
395,300,40440,1,2,1:2:0:0:
510,266,40761,2,0,P|516:221|468:169,1,120.000000596046,2|2,1:2|1:2,0:0:0:0:
351,196,41404,5,2,1:2:0:0:
259,159,41725,2,0,L|252:86,1,60.0000002980232,2|10,1:2|0:2,0:0:0:0:
218,72,42047,2,0,L|150:77,1,60.0000002980232,2|10,1:2|0:2,0:0:0:0:
127,105,42368,2,8,L|120:179,1,60.0000002980232,2|10,1:2|0:2,0:0:0:0:
139,203,42689,6,0,P|178:273|422:226,1,360.000001788139,2|2,1:2|1:2,0:0:0:0:
