osu file format v14

[General]
AudioFilename: audio.mp3
AudioLeadIn: 0
PreviewTime: 28553
Countdown: 0
SampleSet: Soft
StackLeniency: 0.3
Mode: 0
LetterboxInBreaks: 0
WidescreenStoryboard: 1

[Editor]
DistanceSpacing: 2.5
BeatDivisor: 4
GridSize: 4
TimelineZoom: 2.500005

[Metadata]
Title:Gourmet Race (Short Ver.)
TitleUnicode:Gourmet Race (Short Ver.)
Artist:Jun Ishikawa
ArtistUnicode:Jun Ishikawa
Creator:Chrll
Version:Hard
Source:
Tags:kirby gourmet race short ver version super smash bros brothers ultimate instrumental shoutingg
BeatmapID:2102366
BeatmapSetID:996971

[Difficulty]
HPDrainRate:5
CircleSize:4
OverallDifficulty:5
ApproachRate:7.5
SliderMultiplier:1.2
SliderTickRate:1

[Events]
//Background and Video events
0,0,"970019.png",0,0
//Break Periods
//Storyboard Layer 0 (Background)
//Storyboard Layer 1 (Fail)
//Storyboard Layer 2 (Pass)
//Storyboard Layer 3 (Foreground)
//Storyboard Layer 4 (Overlay)
//Storyboard Sound Samples

[TimingPoints]
280,321.285140562249,4,2,0,70,1,0
2689,-133.333333333333,4,2,0,40,0,0
7669,-100,4,2,0,70,0,0
11685,-133.333333333333,4,2,0,40,0,0
12810,-100,4,2,0,70,0,0
17549,-133.333333333333,4,2,0,70,0,0
17950,-100,4,2,0,70,0,0
22047,-200,4,2,0,70,0,0
23091,-100,4,2,0,70,0,0
38111,-133.333333333333,4,2,0,70,0,0
38834,-83.3333333333333,4,2,0,70,0,0
42689,-133.333333333333,4,2,0,45,0,0
43653,-100,4,2,0,60,0,0

[HitObjects]
87,192,280,6,0,L|160:192,1,60,0|8,1:2|0:2,0:0:0:0:
147,192,601,1,0,1:2:0:0:
147,192,761,1,8,0:2:0:0:
246,211,922,1,0,1:2:0:0:
246,211,1083,1,8,0:2:0:0:
331,175,1243,2,0,L|343:105,1,60,0|8,1:2|0:2,0:0:0:0:
342,116,1565,5,0,1:2:0:0:
208,112,1725,1,8,0:2:0:0:
208,112,1886,1,0,1:2:0:0:
208,225,2047,1,8,0:2:0:0:
303,281,2207,2,0,P|319:245|318:212,1,60,0|0,1:2|0:0,0:0:0:0:
256,96,2528,1,0,1:2:0:0:
150,192,2850,6,0,P|148:148|160:106,1,75.0000028610231,2|8,1:2|0:2,0:0:0:0:
355,134,3492,2,0,P|357:84|342:42,1,90.0000034332277,2|8,1:2|0:2,0:0:0:0:
263,27,4135,2,0,L|176:33,2,75.0000028610231,2|2|2,1:2|1:2|1:2,0:0:0:0:
175,167,5420,6,0,P|179:128|201:105,1,56.2500021457673,2|0,1:2|0:0,0:0:0:0:
189,115,5741,2,0,P|217:99|216:74,1,56.2500021457673,2|0,1:2|0:0,0:0:0:0:
217,77,6063,2,0,P|255:80|277:99,1,56.2500021457673,2|0,1:2|0:0,0:0:0:0:
269,89,6384,2,0,P|260:127|277:150,1,56.2500021457673,2|0,1:2|0:0,0:0:0:0:
267,140,6705,2,0,P|302:126|330:143,1,56.2500021457673,2|0,1:2|0:0,0:0:0:0:
317,131,7026,2,0,P|304:166|322:190,1,56.2500021457673,2|0,1:2|0:0,0:0:0:0:
334,210,7348,2,0,L|341:291,1,75.0000028610231,2|2,1:2|1:2,0:0:0:0:
367,284,7990,6,0,L|362:227,1,50,2|8,1:2|0:2,0:0:0:0:
167,189,8633,2,0,L|172:131,1,50,2|8,1:2|0:2,0:0:0:0:
319,36,9275,2,0,L|220:27,2,100,2|2|2,1:2|1:2|1:2,0:0:0:0:
407,145,10239,1,2,1:2:0:0:
407,145,10400,1,10,0:2:0:0:
407,214,10561,2,0,L|400:284,1,50,2|0,1:2|0:0,0:0:0:0:
339,275,10882,1,2,1:2:0:0:
241,190,11203,1,2,1:2:0:0:
157,289,11524,1,2,1:2:0:0:
220,209,11846,6,0,L|271:204,1,37.5000014305115,2|8,1:2|0:2,0:0:0:0:
258,150,12167,2,0,L|308:154,1,37.5000014305115,2|8,1:2|0:2,0:0:0:0:
309,212,12488,2,0,L|386:205,1,75.0000028610231,2|2,1:2|3:2,0:0:0:0:
244,260,13131,6,0,P|244:217|202:169,1,100,2|0,1:2|1:2,0:0:0:0:
104,192,13773,2,0,P|104:131|143:92,1,100,2|0,1:2|1:2,0:0:0:0:
256,91,14416,1,2,1:2:0:0:
256,192,14737,1,2,1:2:0:0:
256,292,15059,1,2,1:2:0:0:
152,237,15701,6,0,L|211:178,1,75,2|0,1:2|0:0,0:0:0:0:
205,183,16022,2,0,L|146:124,1,75,2|0,1:2|0:0,0:0:0:0:
151,129,16344,2,0,L|210:70,1,75,2|0,1:2|0:0,0:0:0:0:
204,75,16665,2,0,L|263:134,1,75,2|0,1:2|0:0,0:0:0:0:
257,128,16986,2,0,L|198:187,1,75,2|0,1:2|0:0,0:0:0:0:
203,181,17308,2,0,L|262:240,1,75,2|0,1:2|0:0,0:0:0:0:
288,236,17629,2,0,L|375:235,1,75.0000028610231,2|2,1:2|3:2,0:0:0:0:
475,192,18271,6,0,P|460:133|426:110,1,100,2|2,1:2|1:2,0:0:0:0:
403,179,18914,2,0,P|360:135|357:94,1,100,2|2,1:2|1:2,0:0:0:0:
251,200,19557,2,0,P|218:232|202:268,1,75,2|0,1:2|0:0,0:0:0:0:
205,257,19878,2,0,P|172:225|156:189,1,75,2|0,1:2|0:0,0:0:0:0:
159,199,20199,2,0,P|191:166|227:150,1,75,2|0,1:2|0:0,0:0:0:0:
217,152,20520,2,0,P|241:179|274:197,1,75,2|0,1:2|0:0,0:0:0:0:
274,197,20842,6,0,P|298:224|331:242,1,75,2|0,1:2|0:0,0:0:0:0:
331,242,21163,2,0,P|349:209|376:184,1,75,2|0,1:2|0:0,0:0:0:0:
376,184,21484,2,0,P|343:165|318:138,1,75,2|0,1:2|0:0,0:0:0:0:
318,138,21806,2,0,P|299:170|272:195,1,75,2|0,1:2|0:0,0:0:0:0:
256,192,22127,12,0,23091,1:2:0:0:
113,282,23412,6,0,B|97:232|97:232|122:214,1,75,0|0,3:2|0:0,0:0:0:0:
115,218,23733,2,0,B|128:199|128:199|178:215,1,75,0|0,3:2|0:0,0:0:0:0:
178,215,24055,2,0,B|162:165|162:165|180:151,1,75,0|0,3:2|0:0,0:0:0:0:
180,151,24376,2,0,B|130:135|130:135|116:153,1,75,0|0,3:2|0:0,0:0:0:0:
116,153,24697,2,0,B|97:139|97:139|113:89,1,75,0|0,3:2|0:0,0:0:0:0:
113,89,25018,2,0,B|111:66|111:66|159:46,1,75,0|0,3:2|0:0,0:0:0:0:
159,46,25340,2,0,B|177:59|177:59|161:109,1,75,0|0,3:2|0:0,0:0:0:0:
161,109,25661,2,0,B|177:159|177:159|158:172,1,75,0|0,3:2|0:0,0:0:0:0:
158,172,25982,6,0,B|176:185|176:185|160:235,1,75,0|0,3:2|0:0,0:0:0:0:
160,235,26304,2,0,B|146:253|146:253|96:237,1,75,0|0,3:2|0:0,0:0:0:0:
96,237,26625,2,0,B|80:287|80:287|98:300,1,75,0|0,3:2|0:0,0:0:0:0:
98,300,26946,2,0,B|111:318|111:318|161:302,1,75,0|0,3:2|0:0,0:0:0:0:
161,302,27267,2,0,B|177:252|177:252|158:238,1,75,0|0,3:2|0:0,0:0:0:0:
158,238,27589,2,0,B|171:219|171:219|221:235,1,75,2|0,3:2|0:0,0:0:0:0:
266,246,27910,2,0,L|255:123,1,100,2|0,3:2|3:2,0:0:0:0:
130,193,28553,6,0,L|98:193,4,25,2|2|10|2|2,1:2|0:2|0:2|0:2|1:2,0:0:0:0:
70,193,29035,1,10,0:2:0:0:
70,193,29195,1,2,1:2:0:0:
219,192,29516,1,2,1:2:0:0:
256,155,29677,1,10,0:2:0:0:
292,192,29838,1,2,1:2:0:0:
256,295,30159,1,2,1:2:0:0:
251,144,30480,2,0,L|242:42,1,100,2|0,1:2|1:2,0:0:0:0:
165,86,31123,5,2,1:2:0:0:
165,184,31444,2,0,L|111:179,2,50,2|10|2,1:2|0:2|1:2,0:0:0:0:
284,189,32087,2,0,L|345:184,2,50,2|10|2,1:2|0:2|1:2,0:0:0:0:
135,192,32729,1,2,1:2:0:0:
234,233,33051,2,0,L|294:238,1,50,2|8,1:2|0:2,0:0:0:0:
358,244,33372,2,0,L|353:304,1,50,2|8,1:2|0:2,0:0:0:0:
306,302,33693,6,0,P|267:303|250:274,1,75,0|0,3:2|0:0,0:0:0:0:
250,275,34014,2,0,P|251:236|222:219,1,75,0|0,3:2|0:0,0:0:0:0:
223,219,34336,2,0,P|184:218|167:247,1,75,0|0,3:2|0:0,0:0:0:0:
167,245,34657,2,0,P|128:246|111:217,1,75,0|0,3:2|0:0,0:0:0:0:
111,218,34978,2,0,P|72:219|55:190,1,75,0|0,3:2|0:0,0:0:0:0:
55,191,35300,2,0,P|54:152|83:135,1,75,0|0,3:2|0:0,0:0:0:0:
81,135,35621,2,0,P|120:134|137:163,1,75,0|0,3:2|0:0,0:0:0:0:
136,161,35942,2,0,P|175:162|192:133,1,75,0|0,3:2|0:0,0:0:0:0:
191,134,36263,6,0,P|230:133|247:162,1,75,0|0,3:2|0:0,0:0:0:0:
246,160,36585,2,0,P|207:159|190:188,1,75,0|0,3:2|0:0,0:0:0:0:
190,186,36906,2,0,P|229:185|246:214,1,75,0|0,3:2|0:0,0:0:0:0:
245,212,37227,2,0,P|206:211|189:240,1,75,0|0,3:2|0:0,0:0:0:0:
189,238,37549,2,0,P|188:277|217:294,1,75,0|0,3:2|0:0,0:0:0:0:
215,293,37870,2,0,P|254:294|271:265,1,75,0|0,3:2|0:0,0:0:0:0:
276,232,38191,2,0,L|286:117,1,112.500004291535,2|8,3:2|0:2,0:0:0:0:
175,145,38834,6,0,L|164:21,1,119.999996337891,2|0,1:2|1:2,0:0:0:0:
98,67,39316,1,10,0:2:0:0:
101,144,39476,1,2,1:2:0:0:
229,230,39798,1,2,1:2:0:0:
286,183,39958,1,10,0:2:0:0:
208,123,40119,1,2,1:2:0:0:
182,223,40440,5,2,1:2:0:0:
181,314,40761,1,2,1:2:0:0:
270,355,41083,1,2,1:2:0:0:
333,283,41404,6,0,L|327:223,1,59.9999981689454,2|0,1:2|0:0,0:0:0:0:
244,250,41725,1,2,1:2:0:0:
149,210,41886,1,10,0:2:0:0:
247,168,42047,1,2,1:2:0:0:
146,130,42207,1,10,0:2:0:0:
250,80,42368,1,2,1:2:0:0:
143,40,42528,1,10,0:2:0:0:
256,192,42689,12,2,43653,1:2:0:0:
